osu file format v14

[General]
AudioFilename: audio.mp3
AudioLeadIn: 0
PreviewTime: 57253
Countdown: 0
SampleSet: Soft
StackLeniency: 0.7
Mode: 0
LetterboxInBreaks: 0
WidescreenStoryboard: 0

[Editor]
Bookmarks: 67509
DistanceSpacing: 0.9
BeatDivisor: 4
GridSize: 32
TimelineZoom: 2.599999

[Metadata]
Title:Gomakashi (TV Size)
TitleUnicode:ごまかし (TV Size)
Artist:TrySail
ArtistUnicode:TrySail
Creator:YukiZura-
Version:Magic
Source:マギアレコード 魔法少女まどか☆マギカ外伝
Tags:Magia Record Mahou Shoujo Madoka Magica Gaiden op opening japanese anime asuka_- 麻倉 もも asakura momo 雨宮 天 amamiya sora 夏川 椎菜 natsukawa shiina version short ver.
BeatmapID:2279624
BeatmapSetID:1090507

[Difficulty]
HPDrainRate:5
CircleSize:4
OverallDifficulty:8.6
ApproachRate:9.2
SliderMultiplier:1.8
SliderTickRate:1

[Events]
//Background and Video events
0,0,"tamaki.jpg",0,0
//Break Periods
//Storyboard Layer 0 (Background)
//Storyboard Layer 1 (Fail)
//Storyboard Layer 2 (Pass)
//Storyboard Layer 3 (Foreground)
//Storyboard Layer 4 (Overlay)
//Storyboard Sound Samples

[TimingPoints]
1142,317.460317460317,4,2,1,40,1,0
1142,-166.666666666667,4,2,1,40,0,0
13840,-100,4,2,1,65,0,0
23999,-142.857142857143,4,2,1,45,0,0
33999,-111.111111111111,4,2,1,55,0,0
44316,-100,4,2,1,65,0,0
44554,-100,4,2,1,5,0,0
44634,-100,4,2,1,65,0,0
45665,-100,4,2,1,5,0,0
45745,-100,4,2,1,65,0,0
49634,-100,4,2,1,5,0,0
49713,-100,4,2,1,65,0,0
50745,-100,4,2,1,5,0,0
50824,-100,4,2,1,65,0,0
52253,-100,4,2,1,30,0,0
52570,-100,4,2,1,40,0,0
52888,-100,4,2,1,50,0,0
53205,-100,4,2,1,60,0,0
53522,-100,4,2,1,70,0,0
54475,-100,4,2,1,55,0,0
56380,-166.666666666667,4,2,1,65,0,0
57015,-83.3333333333333,4,2,1,80,0,1
63602,-83.3333333333333,4,2,1,5,0,1
63681,-83.3333333333333,4,2,1,80,0,1
64554,-83.3333333333333,4,2,1,5,0,1
64634,-83.3333333333333,4,2,1,80,0,1
73761,-83.3333333333333,4,2,1,5,0,1
73840,-83.3333333333333,4,2,1,80,0,1
74713,-83.3333333333333,4,2,1,5,0,1
74792,-83.3333333333333,4,2,1,80,0,1
76062,-125,4,2,1,65,0,0
77332,-166.666666666667,4,2,1,40,0,0
77649,-142.857142857143,4,2,1,45,0,0
77967,-125,4,2,1,50,0,0
78284,-111.111111111111,4,2,1,55,0,0
78602,-100,4,2,1,60,0,0
78919,-90.9090909090909,4,2,1,65,0,0
79237,-83.3333333333333,4,2,1,70,0,0
79554,-76.9230769230769,4,2,1,75,0,0
79872,-100,4,2,1,80,0,0
81618,-200,4,2,1,65,0,0
82411,-333.333333333333,4,2,1,55,0,0
83681,-200,4,2,1,45,0,0

[Colours]
Combo1 : 255,102,179
Combo2 : 51,153,255
Combo3 : 255,0,255
Combo4 : 255,230,130

[HitObjects]
95,254,824,5,2,0:0:0:0:
123,61,1142,6,0,P|150:131|83:261,1,215.999993408203,2|0,3:2|0:0,0:0:0:0:
57,350,2094,1,2,0:0:0:0:
57,350,2411,6,0,L|280:322,1,215.999993408203,2|0,0:0|0:0,0:0:0:0:
378,259,3364,2,0,L|455:274,1,53.9999983520508,2|0,0:0|0:0,0:0:0:0:
369,146,3681,6,0,P|307:159|275:209,1,107.999996704102,2|0,3:2|0:0,0:0:0:0:
468,151,4157,2,0,P|454:98|410:57,1,107.999996704102,2|0,3:2|0:0,0:0:0:0:
281,53,4634,2,0,P|252:67|223:100,1,53.9999983520508,2|0,0:0|0:0,0:0:0:0:
65,189,4951,6,0,P|154:143|230:223,1,215.999993408203,2|0,0:0|0:0,0:0:0:0:
168,321,5903,1,2,0:0:0:0:
228,213,6221,6,0,L|347:225,1,107.999996704102,2|0,3:2|0:0,0:0:0:0:
411,297,6697,2,0,P|436:249|436:193,1,107.999996704102,2|0,0:0|0:0,0:0:0:0:
382,104,7173,1,2,0:0:0:0:
382,104,7491,6,0,B|328:151|328:151|184:104,1,215.999993408203,2|0,0:0|0:0,0:0:0:0:
95,69,8443,1,2,0:0:0:0:
25,182,8761,6,0,P|15:243|33:287,1,107.999996704102,2|0,3:2|0:0,0:0:0:0:
184,208,9237,2,0,P|201:157|190:105,1,107.999996704102,2|0,3:2|0:0,0:0:0:0:
128,284,9713,2,0,P|150:297|188:300,1,53.9999983520508,2|0,0:0|0:0,0:0:0:0:
295,229,10030,5,2,0:0:0:0:
256,192,10110,12,0,13522,0:0:0:0:
455,262,13840,6,0,P|407:244|277:251,1,180,6|8,3:2|0:0,0:0:0:0:
146,351,14316,1,2,0:0:0:0:
207,165,14475,1,2,3:2:0:0:
246,335,14634,1,2,3:2:0:0:
74,282,14792,1,10,3:2:0:0:
201,134,14951,6,0,B|261:166|261:166|383:127,1,180,2|0,0:0|0:0,0:0:0:0:
428,46,15427,1,8,0:0:0:0:
120,62,15586,2,0,P|96:128|164:238,1,180,2|0,3:2|3:2,0:0:0:0:
276,71,16062,1,10,0:0:0:0:
276,71,16221,1,2,0:0:0:0:
363,222,16380,6,0,P|350:270|352:327,1,90,6|0,3:2|0:0,0:0:0:0:
469,160,16697,2,0,P|467:115|455:71,1,90,10|0,0:0|0:0,0:0:0:0:
276,71,17015,1,2,3:2:0:0:
381,206,17173,1,2,3:2:0:0:
409,1,17332,1,10,3:2:0:0:
284,179,17491,6,0,L|291:279,1,90,2|2,0:0|3:2,0:0:0:0:
186,124,17808,2,0,L|179:213,1,90,2|8,0:0|0:0,0:0:0:0:
73,71,18126,2,0,P|78:138|80:259,1,180,2|0,3:2|3:2,0:0:0:0:
157,345,18602,1,10,0:0:0:0:
157,345,18681,1,0,0:0:0:0:
157,345,18761,2,0,P|186:332|228:335,1,45,8|0,0:0|0:0,0:0:0:0:
372,288,18919,6,0,P|301:286|315:376,1,180,6|8,3:2|0:0,0:0:0:0:
494,346,19395,1,2,0:0:0:0:
450,178,19554,1,2,3:2:0:0:
378,319,19713,1,2,3:2:0:0:
334,151,19872,1,10,3:2:0:0:
188,348,20030,6,0,P|123:344|113:230,1,180,2|0,3:2|3:2,0:0:0:0:
167,175,20507,1,8,0:0:0:0:
50,66,20665,2,0,B|94:86|94:86|146:61,1,90,2|0,3:2|0:0,0:0:0:0:
288,138,20983,1,8,0:0:0:0:
212,29,21141,1,10,0:0:0:0:
188,178,21300,1,2,0:0:0:0:
323,51,21459,6,0,P|355:48|401:62,2,60,2|2|2,3:2|0:0|0:0,0:0:0:0:
414,43,21776,6,0,P|438:63|461:105,2,60,2|2|2,0:0|0:0|0:0,0:0:0:0:
484,99,22094,6,0,P|487:130|472:177,2,60,2|2|2,3:2|0:0|0:0,0:0:0:0:
503,186,22411,6,0,P|482:210|440:233,2,60,2|2|2,0:0|0:0|0:0,0:0:0:0:
399,324,22729,6,0,P|330:251|256:295,1,180,6|0,0:0|0:0,0:0:0:0:
97,299,23205,1,2,0:0:0:0:
97,299,23284,1,2,0:0:0:0:
97,299,23364,2,0,P|137:237|184:366,1,270,2|0,0:0|0:0,0:0:0:0:
256,169,23999,6,0,P|209:147|175:145,1,62.9999980773926,2|0,3:2|0:0,0:0:0:0:
107,139,24316,1,0,0:0:0:0:
107,139,24475,1,0,0:0:0:0:
150,54,24634,2,0,P|200:40|233:44,1,62.9999980773926,2|0,0:0|0:0,0:0:0:0:
300,76,24951,2,0,P|350:89|383:85,1,62.9999980773926,2|0,0:0|0:0,0:0:0:0:
470,54,25268,6,0,P|447:126|461:185,1,125.999996154785,2|0,0:0|0:0,0:0:0:0:
483,266,25745,1,0,0:0:0:0:
483,266,25903,2,0,L|498:356,1,62.9999980773926,0|0,0:0|0:0,0:0:0:0:
382,222,26221,2,0,L|374:288,1,62.9999980773926,2|0,0:0|0:0,0:0:0:0:
314,361,26538,6,0,P|273:368|234:364,1,62.9999980773926,2|0,0:0|0:0,0:0:0:0:
165,334,26856,1,2,0:0:0:0:
165,334,27015,2,0,P|124:327|85:331,1,62.9999980773926,2|0,0:0|0:0,0:0:0:0:
22,229,27332,2,0,L|162:217,1,125.999996154785,2|0,0:0|0:0,0:0:0:0:
248,196,27808,5,2,0:0:0:0:
185,297,27967,1,2,0:0:0:0:
256,182,28126,1,2,0:0:0:0:
293,337,28284,2,0,P|330:339|359:324,2,62.9999980773926,2|2|2,0:0|0:0|0:0,0:0:0:0:
394,199,28761,2,0,P|404:227|401:275,1,62.9999980773926,2|0,0:0|0:0,0:0:0:0:
441,120,29078,6,0,P|420:110|363:111,1,62.9999980773926,2|0,0:0|0:0,0:0:0:0:
293,148,29395,1,0,0:0:0:0:
293,148,29554,1,0,0:0:0:0:
219,82,29713,2,0,L|230:2,1,62.9999980773926,0|0,0:0|0:0,0:0:0:0:
114,80,30030,2,0,L|122:142,1,62.9999980773926,2|0,0:0|0:0,0:0:0:0:
72,275,30348,6,0,P|106:239|195:258,1,125.999996154785,2|0,0:0|0:0,0:0:0:0:
256,310,30824,1,0,0:0:0:0:
256,310,30983,2,0,P|289:316|326:299,1,62.9999980773926,0|0,0:0|0:0,0:0:0:0:
387,243,31300,2,0,L|392:177,1,62.9999980773926,2|0,0:0|0:0,0:0:0:0:
462,111,31618,6,0,L|457:45,1,62.9999980773926,2|0,0:0|0:0,0:0:0:0:
373,6,31935,1,2,0:0:0:0:
373,6,32094,2,0,P|325:38|245:13,1,125.999996154785,2|2,0:0|0:0,0:0:0:0:
159,22,32570,2,0,L|172:114,1,62.9999980773926,0|0,0:0|0:0,0:0:0:0:
204,285,32888,5,2,0:0:0:0:
73,76,33126,5,2,0:0:0:0:
45,335,33364,5,2,0:0:0:0:
174,131,33522,5,2,3:2:0:0:
211,303,33681,1,0,3:2:0:0:
273,111,33840,1,8,0:0:0:0:
360,321,33999,6,0,P|450:315|481:246,1,161.999995056153,6|0,3:2|0:0,0:0:0:0:
393,149,34475,2,0,L|387:236,1,80.9999975280763,0|0,3:2|0:0,0:0:0:0:
496,81,34792,2,0,L|502:168,1,80.9999975280763,0|0,3:2|0:0,0:0:0:0:
380,35,35110,2,0,P|340:23|293:26,1,80.9999975280763,2|0,3:2|0:0,0:0:0:0:
224,95,35427,5,2,3:2:0:0:
224,95,35507,1,2,0:0:0:0:
224,95,35586,1,2,0:0:0:0:
84,16,35745,2,0,B|117:58|117:58|86:190,1,161.999995056153,0|0,3:2|3:2,0:0:0:0:
93,164,36221,1,0,0:0:0:0:
85,333,36380,1,2,3:2:0:0:
9,159,36538,1,8,0:0:0:0:
105,340,36697,6,0,P|183:355|218:343,1,80.9999975280763,2|0,3:2|0:0,0:0:0:0:
287,276,37015,1,2,3:2:0:0:
287,276,37173,2,0,P|365:261|400:273,1,80.9999975280763,2|0,0:0|3:2,0:0:0:0:
224,351,37491,2,0,P|184:282|203:205,1,161.999995056153,2|8,0:0|0:0,0:0:0:0:
261,105,37967,5,2,3:2:0:0:
261,105,38046,1,0,0:0:0:0:
261,105,38126,2,0,P|239:76|208:58,1,40.4999987640381,10|0,0:0|0:0,0:0:0:0:
350,150,38284,5,2,3:2:0:0:
350,150,38363,1,0,0:0:0:0:
350,150,38443,2,0,P|354:113|345:79,1,40.4999987640381,2|0,0:0|0:0,0:0:0:0:
440,67,38602,5,2,3:2:0:0:
440,67,38681,1,2,0:0:0:0:
440,67,38761,2,0,P|444:103|435:137,1,40.4999987640381,2|0,0:0|0:0,0:0:0:0:
423,233,38919,5,2,3:2:0:0:
418,257,38999,1,2,0:0:0:0:
411,280,39078,1,2,3:2:0:0:
405,303,39157,1,2,3:2:0:0:
400,327,39237,6,0,P|347:308|312:306,1,80.9999975280763,6|0,3:2|0:0,0:0:0:0:
164,358,39554,2,0,B|189:296|189:296|151:178,1,161.999995056153,0|0,3:2|3:2,0:0:0:0:
75,135,40030,1,2,0:0:0:0:
75,135,40189,2,0,L|90:47,1,80.9999975280763,2|0,3:2|0:0,0:0:0:0:
231,32,40507,6,0,L|244:111,1,80.9999975280763,2|0,3:2|0:0,0:0:0:0:
265,202,40824,1,2,3:2:0:0:
355,54,40983,2,0,L|341:133,1,80.9999975280763,10|0,0:0|3:2,0:0:0:0:
437,86,41300,1,2,3:2:0:0:
424,5,41459,1,0,3:2:0:0:
498,147,41618,1,0,3:2:0:0:
506,168,41776,6,0,P|465:209|472:323,1,161.999995056153,6|0,3:2|3:2,0:0:0:0:
509,379,42253,1,2,0:0:0:0:
358,289,42411,2,0,P|314:268|251:271,1,80.9999975280763,2|0,3:2|0:0,0:0:0:0:
128,337,42729,2,0,P|167:331|203:313,1,80.9999975280763,0|0,3:2|0:0,0:0:0:0:
109,155,43046,5,0,3:2:0:0:
30,293,43205,1,8,0:0:0:0:
29,123,43364,1,8,0:0:0:0:
131,305,43522,2,0,P|120:338|120:385,2,80.9999975280763,2|2|2,0:0|0:0|0:0,0:0:0:0:
191,193,43999,2,0,P|243:170|290:179,1,80.9999975280763,2|0,0:0|0:0,0:0:0:0:
422,294,44316,6,0,L|289:320,1,135,6|0,3:2|0:0,0:0:0:0:
246,334,44634,1,10,0:0:0:0:
336,119,44792,1,0,3:2:0:0:
446,290,44951,2,0,L|465:404,1,90,0|0,3:2|0:0,0:0:0:0:
361,220,45268,1,8,0:0:0:0:
499,368,45427,6,0,L|510:200,1,135,2|0,3:2|0:0,0:0:0:0:
472,205,45745,2,0,L|467:107,1,90,2|8,3:2|0:0,0:0:0:0:
488,13,46062,1,0,3:2:0:0:
365,114,46221,2,0,P|322:136|263:126,1,90,0|0,3:2|0:0,0:0:0:0:
128,62,46538,2,0,P|172:60|211:81,1,90,8|0,0:0|0:0,0:0:0:0:
275,236,46856,6,0,L|260:343,1,90,2|0,3:2|0:0,0:0:0:0:
231,358,47094,2,0,P|189:335|128:351,1,90,2|0,0:0|0:0,0:0:0:0:
109,361,47332,1,2,3:2:0:0:
84,185,47491,2,0,L|95:291,1,90,2|0,3:2|0:0,0:0:0:0:
200,114,47808,1,10,0:0:0:0:
26,118,47967,6,0,B|124:65|123:156|225:102,1,180,2|2,3:2|3:2,0:0:0:0:
361,37,48443,1,8,0:0:0:0:
285,155,48602,1,2,0:0:0:0:
275,183,48761,1,0,3:2:0:0:
241,23,48919,1,0,3:2:0:0:
362,213,49078,1,8,0:0:0:0:
470,17,49237,1,8,0:0:0:0:
470,17,49316,1,8,0:0:0:0:
470,17,49395,6,0,L|449:166,1,135,2|0,3:2|0:0,0:0:0:0:
442,195,49713,1,10,0:0:0:0:
289,134,49872,1,2,3:2:0:0:
392,298,50030,2,0,L|490:287,1,90,2|0,3:2|0:0,0:0:0:0:
357,188,50348,1,10,0:0:0:0:
289,336,50507,6,0,P|219:350|149:314,1,135,2|0,3:2|0:0,0:0:0:0:
122,306,50824,2,0,L|135:189,1,90,2|8,3:2|0:0,0:0:0:0:
141,125,51141,1,0,3:2:0:0:
238,254,51300,2,0,L|218:162,1,90,2|0,3:2|0:0,0:0:0:0:
73,49,51618,2,0,L|53:136,1,90,10|0,0:0|0:0,0:0:0:0:
11,320,51935,6,0,P|54:312|111:334,1,90,2|0,3:2|0:0,0:0:0:0:
218,345,52253,2,0,P|242:350|272:339,3,45,0|0|0|0,3:2|0:0|0:0|0:0,0:0:0:0:
305,352,52570,2,0,P|325:338|338:309,3,45,2|0|0|0,3:2|0:0|0:0|0:0,0:0:0:0:
375,298,52888,2,0,P|380:274|369:243,3,45,0|0|0|0,3:2|0:0|0:0|0:0,0:0:0:0:
400,217,53205,6,0,P|386:196|357:183,3,45,2|0|0|0,3:2|0:0|0:0|0:0,0:0:0:0:
358,142,53522,2,0,P|333:137|303:148,3,45,0|0|0|0,3:2|0:0|0:0|0:0,0:0:0:0:
248,66,53840,1,2,3:2:0:0:
225,68,53920,1,0,0:0:0:0:
204,79,53999,2,0,P|183:92|170:121,1,45,0|0,0:0|0:0,0:0:0:0:
83,151,54157,2,0,P|77:175|88:204,1,45,2|0,3:2|0:0,0:0:0:0:
50,288,54316,2,0,P|63:309|92:322,1,45
179,373,54475,5,6,3:2:0:0:
210,355,55110,1,2,0:0:0:0:
242,339,55745,1,2,0:0:0:0:
259,138,56380,6,0,L|265:80,5,35.9999989013672,2|2|2|2|2|2,0:0|0:0|0:0|0:0|0:0|0:0,0:0:0:0:
313,211,57015,6,0,L|332:349,1,107.999996704102,6|0,3:2|0:0,0:0:0:0:
452,196,57332,2,0,L|466:89,1,107.999996704102,10|0,0:0|0:0,0:0:0:0:
218,30,57649,1,2,3:2:0:0:
338,238,57808,1,2,3:2:0:0:
405,6,57967,1,10,3:2:0:0:
236,290,58126,6,0,B|191:277|191:277|133:317,1,107.999996704102,2|0,0:0|3:2,0:0:0:0:
38,127,58443,2,0,P|98:182|210:103,1,215.999993408203,2|0,0:0|0:0,0:0:0:0:
388,33,58919,2,0,L|369:163,1,107.999996704102,0|0,3:2|3:2,0:0:0:0:
338,262,59237,1,10,0:0:0:0:
286,85,59395,1,2,0:0:0:0:
368,267,59554,6,0,L|387:397,1,107.999996704102,0|0,3:2|0:0,0:0:0:0:
457,210,59872,2,0,P|374:169|325:180,1,107.999996704102,10|0,0:0|0:0,0:0:0:0:
466,298,60189,1,2,3:2:0:0:
466,84,60348,1,2,3:2:0:0:
350,283,60507,1,10,3:2:0:0:
277,46,60665,6,0,P|228:22|146:29,1,107.999996704102,2|0,0:0|3:2,0:0:0:0:
113,163,60983,2,0,P|173:110|269:195,1,215.999993408203,2|0,0:0|0:0,0:0:0:0:
135,281,61459,2,0,L|3:248,1,107.999996704102,0|0,3:2|3:2,0:0:0:0:
198,372,61776,1,10,0:0:0:0:
239,166,61935,1,2,3:2:0:0:
239,166,62015,1,0,3:2:0:0:
239,166,62094,6,0,P|250:106|274:55,1,107.999996704102,4|0,3:2|0:0,0:0:0:0:
321,252,62411,2,0,P|342:301|350:354,1,107.999996704102,8|0,0:0|0:0,0:0:0:0:
392,161,62729,1,2,3:2:0:0:
392,161,62888,1,0,3:2:0:0:
459,356,63046,2,0,P|467:302|488:253,1,107.999996704102,10|0,0:0|0:0,0:0:0:0:
455,71,63364,6,0,L|294:52,1,161.999995056153,2|0,3:2|0:0,0:0:0:0:
251,46,63681,1,8,0:0:0:0:
399,184,63840,1,0,0:0:0:0:
187,111,63999,2,0,P|159:59|176:-21,1,107.999996704102,2|0,3:2|3:2,0:0:0:0:
265,185,64316,2,0,P|278:298|246:345,1,161.999995056153,10|0,0:0|0:0,0:0:0:0:
221,362,64634,6,0,L|85:339,1,107.999996704102,6|0,3:2|0:0,0:0:0:0:
34,172,64951,1,10,0:0:0:0:
198,255,65110,2,0,L|325:280,1,107.999996704102,2|0,3:2|0:0,0:0:0:0:
114,343,65427,1,2,3:2:0:0:
135,161,65586,1,10,3:2:0:0:
320,360,65745,6,0,B|293:288|293:288|363:152,1,215.999993408203,2|0,3:2|3:2,0:0:0:0:
451,17,66221,1,8,0:0:0:0:
466,196,66380,1,0,3:2:0:0:
333,47,66538,2,0,P|286:22|220:38,1,107.999996704102,2|0,3:2|3:2,0:0:0:0:
59,124,66856,2,0,P|111:131|158:106,1,107.999996704102,10|0,0:0|0:0,0:0:0:0:
0,45,67173,1,0,3:2:0:0:
0,45,67332,1,0,3:2:0:0:
141,229,67491,6,0,L|127:336,1,107.999996704102,14|0,0:0|0:0,0:0:0:0:
158,105,67808,1,2,3:2:0:0:
33,269,67967,1,2,3:2:0:0:
9,25,68126,1,10,3:2:0:0:
224,178,68285,6,0,B|277:190|277:190|327:151,1,107.999996704102,2|0,0:0|3:2,0:0:0:0:
457,32,68602,2,0,P|415:116|506:229,1,215.999993408203,2|0,0:0|0:0,0:0:0:0:
415,350,69078,2,0,L|285:331,1,107.999996704102,0|0,3:2|3:2,0:0:0:0:
151,317,69396,1,10,0:0:0:0:
309,210,69554,1,2,0:0:0:0:
132,333,69713,6,0,L|116:226,1,107.999996704102,0|0,3:2|0:0,0:0:0:0:
47,30,70030,2,0,L|31:136,1,107.999996704102,10|0,0:0|0:0,0:0:0:0:
9,268,70348,1,2,3:2:0:0:
144,91,70507,1,2,3:2:0:0:
167,301,70666,1,10,3:2:0:0:
149,64,70824,6,0,P|198:40|280:47,1,107.999996704102,2|0,0:0|3:2,0:0:0:0:
384,153,71141,1,2,0:0:0:0:
384,153,71300,2,0,P|361:208|368:290,1,107.999996704102,8|0,0:0|0:0,0:0:0:0:
366,302,71538,1,0,0:0:0:0:
366,302,71618,1,0,3:2:0:0:
270,145,71776,1,0,3:2:0:0:
230,315,71935,1,10,3:2:0:0:
149,114,72094,1,2,3:2:0:0:
23,324,72253,6,0,P|83:324|138:343,1,107.999996704102,6|0,3:2|0:0,0:0:0:0:
154,147,72570,2,0,P|102:162|48:161,1,107.999996704102,10|0,0:0|0:0,0:0:0:0:
220,293,72888,1,2,3:2:0:0:
220,293,73047,1,0,3:2:0:0:
260,120,73205,2,0,L|273:12,1,107.999996704102,10|0,0:0|0:0,0:0:0:0:
440,68,73522,6,0,L|460:271,1,161.999995056153,2|0,3:2|0:0,0:0:0:0:
455,272,73840,2,0,P|413:249|327:259,1,107.999996704102,8|0,0:0|0:0,0:0:0:0:
170,326,74157,2,0,P|223:326|271:302,1,107.999996704102,2|0,3:2|3:2,0:0:0:0:
74,114,74475,2,0,P|58:206|93:274,1,161.999995056153,10|0,0:0|0:0,0:0:0:0:
209,161,74793,6,0,P|214:98|189:41,1,107.999996704102,6|0,3:2|0:0,0:0:0:0:
77,127,75110,1,10,0:0:0:0:
214,181,75268,1,2,3:2:0:0:
200,45,75427,6,0,L|108:25,2,71.9999978027344,2|0|0,0:0|3:2|3:2,0:0:0:0:
293,77,75745,2,0,L|363:63,1,71.9999978027344,0|0,3:2|3:2,0:0:0:0:
369,157,75956,1,0,3:2:0:0:
369,157,76062,6,0,P|352:241|457:322,1,216,2|8,3:2|0:0,0:0:0:0:
480,331,76618,1,8,3:2:0:0:
480,331,76697,1,8,3:2:0:0:
455,217,76856,1,0,3:2:0:0:
298,347,77015,2,0,L|195:335,1,72,2|0,0:0|0:0,0:0:0:0:
79,323,77332,6,0,L|152:330,1,53.9999983520508,2|0,3:2|0:0,0:0:0:0:
238,263,77649,2,0,L|270:267,3,31.4999990386963,2|0|0|0,3:2|3:2|3:2|3:2,0:0:0:0:
245,151,77967,2,0,L|273:178,3,36,2|0|0|0,3:2|3:2|3:2|3:2,0:0:0:0:
349,65,78284,2,0,L|355:111,3,40.4999987640381,2|0|0|0,3:2|3:2|3:2|3:2,0:0:0:0:
478,123,78602,6,0,L|453:177,3,45,2|0|0|0,3:2|3:2|3:2|3:2,0:0:0:0:
447,292,78919,2,0,L|393:253,3,49.5000015106202,2|0|0|0,3:2|3:2|3:2|3:2,0:0:0:0:
280,199,79237,2,0,L|350:172,3,53.9999983520508,2|0|0|0,3:2|3:2|3:2|3:2,0:0:0:0:
147,137,79554,1,2,3:2:0:0:
99,136,79634,1,0,3:2:0:0:
60,161,79713,1,0,3:2:0:0:
41,205,79792,1,0,3:2:0:0:
46,253,79872,6,0,L|240:266,1,180,14|8,3:2|0:0,0:0:0:0:
392,342,80348,2,0,L|273:358,1,90,2|0,3:2|0:0,0:0:0:0:
216,351,80665,1,0,3:2:0:0:
280,199,80824,5,8,3:2:0:0:
298,148,80930,1,0,3:2:0:0:
318,97,81036,1,0,3:2:0:0:
338,47,81141,2,0,P|394:14|500:68,1,180,2|2,3:2|3:2,0:0:0:0:
402,186,81618,6,0,B|368:230|368:230|402:356,1,180,2|0,3:2|0:0,0:0:0:0:
257,356,82411,6,0,P|242:277|144:287,1,188.999994232178,2|0,0:0|0:0,0:0:0:0:
149,282,83681,5,2,0:0:0:0:
104,187,83999,1,2,0:0:0:0:
43,320,84316,1,2,0:0:0:0:
56,119,84951,6,0,P|112:101|157:121,1,90,2|0,0:0|0:0,0:0:0:0:
216,172,85427,2,0,P|285:204|348:172,1,135,2|0,0:0|0:0,0:0:0:0:
383,14,86141,1,2,0:0:0:0:
392,23,86221,6,0,P|384:86|395:121,1,90,2|0,0:0|0:0,0:0:0:0:
281,55,86697,2,0,L|95:36,1,180,2|0,0:0|0:0,0:0:0:0:
44,201,87491,6,0,P|113:98|19:179,1,360,2|0,0:0|0:0,0:0:0:0:
