osu file format v14

[General]
AudioFilename: audio.mp3
AudioLeadIn: 0
PreviewTime: 57253
Countdown: 0
SampleSet: Soft
StackLeniency: 0.7
Mode: 0
LetterboxInBreaks: 0
WidescreenStoryboard: 1

[Editor]
Bookmarks: 38461,67509
DistanceSpacing: 1.6
BeatDivisor: 4
GridSize: 32
TimelineZoom: 1.7

[Metadata]
Title:Gomakashi (TV Size)
TitleUnicode:ごまかし (TV Size)
Artist:TrySail
ArtistUnicode:TrySail
Creator:YukiZura-
Version:Hard
Source:マギアレコード 魔法少女まどか☆マギカ外伝
Tags:Magia Record Mahou Shoujo Madoka Magica Gaiden op opening japanese anime asuka_- 麻倉 もも asakura momo 雨宮 天 amamiya sora 夏川 椎菜 natsukawa shiina version short ver.
BeatmapID:2279623
BeatmapSetID:1090507

[Difficulty]
HPDrainRate:4
CircleSize:3.5
OverallDifficulty:6
ApproachRate:8
SliderMultiplier:1.4
SliderTickRate:1

[Events]
//Background and Video events
0,0,"tamaki.jpg",0,0
//Break Periods
//Storyboard Layer 0 (Background)
//Storyboard Layer 1 (Fail)
//Storyboard Layer 2 (Pass)
//Storyboard Layer 3 (Foreground)
//Storyboard Layer 4 (Overlay)
//Storyboard Sound Samples

[TimingPoints]
1142,317.460317460317,4,2,1,40,1,0
1142,-166.666666666667,4,2,1,40,0,0
13840,-100,4,2,1,65,0,0
23999,-142.857142857143,4,2,1,45,0,0
33999,-111.111111111111,4,2,1,55,0,0
44316,-100,4,2,1,65,0,0
44554,-100,4,2,1,5,0,0
44634,-100,4,2,1,65,0,0
45665,-100,4,2,1,5,0,0
45745,-100,4,2,1,65,0,0
49634,-100,4,2,1,5,0,0
49713,-100,4,2,1,65,0,0
50745,-100,4,2,1,5,0,0
50824,-100,4,2,1,65,0,0
52253,-100,4,2,1,30,0,0
52570,-100,4,2,1,40,0,0
52888,-100,4,2,1,50,0,0
53205,-100,4,2,1,60,0,0
53522,-100,4,2,1,70,0,0
54475,-100,4,2,1,55,0,0
56380,-100,4,2,1,65,0,0
57015,-83.3333333333333,4,2,1,80,0,1
60110,-83.3333333333333,4,2,1,80,0,1
63602,-83.3333333333333,4,2,1,5,0,1
63681,-83.3333333333333,4,2,1,80,0,1
64554,-83.3333333333333,4,2,1,5,0,1
64634,-83.3333333333333,4,2,1,80,0,1
73761,-83.3333333333333,4,2,1,5,0,1
73840,-83.3333333333333,4,2,1,80,0,1
74713,-83.3333333333333,4,2,1,5,0,1
74792,-83.3333333333333,4,2,1,80,0,1
76062,-125,4,2,1,65,0,0
77332,-166.666666666667,4,2,1,40,0,0
77649,-142.857142857143,4,2,1,45,0,0
77967,-125,4,2,1,50,0,0
78284,-111.111111111111,4,2,1,55,0,0
78602,-100,4,2,1,60,0,0
78919,-90.9090909090909,4,2,1,65,0,0
79237,-83.3333333333333,4,2,1,70,0,0
79554,-76.9230769230769,4,2,1,75,0,0
79872,-100,4,2,1,80,0,0
81618,-200,4,2,1,65,0,0
82411,-333.333333333333,4,2,1,55,0,0
83681,-200,4,2,1,45,0,0

[Colours]
Combo1 : 255,102,179
Combo2 : 51,153,255
Combo3 : 255,0,255
Combo4 : 255,230,130

[HitObjects]
25,213,824,5,2,0:0:0:0:
25,213,1142,6,0,P|81:193|165:253,1,167.999994873047,2|0,3:2|0:0,0:0:0:0:
205,360,2094,1,2,0:0:0:0:
320,341,2411,6,0,P|324:269|351:159,1,167.999994873047,2|0,0:0|0:0,0:0:0:0:
345,175,3364,1,2,0:0:0:0:
405,74,3681,6,0,P|354:61|310:72,1,83.9999974365235,2|0,3:2|0:0,0:0:0:0:
261,125,4157,2,0,P|210:138|166:127,1,83.9999974365235,2|0,3:2|0:0,0:0:0:0:
116,79,4634,1,2,0:0:0:0:
42,228,4951,6,0,B|90:196|90:196|200:239,1,167.999994873047,2|0,0:0|0:0,0:0:0:0:
192,236,5903,1,2,0:0:0:0:
314,353,6221,6,0,P|364:366|407:353,1,83.9999974365235,2|0,3:2|0:0,0:0:0:0:
456,302,6697,2,0,P|469:252|456:209,1,83.9999974365235,2|0,0:0|0:0,0:0:0:0:
413,152,7173,1,2,0:0:0:0:
287,264,7491,6,0,B|240:305|240:305|134:286,1,167.999994873047,2|0,0:0|0:0,0:0:0:0:
136,286,8443,1,2,0:0:0:0:
82,126,8761,6,0,L|169:117,1,83.9999974365235,2|0,3:2|0:0,0:0:0:0:
234,68,9237,2,0,L|321:77,1,83.9999974365235,2|0,3:2|0:0,0:0:0:0:
397,50,9713,1,2,0:0:0:0:
375,216,10030,5,2,0:0:0:0:
256,192,10110,12,0,13522,0:0:0:0:
415,335,13840,6,0,L|432:182,1,140,6|8,3:2|0:0,0:0:0:0:
395,117,14316,1,2,0:0:0:0:
395,117,14475,2,0,L|385:31,2,70,2|2|10,3:2|3:2|3:2,0:0:0:0:
319,168,14951,6,0,P|280:179|188:123,1,140,2|0,0:0|0:0,0:0:0:0:
144,67,15427,1,8,0:0:0:0:
144,67,15586,2,0,L|152:234,1,140,2|0,3:2|3:2,0:0:0:0:
161,301,16062,1,10,0:0:0:0:
161,301,16221,1,2,0:0:0:0:
238,363,16380,6,0,L|326:351,1,70,6|0,3:2|0:0,0:0:0:0:
394,326,16697,2,0,P|403:276|396:228,1,70,10|0,0:0|0:0,0:0:0:0:
379,168,17015,2,0,P|370:118|377:70,2,70,2|2|10,3:2|3:2|3:2,0:0:0:0:
308,226,17491,6,0,L|212:215,1,70,2|2,0:0|3:2,0:0:0:0:
154,253,17808,2,0,L|58:264,1,70,2|8,0:0|0:0,0:0:0:0:
32,176,18126,2,0,P|72:127|139:143,1,140,2|0,3:2|3:2,0:0:0:0:
222,91,18602,2,0,L|201:50,3,35,10|0|8|0,0:0|0:0|0:0|0:0,0:0:0:0:
254,65,18919,6,0,L|398:78,1,140,6|8,3:2|0:0,0:0:0:0:
483,112,19395,1,2,0:0:0:0:
483,112,19554,2,0,P|488:71|473:26,2,70,2|2|10,3:2|3:2|3:2,0:0:0:0:
423,181,20030,6,0,P|383:236|391:304,1,140,2|0,3:2|3:2,0:0:0:0:
461,372,20506,1,8,0:0:0:0:
461,372,20665,2,0,B|407:355|407:355|294:380,1,140,2|8,3:2|0:0,0:0:0:0:
243,333,21141,1,10,0:0:0:0:
243,333,21300,1,2,0:0:0:0:
156,361,21459,6,0,P|150:335|152:294,5,46.6666666666667,2|2|2|2|2|2,3:2|0:0|0:0|0:0|0:0|0:0,0:0:0:0:
111,286,22094,2,0,P|125:263|155:235,5,46.6666666666667,2|2|2|2|2|2,3:2|0:0|0:0|0:0|0:0|0:0,0:0:0:0:
98,224,22729,6,0,L|240:203,1,140,6|0,0:0|0:0,0:0:0:0:
326,195,23205,1,2,0:0:0:0:
326,195,23284,1,2,0:0:0:0:
326,195,23364,2,0,P|373:188|401:325,1,210,2|0,0:0|0:0,0:0:0:0:
328,321,23999,6,0,B|226:394|212:270|91:344,1,244.999992523194,2|0,3:2|0:0,0:0:0:0:
30,289,24951,2,0,P|65:264|87:256,1,48.9999985046387,2|0,0:0|0:0,0:0:0:0:
119,194,25268,6,0,L|320:223,1,195.999994018555,2|0,0:0|0:0,0:0:0:0:
464,150,26221,2,0,P|461:125|452:103,1,48.9999985046387,2|0,0:0|0:0,0:0:0:0:
388,49,26538,6,0,L|323:53,1,48.9999985046387,2|0,0:0|0:0,0:0:0:0:
269,99,26856,1,2,0:0:0:0:
269,99,27015,2,0,L|204:95,1,48.9999985046387,2|0,0:0|0:0,0:0:0:0:
152,47,27332,2,0,B|119:91|146:150,1,97.9999970092774,2|0,0:0|0:0,0:0:0:0:
177,215,27808,6,0,P|180:248|172:283,1,48.9999985046387,2|2,0:0|0:0,0:0:0:0:
153,346,28126,1,2,0:0:0:0:
153,346,28284,2,0,L|104:337,2,48.9999985046387,2|2|2,0:0|0:0|0:0,0:0:0:0:
236,346,28761,2,0,L|290:334,1,48.9999985046387,2|0,0:0|0:0,0:0:0:0:
365,353,29078,6,0,B|375:309|343:274|343:274|302:224|314:148|376:127,1,244.999992523194,2|0,0:0|0:0,0:0:0:0:
437,105,30030,2,0,L|498:97,1,48.9999985046387,2|0,0:0|0:0,0:0:0:0:
468,16,30348,6,0,L|267:45,1,195.999994018555,2|0,0:0|0:0,0:0:0:0:
111,83,31300,2,0,P|101:105|99:129,1,48.9999985046387,2|0,0:0|0:0,0:0:0:0:
145,200,31618,6,0,P|154:222|156:246,1,48.9999985046387,2|0,0:0|0:0,0:0:0:0:
133,329,31935,1,2,0:0:0:0:
133,329,32094,2,0,P|162:334|198:325,1,48.9999985046387,2|0,0:0|0:0,0:0:0:0:
254,291,32411,2,0,B|298:258|357:285,1,97.9999970092774,2|0,0:0|0:0,0:0:0:0:
430,271,32888,6,0,P|455:305|462:342,2,73.4999977569581,2|2|2,0:0|0:0|0:0,0:0:0:0:
382,202,33522,1,2,3:2:0:0:
428,132,33681,1,0,3:2:0:0:
482,194,33840,1,8,0:0:0:0:
415,118,33999,6,0,P|335:89|283:106,1,125.999996154785,6|0,3:2|0:0,0:0:0:0:
228,152,34475,2,0,P|174:157|149:142,1,62.9999980773926,0|0,3:2|0:0,0:0:0:0:
111,85,34792,2,0,L|103:6,1,62.9999980773926,0|0,3:2|0:0,0:0:0:0:
20,50,35110,2,0,L|26:112,1,62.9999980773926,2|0,3:2|0:0,0:0:0:0:
73,187,35427,6,0,P|66:241|80:327,1,125.999996154785,2|0,3:2|3:2,0:0:0:0:
148,361,35903,1,0,0:0:0:0:
148,361,36062,2,0,P|205:341|223:340,1,62.9999980773926,0|0,3:2|0:0,0:0:0:0:
295,337,36380,1,2,3:2:0:0:
256,258,36538,1,8,0:0:0:0:
256,258,36697,6,0,L|241:113,1,125.999996154785,2|2,3:2|3:2,0:0:0:0:
271,49,37173,2,0,P|312:31|347:36,1,62.9999980773926,2|0,0:0|3:2,0:0:0:0:
407,73,37491,2,0,B|387:114|387:114|410:209,1,125.999996154785,2|8,0:0|0:0,0:0:0:0:
478,242,37967,6,0,L|454:371,2,125.999996154785,2|2|2,3:2|3:2|3:2,0:0:0:0:
400,209,38761,1,2,0:0:0:0:
400,209,38919,2,0,P|368:220|337:217,1,62.9999980773926,2|2,3:2|3:2,0:0:0:0:
282,287,39237,6,0,P|223:252|120:369,1,251.999992309571,6|0,3:2|3:2,0:0:0:0:
30,366,40030,1,2,0:0:0:0:
30,366,40189,2,0,P|32:313|41:280,1,62.9999980773926,2|0,3:2|0:0,0:0:0:0:
69,222,40507,6,0,P|67:169|58:136,1,62.9999980773926,2|0,3:2|0:0,0:0:0:0:
42,74,40824,1,2,3:2:0:0:
110,17,40983,2,0,P|149:15|190:32,1,62.9999980773926,10|0,0:0|3:2,0:0:0:0:
238,79,41300,2,0,P|277:81|318:64,1,62.9999980773926,2|0,3:2|3:2,0:0:0:0:
392,83,41618,1,0,3:2:0:0:
392,83,41776,6,0,P|382:143|400:232,1,125.999996154785,6|0,3:2|3:2,0:0:0:0:
440,280,42253,1,2,0:0:0:0:
390,351,42411,2,0,L|245:333,1,125.999996154785,2|0,3:2|3:2,0:0:0:0:
177,319,42888,1,0,0:0:0:0:
108,263,43046,6,0,P|91:292|90:337,2,62.9999980773926,0|8|8,3:2|0:0|0:0,0:0:0:0:
140,183,43522,1,2,0:0:0:0:
140,183,43681,2,0,L|75:172,1,62.9999980773926,2|2,0:0|0:0,0:0:0:0:
57,85,43999,2,0,L|122:74,1,62.9999980773926,2|0,0:0|0:0,0:0:0:0:
192,20,44316,6,0,L|306:37,1,105,6|0,3:2|0:0,0:0:0:0:
340,43,44634,1,10,0:0:0:0:
433,62,44792,1,0,3:2:0:0:
433,62,44951,2,0,P|458:102|447:215,1,140,0|8,3:2|0:0,0:0:0:0:
486,279,45427,6,0,P|427:306|386:303,1,105,2|0,3:2|0:0,0:0:0:0:
352,332,45745,2,0,P|293:313|266:286,1,70,2|8,3:2|0:0,0:0:0:0:
229,245,46062,1,0,3:2:0:0:
229,245,46221,2,0,L|233:151,1,70,0|0,3:2|0:0,0:0:0:0:
309,126,46538,2,0,L|305:32,1,70,8|0,0:0|0:0,0:0:0:0:
217,30,46856,6,0,L|213:158,2,105,2|2|2,3:2|0:0|3:2,0:0:0:0:
133,67,47491,2,0,L|128:157,1,70,2|0,3:2|0:0,0:0:0:0:
52,182,47808,1,10,0:0:0:0:
52,182,47967,6,0,L|60:275,1,70,2|0,3:2|0:0,0:0:0:0:
70,342,48284,2,0,P|111:323|153:327,1,70,2|8,3:2|0:0,0:0:0:0:
220,289,48602,2,0,P|288:333|368:329,1,140,2|0,0:0|3:2,0:0:0:0:
434,317,49078,1,8,0:0:0:0:
387,246,49237,1,8,0:0:0:0:
387,246,49316,1,8,0:0:0:0:
387,246,49395,6,0,L|398:130,1,105,2|0,3:2|0:0,0:0:0:0:
437,119,49713,2,0,L|429:36,1,70,10|2,0:0|3:2,0:0:0:0:
349,7,50030,2,0,P|306:1|259:16,1,70,2|0,3:2|0:0,0:0:0:0:
225,80,50348,1,10,0:0:0:0:
225,80,50507,6,0,P|189:98|118:87,1,105,2|0,3:2|0:0,0:0:0:0:
83,76,50824,2,0,L|75:175,1,70,2|8,3:2|0:0,0:0:0:0:
123,230,51141,1,0,3:2:0:0:
123,230,51300,2,0,L|128:301,1,70,2|0,3:2|0:0,0:0:0:0:
192,365,51618,2,0,P|236:348|288:356,1,70,10|0,0:0|0:0,0:0:0:0:
332,294,51935,6,0,P|376:311|428:303,1,70,2|0,3:2|0:0,0:0:0:0:
475,361,52253,2,0,P|488:330|476:264,1,70,0|0,3:2|0:0,0:0:0:0:
436,219,52570,2,0,P|431:195|436:174,7,35,2|0|0|0|0|0|0|0,3:2|0:0|0:0|0:0|3:2|0:0|0:0|0:0,0:0:0:0:
462,150,53205,6,0,P|467:126|462:105,7,35,2|0|0|0|0|0|0|0,3:2|0:0|0:0|0:0|3:2|0:0|0:0|0:0,0:0:0:0:
434,82,53840,2,0,P|429:58|434:37,7,35,2|0|0|0|2|0|0|0,3:2|0:0|0:0|0:0|3:2|0:0|0:0|0:0,0:0:0:0:
386,34,54475,5,6,3:2:0:0:
290,173,55110,1,2,0:0:0:0:
149,80,55745,1,2,0:0:0:0:
50,208,56380,2,0,P|38:225|26:265,5,46.6666666666667,2|2|2|2|2|2,0:0|0:0|0:0|0:0|0:0|0:0,0:0:0:0:
77,251,57015,6,0,P|89:293|96:354,1,83.9999974365235,6|0,3:2|0:0,0:0:0:0:
178,372,57332,2,0,P|216:344|255:339,1,83.9999974365235,10|0,0:0|0:0,0:0:0:0:
310,267,57649,1,2,3:2:0:0:
362,343,57808,1,2,3:2:0:0:
422,273,57967,1,10,3:2:0:0:
422,273,58126,6,0,P|432:207|445:170,1,83.9999974365235,2|0,0:0|3:2,0:0:0:0:
462,101,58443,2,0,P|405:58|354:130,1,167.999994873047,2|0,0:0|0:0,0:0:0:0:
292,189,58919,2,0,P|261:131|260:101,1,83.9999974365235,0|0,3:2|3:2,0:0:0:0:
180,74,59237,1,10,0:0:0:0:
168,165,59395,1,2,0:0:0:0:
83,204,59554,6,0,P|62:257|71:299,1,83.9999974365235,0|0,3:2|0:0,0:0:0:0:
103,367,59872,2,0,L|237:353,1,125.999996154785,10|0,0:0|0:0,0:0:0:0:
273,346,60189,1,2,3:2:0:0:
219,270,60348,1,2,3:2:0:0:
274,197,60507,1,10,3:2:0:0:
274,197,60665,6,0,L|292:81,1,83.9999974365235,2|0,0:0|3:2,0:0:0:0:
317,26,60983,2,0,P|388:3|466:61,1,167.999994873047,2|0,0:0|0:0,0:0:0:0:
462,143,61459,2,0,L|445:240,1,83.9999974365235,0|0,3:2|3:2,0:0:0:0:
423,315,61776,1,10,0:0:0:0:
344,265,61935,1,2,3:2:0:0:
253,295,62094,6,0,L|157:327,1,83.9999974365235,4|0,3:2|0:0,0:0:0:0:
92,365,62411,2,0,P|81:314|103:263,1,83.9999974365235,8|0,0:0|0:0,0:0:0:0:
167,232,62729,1,2,3:2:0:0:
167,232,62888,1,0,3:2:0:0:
143,142,63046,2,0,L|122:49,1,83.9999974365235,10|0,0:0|0:0,0:0:0:0:
211,23,63364,6,0,B|251:52|251:52|367:26,1,167.999994873047,2|8,3:2|0:0,0:0:0:0:
459,23,63840,1,0,0:0:0:0:
427,110,63999,2,0,P|412:162|423:207,1,83.9999974365235,2|0,3:2|3:2,0:0:0:0:
445,278,64316,2,0,L|338:289,1,83.9999974365235,10|0,0:0|0:0,0:0:0:0:
284,339,64634,6,0,L|177:328,1,83.9999974365235,6|0,3:2|0:0,0:0:0:0:
115,360,64951,1,10,0:0:0:0:
115,360,65110,2,0,P|81:313|71:268,1,83.9999974365235,2|0,3:2|0:0,0:0:0:0:
45,200,65427,1,2,3:2:0:0:
134,222,65586,1,10,3:2:0:0:
114,131,65745,6,0,P|146:73|246:76,1,167.999994873047,2|0,3:2|3:2,0:0:0:0:
330,85,66221,2,0,L|437:40,1,83.9999974365235,8|0,0:0|3:2,0:0:0:0:
494,82,66538,2,0,P|475:132|481:190,1,83.9999974365235,2|0,3:2|3:2,0:0:0:0:
440,248,66856,2,0,P|459:298|453:356,1,83.9999974365235,10|0,0:0|0:0,0:0:0:0:
371,317,67173,1,0,3:2:0:0:
371,317,67332,1,0,3:2:0:0:
280,335,67491,6,0,P|282:293|299:254,1,83.9999974365235,14|0,0:0|0:0,0:0:0:0:
350,178,67808,1,2,3:2:0:0:
425,232,67967,1,2,3:2:0:0:
446,144,68126,1,10,3:2:0:0:
446,144,68285,6,0,P|436:78|423:41,1,83.9999974365235,2|0,0:0|3:2,0:0:0:0:
344,27,68602,2,0,B|301:61|301:61|175:32,1,167.999994873047,2|0,0:0|0:0,0:0:0:0:
92,12,69078,2,0,P|51:20|16:44,1,83.9999974365235,0|0,3:2|3:2,0:0:0:0:
23,145,69395,1,10,0:0:0:0:
23,145,69554,6,0,P|95:124|187:182,1,167.999994873047,2|0,0:0|0:0,0:0:0:0:
166,256,70031,2,0,L|154:372,1,83.9999974365235,10|0,0:0|0:0,0:0:0:0:
238,383,70348,1,2,3:2:0:0:
318,336,70507,1,2,3:2:0:0:
269,263,70666,1,10,3:2:0:0:
269,263,70824,6,0,L|277:147,1,83.9999974365235,2|0,0:0|3:2,0:0:0:0:
299,89,71141,2,0,P|341:70|402:83,1,83.9999974365235,2|8,0:0|0:0,0:0:0:0:
468,123,71459,1,0,0:0:0:0:
468,123,71538,1,0,0:0:0:0:
468,123,71618,2,0,P|487:165|474:226,1,83.9999974365235,0|0,3:2|3:2,0:0:0:0:
469,296,71935,1,10,3:2:0:0:
469,296,72094,1,2,3:2:0:0:
386,253,72253,6,0,L|280:266,1,83.9999974365235,6|0,3:2|0:0,0:0:0:0:
239,330,72570,2,0,L|133:317,1,83.9999974365235,10|0,0:0|0:0,0:0:0:0:
79,276,72888,1,2,3:2:0:0:
79,276,73047,1,0,3:2:0:0:
104,187,73205,2,0,P|116:146|107:106,1,83.9999974365235,10|0,0:0|0:0,0:0:0:0:
43,42,73523,6,0,B|83:13|83:13|199:39,1,167.999994873047,2|8,3:2|0:0,0:0:0:0:
289,64,73999,1,0,0:0:0:0:
264,153,74158,2,0,P|249:205|260:250,1,83.9999974365235,2|0,3:2|3:2,0:0:0:0:
308,308,74475,2,0,L|415:319,1,83.9999974365235,10|0,0:0|0:0,0:0:0:0:
469,266,74792,6,0,P|472:224|458:185,1,83.9999974365235,6|0,3:2|0:0,0:0:0:0:
490,100,75110,1,10,0:0:0:0:
490,100,75269,2,0,L|405:82,1,83.9999974365235,2|0,3:2|0:0,0:0:0:0:
336,23,75586,2,0,L|160:45,1,167.999994873047,2|0,0:0|0:0,0:0:0:0:
87,74,76062,6,0,P|66:144|99:194,1,112,2|0,3:2|0:0,0:0:0:0:
170,179,76538,2,0,L|217:192,2,28,8|8|8,0:0|3:2|3:2,0:0:0:0:
126,252,76856,1,0,3:2:0:0:
126,252,77015,2,0,P|85:260|59:278,1,56,2|0,0:0|0:0,0:0:0:0:
126,337,77332,6,0,P|148:344|179:347,1,41.9999987182618,2|0,3:2|0:0,0:0:0:0:
235,298,77649,2,0,P|269:286|302:294,1,48.9999985046387,2|0,3:2|3:2,0:0:0:0:
352,331,77967,2,0,P|387:340|414:336,1,56,2|0,3:2|3:2,0:0:0:0:
479,294,78284,2,0,L|486:206,1,62.9999980773926,2|0,3:2|3:2,0:0:0:0:
434,164,78602,6,0,L|428:65,1,70,2|0,3:2|3:2,0:0:0:0:
368,34,78919,2,0,P|327:18|274:27,1,77.0000023498536,2|0,3:2|3:2,0:0:0:0:
225,71,79237,2,0,L|239:155,1,83.9999974365235,2|0,3:2|3:2,0:0:0:0:
296,224,79554,2,0,L|279:313,1,90.9999958343508,2|0,3:2|3:2,0:0:0:0:
200,360,79872,6,0,P|139:360|115:273,1,140,14|8,3:2|0:0,0:0:0:0:
121,212,80348,1,2,3:2:0:0:
45,68,80665,1,0,3:2:0:0:
45,68,80824,2,0,P|89:43|133:44,1,70,8|0,3:2|0:0,0:0:0:0:
181,87,81141,6,0,P|245:113|319:98,1,140,2|2,3:2|3:2,0:0:0:0:
405,101,81618,2,0,L|382:242,1,140,2|0,3:2|0:0,0:0:0:0:
345,319,82411,6,0,P|286:333|207:299,1,146.999995513916,2|0,0:0|0:0,0:0:0:0:
145,245,83681,5,2,0:0:0:0:
68,286,83999,1,2,0:0:0:0:
33,182,84316,1,2,0:0:0:0:
273,29,84951,6,0,L|264:110,1,70,2|0,0:0|0:0,0:0:0:0:
213,165,85427,2,0,L|228:310,1,140,2|0,0:0|0:0,0:0:0:0:
296,353,86221,6,0,P|328:337|375:340,1,70,2|0,0:0|0:0,0:0:0:0:
438,302,86697,2,0,P|457:251|444:160,1,140,2|0,0:0|0:0,0:0:0:0:
382,113,87491,6,0,B|333:130|315:171|315:171|235:89|139:95,1,280,2|0,0:0|0:0,0:0:0:0:
