osu file format v14

[General]
AudioFilename: audio.mp3
AudioLeadIn: 0
PreviewTime: 57253
Countdown: 0
SampleSet: Soft
StackLeniency: 0.7
Mode: 0
LetterboxInBreaks: 0
WidescreenStoryboard: 1

[Editor]
Bookmarks: 67509
DistanceSpacing: 0.6
BeatDivisor: 4
GridSize: 32
TimelineZoom: 2.3

[Metadata]
Title:Gomakashi (TV Size)
TitleUnicode:ごまかし (TV Size)
Artist:TrySail
ArtistUnicode:TrySail
Creator:YukiZura-
Version:Asuka_-'s Insane
Source:マギアレコード 魔法少女まどか☆マギカ外伝
Tags:Magia Record Mahou Shoujo Madoka Magica Gaiden op opening japanese anime asuka_- 麻倉 もも asakura momo 雨宮 天 amamiya sora 夏川 椎菜 natsukawa shiina version short ver.
BeatmapID:2298136
BeatmapSetID:1090507

[Difficulty]
HPDrainRate:6
CircleSize:3.6
OverallDifficulty:7
ApproachRate:9
SliderMultiplier:1.9
SliderTickRate:1

[Events]
//Background and Video events
0,0,"tamaki.jpg",0,0
//Break Periods
//Storyboard Layer 0 (Background)
//Storyboard Layer 1 (Fail)
//Storyboard Layer 2 (Pass)
//Storyboard Layer 3 (Foreground)
//Storyboard Layer 4 (Overlay)
//Storyboard Sound Samples

[TimingPoints]
1142,317.460317460317,4,2,1,40,1,0
1142,-333.333333333333,4,2,1,40,0,0
13840,-125,4,2,1,65,0,0
23999,-250,4,2,1,45,0,0
33999,-142.857142857143,4,2,1,55,0,0
44316,-125,4,2,1,65,0,0
44554,-125,4,2,1,5,0,0
44634,-125,4,2,1,65,0,0
45665,-125,4,2,1,5,0,0
45745,-125,4,2,1,65,0,0
49634,-125,4,2,1,5,0,0
49713,-125,4,2,1,65,0,0
50745,-125,4,2,1,5,0,0
50824,-125,4,2,1,65,0,0
52253,-125,4,2,1,30,0,0
52570,-125,4,2,1,40,0,0
52888,-125,4,2,1,50,0,0
53205,-125,4,2,1,60,0,0
53522,-125,4,2,1,70,0,0
54475,-125,4,2,1,55,0,0
56380,-125,4,2,1,65,0,0
57015,-100,4,2,1,80,0,1
63602,-100,4,2,1,5,0,1
63681,-100,4,2,1,80,0,1
64554,-100,4,2,1,5,0,1
64634,-100,4,2,1,80,0,1
73761,-100,4,2,1,5,0,1
73840,-100,4,2,1,80,0,1
74713,-100,4,2,1,5,0,1
74792,-100,4,2,1,80,0,1
76062,-100,4,2,1,65,0,1
77332,-100,4,2,1,40,0,1
77649,-100,4,2,1,45,0,1
77967,-100,4,2,1,50,0,1
78284,-100,4,2,1,55,0,1
78602,-100,4,2,1,60,0,1
78919,-100,4,2,1,65,0,1
79237,-100,4,2,1,70,0,1
79554,-100,4,2,1,75,0,1
79872,-100,4,2,1,80,0,1
80507,-142.857142857143,4,2,1,80,0,0
81618,-142.857142857143,4,2,1,65,0,0
82411,-142.857142857143,4,2,1,55,0,0
83681,-142.857142857143,4,2,1,45,0,0
84951,-200,4,2,1,45,0,0
85427,-250,4,2,1,45,0,0
86221,-500,4,2,1,45,0,0

[Colours]
Combo1 : 255,102,179
Combo2 : 51,153,255
Combo3 : 255,0,255
Combo4 : 255,230,130

[HitObjects]
63,83,1142,6,0,L|182:69,1,113.999996520996,2|0,3:2|0:0,0:0:0:0:
242,186,2094,1,2,0:0:0:0:
242,186,2411,2,0,L|121:174,1,113.999996520996,2|0,0:0|0:0,0:0:0:0:
57,272,3364,1,2,0:0:0:0:
57,272,3681,6,0,L|41:359,2,85.4999973907472,2|2|2,3:2|3:2|0:0,0:0:0:0:
128,174,4951,5,2,0:0:0:0:
204,277,5268,1,0,0:0:0:0:
328,213,5586,1,0,0:0:0:0:
457,261,5903,1,2,0:0:0:0:
328,213,6221,6,0,L|339:118,2,85.4999973907472,2|2|2,3:2|0:0|0:0,0:0:0:0:
382,58,7491,2,0,P|337:87|278:74,1,113.999996520996,2|0,0:0|0:0,0:0:0:0:
437,142,8443,1,2,0:0:0:0:
328,213,8761,6,0,L|232:199,2,85.4999973907472,2|2|2,3:2|3:2|0:0,0:0:0:0:
384,318,10030,2,0,L|480:304,2,85.4999973907472,2|0|0,0:0|0:0|0:0,0:0:0:0:
328,213,11300,5,0,0:0:0:0:
50,119,13840,6,0,P|122:50|185:82,1,152,6|8,3:2|0:0,0:0:0:0:
241,147,14316,1,2,0:0:0:0:
241,147,14475,2,0,L|255:59,1,76,2|2,3:2|3:2,0:0:0:0:
343,129,14792,1,10,3:2:0:0:
393,47,14951,6,0,P|438:105|406:198,1,152,2|0,0:0|0:0,0:0:0:0:
474,281,15427,1,8,0:0:0:0:
474,281,15586,2,0,L|311:259,1,152,2|0,3:2|3:2,0:0:0:0:
258,342,16062,1,10,0:0:0:0:
258,342,16221,6,0,L|276:175,1,152,2|0,0:0|0:0,0:0:0:0:
343,129,16697,1,10,0:0:0:0:
179,258,16856,1,0,0:0:0:0:
274,190,17015,2,0,P|225:169|201:142,1,76,2|2,3:2|3:2,0:0:0:0:
157,61,17332,1,10,3:2:0:0:
67,217,17491,6,0,B|45:62,2,152,2|2|2,0:0|0:0|3:2,0:0:0:0:
120,382,18443,1,0,3:2:0:0:
204,337,18602,1,10,0:0:0:0:
310,358,18761,1,8,0:0:0:0:
310,358,18840,1,0,0:0:0:0:
310,358,18919,6,0,L|295:189,1,152,6|8,3:2|0:0,0:0:0:0:
401,109,19395,1,2,0:0:0:0:
401,109,19554,2,0,L|389:193,1,76,2|2,3:2|3:2,0:0:0:0:
317,45,19872,1,10,3:2:0:0:
238,115,20030,6,0,P|153:127|104:58,1,152,2|0,3:2|3:2,0:0:0:0:
11,27,20507,1,8,0:0:0:0:
11,27,20665,2,0,L|27:182,1,152,2|8,3:2|0:0,0:0:0:0:
90,259,21141,1,10,0:0:0:0:
23,354,21300,1,2,0:0:0:0:
90,259,21459,6,0,L|142:269,5,50.6666666666667,2|2|2|2|2|2,3:2|0:0|0:0|0:0|0:0|0:0,0:0:0:0:
209,333,22094,2,0,L|269:314,5,50.6666666666667,2|2|2|2|2|2,3:2|0:0|0:0|0:0|0:0|0:0,0:0:0:0:
328,251,22729,5,6,0:0:0:0:
434,375,23364,1,2,0:0:0:0:
434,375,23999,6,0,L|423:220,1,152,2|2,3:2|0:0,0:0:0:0:
364,96,24951,1,2,0:0:0:0:
423,223,25268,2,0,L|501:199,2,76,2|0|0,0:0|0:0|0:0,0:0:0:0:
276,174,26221,1,2,0:0:0:0:
138,257,26538,6,0,L|123:136,1,114,2|2,0:0|0:0,0:0:0:0:
287,60,27332,2,0,L|275:182,1,114,2|2,0:0|0:0,0:0:0:0:
160,56,28126,1,2,0:0:0:0:
275,173,28443,1,2,0:0:0:0:
138,257,28761,1,2,0:0:0:0:
283,350,29078,6,0,P|373:355|410:294,1,152,2|0,0:0|0:0,0:0:0:0:
259,259,30030,1,2,0:0:0:0:
173,365,30348,2,0,L|84:353,2,76,2|0|0,0:0|0:0|0:0,0:0:0:0:
259,259,31300,1,2,0:0:0:0:
141,144,31618,6,0,L|152:259,2,114,2|2|0,0:0|0:0|0:0,0:0:0:0:
259,259,32888,1,2,0:0:0:0:
461,35,33999,6,0,L|436:170,1,132.999995941162,6|0,3:2|0:0,0:0:0:0:
379,233,34475,2,0,P|360:203|353:166,1,66.4999979705811,0|0,3:2|0:0,0:0:0:0:
272,150,34792,2,0,P|295:117|338:96,1,66.4999979705811,0|0,3:2|0:0,0:0:0:0:
300,21,35110,2,0,P|342:26|374:48,1,66.4999979705811,2|0,3:2|0:0,0:0:0:0:
272,150,35427,6,0,L|124:126,2,132.999995941162,2|0|0,3:2|3:2|3:2,0:0:0:0:
55,337,36380,1,2,3:2:0:0:
137,285,36538,1,8,0:0:0:0:
55,337,36697,6,0,L|39:194,1,132.999995941162,2|2,3:2|3:2,0:0:0:0:
140,128,37173,1,2,0:0:0:0:
140,128,37332,2,0,L|127:208,1,66.4999979705811,0|2,3:2|0:0,0:0:0:0:
36,34,37649,2,0,L|46:116,1,66.4999979705811,0|8,0:0|0:0,0:0:0:0:
129,193,37967,6,0,L|274:169,2,132.999995941162,2|2|2,3:2|3:2|3:2,0:0:0:0:
317,51,38919,1,2,3:2:0:0:
459,263,39237,6,0,L|479:118,1,132.999995941162,6|0,3:2|3:2,0:0:0:0:
426,56,39713,1,0,0:0:0:0:
426,56,39872,2,0,P|396:79|382:122,1,66.4999979705811,0|2,3:2|0:0,0:0:0:0:
306,144,40189,2,0,P|331:175|376:187,1,66.4999979705811,2|0,3:2|0:0,0:0:0:0:
459,263,40507,6,0,L|322:284,1,132.999995941162,2|2,3:2|3:2,0:0:0:0:
240,361,40983,1,10,0:0:0:0:
240,361,41141,2,0,L|328:378,1,66.4999979705811,0|2,3:2|3:2,0:0:0:0:
220,264,41459,2,0,L|143:278,1,66.4999979705811,0|0,3:2|3:2,0:0:0:0:
62,365,41776,6,0,L|42:232,1,132.999995941162,6|0,3:2|3:2,0:0:0:0:
167,143,42253,1,2,0:0:0:0:
167,143,42411,2,0,L|153:290,1,132.999995941162,2|0,3:2|3:2,0:0:0:0:
472,46,43046,6,0,L|456:132,1,66.4999979705811,0|8,3:2|0:0,0:0:0:0:
375,65,43363,1,8,0:0:0:0:
459,111,43522,1,2,0:0:0:0:
364,158,43681,2,0,P|323:145|305:124,1,66.4999979705811,2|2,0:0|0:0,0:0:0:0:
283,25,43999,1,2,0:0:0:0:
459,330,44316,5,6,3:2:0:0:
71,303,44634,1,10,0:0:0:0:
159,251,44792,1,0,3:2:0:0:
71,303,44951,2,0,L|55:211,1,76,0|0,3:2|0:0,0:0:0:0:
125,167,45268,1,8,0:0:0:0:
187,346,45427,5,2,3:2:0:0:
63,35,45745,1,2,3:2:0:0:
125,167,45903,2,0,L|139:78,1,76,8|0,0:0|3:2,0:0:0:0:
320,70,46221,2,0,P|271:17|188:38,1,152,0|8,3:2|0:0,0:0:0:0:
136,91,46697,1,0,0:0:0:0:
243,206,46856,6,0,L|394:177,1,152,2|8,3:2|0:0,0:0:0:0:
457,254,47332,1,2,3:2:0:0:
403,102,47491,2,0,L|389:196,1,76,2|0,3:2|0:0,0:0:0:0:
258,270,47808,1,10,0:0:0:0:
258,270,47967,6,0,L|234:173,1,76,2|0,3:2|0:0,0:0:0:0:
135,161,48284,1,2,3:2:0:0:
135,161,48443,2,0,L|123:238,1,76,8|2,0:0|0:0,0:0:0:0:
30,280,48761,1,0,3:2:0:0:
483,158,49078,1,8,0:0:0:0:
383,116,49237,1,8,0:0:0:0:
383,116,49316,1,8,0:0:0:0:
383,116,49395,6,0,L|361:271,1,152,2|10,3:2|0:0,0:0:0:0:
411,341,49872,1,2,3:2:0:0:
411,341,50030,2,0,P|337:296|268:329,1,152,2|10,3:2|0:0,0:0:0:0:
212,224,50507,6,0,L|288:204,1,76,2|0,3:2|0:0,0:0:0:0:
191,327,50824,2,0,L|39:302,1,152,2|0,3:2|3:2,0:0:0:0:
118,213,51300,1,2,3:2:0:0:
416,338,51618,1,10,0:0:0:0:
470,63,51935,6,0,L|456:111,7,38,2|0|0|0|0|0|0|0,3:2|0:0|0:0|0:0|3:2|0:0|0:0|0:0,0:0:0:0:
371,136,52570,2,0,L|354:80,7,38,2|0|0|0|0|0|0|0,3:2|0:0|0:0|0:0|3:2|0:0|0:0|0:0,0:0:0:0:
267,62,53205,6,0,L|254:119,7,38,2|0|0|0|0|0|0|0,3:2|0:0|0:0|0:0|3:2|0:0|0:0|0:0,0:0:0:0:
166,149,53840,2,0,L|155:96,7,38,2|0|0|0|2|0|0|0,3:2|0:0|0:0|0:0|3:2|0:0|0:0|0:0,0:0:0:0:
65,69,54475,5,6,3:2:0:0:
65,69,55110,1,2,0:0:0:0:
65,69,55745,1,2,0:0:0:0:
65,69,56380,1,2,0:0:0:0:
380,342,57015,6,0,L|496:361,1,95,6|0,3:2|0:0,0:0:0:0:
224,221,57332,2,0,L|247:390,1,142.5,10|0,0:0|0:0,0:0:0:0:
243,362,57649,1,2,3:2:0:0:
336,233,57808,1,2,3:2:0:0:
160,137,57967,1,10,3:2:0:0:
336,233,58126,6,0,P|366:186|352:120,1,95,2|0,0:0|3:2,0:0:0:0:
130,47,58443,2,0,P|76:92|114:224,1,190,2|0,0:0|0:0,0:0:0:0:
336,233,58919,1,0,3:2:0:0:
160,137,59078,1,0,3:2:0:0:
248,85,59237,1,10,0:0:0:0:
315,336,59395,1,2,0:0:0:0:
132,313,59554,6,0,L|18:295,1,95,0|0,3:2|0:0,0:0:0:0:
298,194,59872,2,0,L|318:370,1,142.5,10|0,0:0|0:0,0:0:0:0:
314,335,60189,1,2,3:2:0:0:
209,247,60348,1,2,3:2:0:0:
370,108,60507,1,10,3:2:0:0:
456,161,60665,6,0,P|415:203|371:210,1,95,2|0,0:0|3:2,0:0:0:0:
270,84,60983,1,2,0:0:0:0:
209,247,61141,2,0,L|192:149,1,95,8|0,0:0|0:0,0:0:0:0:
379,13,61459,2,0,L|367:131,1,95,0|0,3:2|3:2,0:0:0:0:
364,310,61776,1,10,0:0:0:0:
294,183,61935,1,2,3:2:0:0:
475,224,62094,6,0,L|371:209,1,95,4|0,3:2|0:0,0:0:0:0:
222,326,62411,2,0,L|382:307,1,142.5,8|0,0:0|0:0,0:0:0:0:
363,309,62729,1,2,3:2:0:0:
213,241,62888,1,0,3:2:0:0:
106,321,63046,2,0,P|79:275|86:211,1,95,10|0,0:0|0:0,0:0:0:0:
224,146,63364,6,0,L|210:259,1,95,2|0,3:2|0:0,0:0:0:0:
79,29,63681,2,0,L|95:149,1,95,8|0,0:0|0:0,0:0:0:0:
212,240,63999,1,2,3:2:0:0:
316,192,64157,1,0,3:2:0:0:
404,281,64316,2,0,L|427:158,1,95,10|0,0:0|0:0,0:0:0:0:
214,51,64634,6,0,L|227:174,1,95,6|0,3:2|0:0,0:0:0:0:
325,96,64951,1,10,0:0:0:0:
114,85,65110,2,0,L|4:72,1,95,2|0,3:2|0:0,0:0:0:0:
223,145,65427,1,2,3:2:0:0:
114,85,65586,1,10,3:2:0:0:
322,13,65745,6,0,B|367:78|367:78|331:201,1,190,2|0,3:2|3:2,0:0:0:0:
229,338,66221,1,8,0:0:0:0:
136,291,66380,1,0,3:2:0:0:
96,383,66538,5,2,3:2:0:0:
400,14,66856,1,10,0:0:0:0:
255,197,67173,5,0,3:2:0:0:
255,197,67332,1,0,3:2:0:0:
147,110,67491,6,0,L|132:283,1,142.5,14|0,0:0|0:0,0:0:0:0:
135,252,67808,1,2,3:2:0:0:
252,91,67967,1,2,3:2:0:0:
137,12,68126,1,10,3:2:0:0:
252,91,68284,6,0,P|305:77|339:41,1,95,2|0,0:0|3:2,0:0:0:0:
500,7,68602,2,0,B|436:68|436:68|471:165,1,190,2|0,0:0|0:0,0:0:0:0:
348,266,69078,2,0,L|359:159,1,95,0|0,3:2|3:2,0:0:0:0:
426,352,69395,1,10,0:0:0:0:
348,266,69554,1,2,0:0:0:0:
248,350,69713,6,0,P|226:318|231:244,1,95,0|0,3:2|0:0,0:0:0:0:
334,48,70030,2,0,P|369:84|352:174,1,142.5,10|0,0:0|0:0,0:0:0:0:
357,170,70348,1,2,3:2:0:0:
268,125,70507,1,2,3:2:0:0:
451,27,70665,1,10,3:2:0:0:
268,125,70824,6,0,L|161:116,1,95,2|0,0:0|3:2,0:0:0:0:
41,36,71141,2,0,B|-3:97|-3:97|41:239,1,190,2|0,0:0|0:0,0:0:0:0:
30,206,71538,1,0,0:0:0:0:
30,206,71618,2,0,P|80:194|113:154,1,95,0|0,3:2|3:2,0:0:0:0:
205,335,71935,1,10,3:2:0:0:
104,286,72094,1,2,3:2:0:0:
275,197,72253,6,0,P|306:239|289:311,1,95,6|0,3:2|0:0,0:0:0:0:
98,381,72570,2,0,L|106:265,1,95,10|0,0:0|0:0,0:0:0:0:
321,106,72888,1,2,3:2:0:0:
321,106,73046,1,0,3:2:0:0:
275,197,73205,2,0,L|170:184,1,95,10|0,0:0|0:0,0:0:0:0:
12,89,73522,6,0,L|208:71,1,190,2|8,3:2|0:0,0:0:0:0:
321,106,73999,1,0,0:0:0:0:
433,28,74157,2,0,P|453:64|446:143,1,95,2|0,3:2|3:2,0:0:0:0:
302,199,74475,2,0,L|322:98,1,95,10|0,0:0|0:0,0:0:0:0:
499,264,74792,6,0,P|427:331|342:304,1,190,6|10,3:2|0:0,0:0:0:0:
302,199,75268,2,0,P|261:178|200:187,1,95,2|0,3:2|0:0,0:0:0:0:
135,355,75586,2,0,L|101:148,1,190,2|0,0:0|0:0,0:0:0:0:
135,355,76062,6,0,B|169:360|215:310|215:310|253:373|323:380,2,190,2|0|8,3:2|0:0|3:2,0:0:0:0:
457,221,77015,1,2,0:0:0:0:
151,70,77332,6,0,L|138:-6,3,47.5,2|0|0|0,3:2|0:0|0:0|0:0,0:0:0:0:
233,131,77649,2,0,L|250:55,3,47.5,2|0|0|0,3:2|3:2|3:2|3:2,0:0:0:0:
339,100,77967,2,0,L|327:35,3,47.5,2|0|0|0,3:2|3:2|3:2|3:2,0:0:0:0:
428,128,78284,2,0,L|444:58,3,47.5,2|0|0|0,3:2|3:2|3:2|3:2,0:0:0:0:
411,239,78602,6,0,L|480:220,3,47.5,2|0|0|0,3:2|3:2|3:2|3:2,0:0:0:0:
316,297,78919,2,0,L|358:343,3,47.5,2|0|0|0,3:2|3:2|3:2|3:2,0:0:0:0:
226,229,79237,2,0,L|181:285,3,47.5,2|0|0|0,3:2|3:2|3:2|3:2,0:0:0:0:
252,122,79554,2,0,L|203:88,3,47.5,2|0|0|0,3:2|3:2|3:2|3:2,0:0:0:0:
346,54,79872,5,14,3:2:0:0:
64,333,80189,1,8,0:0:0:0:
64,333,80348,2,0,B|106:248|106:248|82:175|4:182,1,190,2|0,3:2|3:2,0:0:0:0:
172,338,80824,2,0,L|225:354,2,44.3333319803874,8|0|0,3:2|3:2|3:2,0:0:0:0:
251,367,81141,6,0,L|228:226,1,132.999995941162,2|2,3:2|3:2,0:0:0:0:
368,151,81618,2,0,L|342:299,1,132.999995941162,2|0,3:2|0:0,0:0:0:0:
484,356,82094,2,0,L|472:269,1,66.4999979705811,0|0,0:0|0:0,0:0:0:0:
460,194,82411,1,2,0:0:0:0:
256,192,82491,12,2,84316,0:0:0:0:
52,51,84951,6,0,L|166:37,1,95,2|0,0:0|0:0,0:0:0:0:
182,160,85427,2,0,L|25:147,1,152,2|0,0:0|0:0,0:0:0:0:
83,320,86221,6,0,L|77:282,1,38,2|0,0:0|0:0,0:0:0:0:
205,254,86697,2,0,L|195:336,1,76,2|0,0:0|0:0,0:0:0:0:
332,296,87491,6,0,L|313:144,1,152,2|0,0:0|0:0,0:0:0:0:
