osu file format v14

[General]
AudioFilename: audio.mp3
AudioLeadIn: 0
PreviewTime: 57244
Countdown: 0
SampleSet: Soft
StackLeniency: 0.7
Mode: 0
LetterboxInBreaks: 0
WidescreenStoryboard: 1

[Editor]
Bookmarks: 85419
DistanceSpacing: 0.9
BeatDivisor: 2
GridSize: 32
TimelineZoom: 1.2

[Metadata]
Title:Gomakashi (TV Size)
TitleUnicode:ごまかし (TV Size)
Artist:TrySail
ArtistUnicode:TrySail
Creator:Crysisters
Version:Normal
Source:マギアレコード 魔法少女まどか☆マギカ外伝
Tags:Momochikun Magia Record Mahou Shoujo Madoka Magica Gaiden op opening japanese anime 麻倉 もも asakura momo 雨宮 天 amamiya sora 夏川 椎菜 natsukawa shiina version Madoka☆Magica Puella Magi Side Story: VVCL-1633 アニプレックス j-pop jpop pop マギレコ Magireco
BeatmapID:4459985
BeatmapSetID:2115431

[Difficulty]
HPDrainRate:3
CircleSize:3
OverallDifficulty:3
ApproachRate:5
SliderMultiplier:1
SliderTickRate:1

[Events]
//Background and Video events
0,0,"bg.jpg",0,0
//Break Periods
//Storyboard Layer 0 (Background)
//Storyboard Layer 1 (Fail)
//Storyboard Layer 2 (Pass)
//Storyboard Layer 3 (Foreground)
//Storyboard Layer 4 (Overlay)
//Storyboard Sound Samples

[TimingPoints]
-136,317.460317460317,4,2,1,40,1,0
10022,-100,4,2,2,40,0,0
13832,-100,4,2,1,65,0,0
21133,-100,4,2,1,65,0,0
22721,-100,4,2,1,65,0,0
23990,-100,4,2,1,45,0,0
29069,-100,4,2,1,45,0,0
32879,-100,4,2,2,45,0,0
33514,-100,4,2,2,45,0,0
33832,-100,4,2,1,45,0,0
33990,-100,4,2,1,55,0,0
36530,-100,4,2,1,55,0,0
37800,-100,4,2,1,55,0,0
39229,-100,4,2,1,55,0,0
40975,-100,4,2,1,55,0,0
41292,-100,4,2,1,55,0,0
41768,-100,4,2,1,55,0,0
42244,-100,4,2,2,55,0,0
43038,-100,4,2,1,55,0,0
43197,-100,4,2,1,55,0,0
43514,-100,4,2,1,55,0,0
43673,-100,4,2,1,55,0,0
44308,-100,4,2,1,65,0,0
51927,-100,4,2,1,65,0,0
52244,-100,4,2,1,40,0,0
52561,-100,4,2,1,50,0,0
52879,-100,4,2,1,60,0,0
53196,-100,4,2,1,70,0,0
53513,-100,4,2,1,80,0,0
54467,-100,4,2,1,55,0,0
56371,-100,4,2,1,65,0,0
57006,-100,4,2,1,80,0,0
66530,-100,4,2,1,80,0,0
66848,-100,4,2,1,80,0,0
67165,-100,4,2,1,80,0,0
67483,-100,4,2,1,80,0,0
75525,-100,4,2,1,80,0,0
76054,-100,4,2,3,65,0,0
76529,-100,4,2,1,65,0,0
77641,-100,4,2,1,65,0,0
79863,-100,4,2,1,80,0,0
80816,-100,4,2,1,80,0,0
81610,-100,4,2,1,65,0,0
82403,-100,4,2,1,65,0,0
84943,-125,4,2,1,45,0,0

[Colours]
Combo1 : 255,102,179
Combo2 : 51,153,255
Combo3 : 255,0,255
Combo4 : 255,230,130

[HitObjects]
306,246,1133,6,0,P|403:262|494:225,1,200,2|0,1:2|0:0,0:0:0:0:
485,134,2086,1,2,2:2:0:0:
508,47,2403,2,0,B|454:41|454:41|381:90|316:30,1,200,2|0,2:2|0:0,0:0:0:0:
261,101,3356,1,2,2:2:0:0:
257,190,3673,2,0,B|222:241|284:293|258:342,2,150,2|2|2,1:2|1:2|2:2,0:0:0:0:
261,101,4943,1,2,2:2:0:0:
261,335,5895,5,2,2:2:0:0:
174,359,6213,2,0,L|14:345,2,150,2|2|2,1:2|2:2|2:2,0:0:0:0:
261,335,7483,2,0,B|286:270|208:208|255:140,1,200,2|0,2:2|0:0,0:0:0:0:
255,51,8435,1,2,2:2:0:0:
172,15,8752,2,0,P|125:-3|76:6,1,100,2|0,1:2|0:0,0:0:0:0:
40,31,9229,2,0,P|9:90|39:176,1,150,2|2,1:2|2:2,0:0:0:0:
256,192,10022,12,0,12562,0:0:0:0:
307,345,13832,6,0,L|424:333,1,100,6|8,1:2|2:2,0:0:0:0:
487,294,14467,2,0,P|496:328|492:359,2,50,2|2|10,1:2|1:2|2:2,0:0:0:0:
463,255,14943,2,0,P|447:212|445:144,1,100,2|0,2:2|0:0,0:0:0:0:
409,74,15578,2,0,P|349:94|294:97,1,100,2|0,1:2|1:1,0:0:0:0:
268,88,16054,1,10,2:2:0:0:
268,88,16213,2,0,P|218:127|211:225,1,150,2|8,2:2|2:2,0:0:0:0:
225,296,17006,6,0,L|213:359,2,50,2|2|10,1:2|1:2|2:2,0:0:0:0:
266,279,17483,2,0,P|321:266|374:284,2,100,2|2|2,2:2|2:2|1:2,0:0:0:0:
139,327,18594,1,10,2:2:0:0:
57,288,18911,2,0,P|42:239|37:183,1,100,6|8,1:2|2:2,0:0:0:0:
89,117,19546,2,0,P|92:93|102:67,2,50,2|2|10,1:2|1:2|2:2,0:0:0:0:
120,148,20022,2,0,P|169:154|227:120,1,100,6|0,1:2|1:1,0:0:0:0:
248,103,20498,1,10,2:2:0:0:
248,103,20657,2,0,B|297:113|297:113|350:87|403:121,1,150,6|8,1:2|2:3,0:0:0:0:
456,178,21451,5,10,2:3:0:0:
454,267,21768,1,6,2:3:0:0:
381,320,22086,1,10,2:3:0:0:
293,295,22403,1,6,2:3:0:0:
215,340,22721,6,0,L|106:358,1,100,6|0,1:2|0:0,0:0:0:0:
126,268,23356,2,0,L|17:250,1,100,2|0,2:2|0:0,0:0:0:0:
12,162,23990,6,0,B|108:125|111:186|206:147,1,200,2|0,1:2|0:0,0:0:0:0:
240,63,24943,1,2,2:2:0:0:
323,95,25260,2,0,B|419:103|419:103|427:165|465:200,1,200,2|0,2:2|0:0,0:0:0:0:
473,285,26213,2,0,P|420:310|396:348,1,100,2|2,2:2|2:2,0:0:0:0:
314,376,26848,1,2,2:2:0:0:
269,366,27006,2,0,L|154:340,1,100,2|2,2:2|2:2,0:0:0:0:
54,255,27800,2,0,P|24:179|61:64,2,200,2|2|4,2:2|2:2|2:1,0:0:0:0:
54,255,30022,5,2,2:2:0:0:
140,230,30340,2,0,B|239:197|236:250|340:212,1,200,2|0,2:2|0:0,0:0:0:0:
420,180,31292,1,2,2:2:0:0:
448,94,31610,2,0,P|394:94|341:80,1,100,2|2,2:2|2:2,0:0:0:0:
309,62,32086,2,0,P|260:50|210:51,1,100,2|2,2:2|2:2,0:0:0:0:
83,98,32879,2,0,L|55:12,2,75,2|2|2,2:2|2:2|2:2,0:0:0:0:
99,139,33514,1,6,2:3:0:0:
36,258,33990,6,0,B|79:270|79:270|111:313|171:315,1,150,4|0,1:1|1:1,0:0:0:0:
242,366,34784,1,0,1:1:0:0:
330,383,35102,2,0,L|384:364,1,50,2|0,1:2|0:0,0:0:0:0:
410,342,35419,2,0,P|419:296|403:233,1,100,2|0,1:2|1:1,0:0:0:0:
335,191,36054,1,0,1:1:0:0:
307,105,36371,2,0,L|316:53,1,50,2|8,1:2|2:2,0:0:0:0:
332,13,36689,6,0,L|222:22,1,100,2|2,1:2|1:2,0:0:0:0:
191,25,37165,1,2,2:2:0:0:
112,68,37483,2,0,P|96:116|108:175,1,100,2|8,2:2|2:2,0:0:0:0:
119,206,37959,1,2,1:2:0:0:
167,281,38276,1,0,1:1:0:0:
255,296,38594,1,2,1:2:0:0:
340,268,38911,1,2,1:2:0:0:
412,321,39229,6,0,B|429:267|429:267|390:194|435:120,1,200,4|0,1:1|1:1,0:0:0:0:
484,58,40181,1,2,1:2:0:0:
407,9,40498,2,0,P|353:0|300:14,1,100,2|2,1:2|1:2,0:0:0:0:
272,36,40975,2,0,P|223:45|174:36,1,100,10|10,2:2|2:3,0:0:0:0:
131,20,41451,1,0,1:1:0:0:
86,98,41768,6,0,P|50:159|75:238,1,150,4|2,1:1|2:2,0:0:0:0:
97,267,42403,2,0,B|173:300|159:242|262:281,1,150,2|0,1:2|0:0,0:0:0:0:
281,298,43038,1,4,1:1:0:0:
414,280,43514,5,2,1:2:0:0:
457,290,43673,2,0,L|515:301,2,50,10|10|10,2:3|2:3|2:3,0:0:0:0:
488,208,44308,6,0,L|476:140,1,50,6|0,1:2|0:0,0:0:0:0:
471,114,44625,2,0,L|364:135,1,100,10|0,2:2|1:1,0:0:0:0:
283,122,45260,1,8,2:2:0:0:
238,116,45419,2,0,P|219:66|207:0,2,100,2|2|0,1:2|1:2|1:1,0:0:0:0:
215,155,46213,2,0,P|234:205|246:271,1,100,0|8,1:1|2:2,0:0:0:0:
211,338,46848,2,0,P|170:334|120:320,2,75,2|2|2,1:2|2:2|1:2,0:0:0:0:
248,363,47483,1,2,1:2:0:0:
347,354,47800,5,10,2:2:0:0:
376,320,47959,2,0,P|394:273|405:224,1,100,2|0,1:2|1:1,0:0:0:0:
418,176,48435,1,8,2:2:0:0:
371,87,48752,2,0,L|362:23,2,50,0|0|8,1:1|1:1|2:2,0:0:0:0:
293,149,49387,6,0,L|178:133,1,100,6|10,1:2|2:2,0:0:0:0:
144,125,49863,1,2,1:2:0:0:
144,125,50022,1,2,1:2:0:0:
66,188,50340,2,0,L|75:256,1,50,10|2,2:2|1:2,0:0:0:0:
120,325,50816,2,0,P|190:305|277:332,1,150,2|2,1:2|1:2,0:0:0:0:
363,322,51610,1,10,2:2:0:0:
256,192,51927,12,6,54467,1:2:0:0:
393,333,57006,5,6,1:2:0:0:
304,312,57324,2,0,P|254:321|200:306,1,100,10|2,2:2|1:2,0:0:0:0:
168,285,57800,2,0,L|152:225,1,50,2|10,1:2|2:2,0:0:0:0:
144,192,58117,1,2,2:2:0:0:
79,129,58435,2,0,P|112:54|229:45,1,200,2|0,2:2|1:1,0:0:0:0:
258,64,59229,2,0,L|330:51,1,50,10|2,2:2|2:2,0:0:0:0:
351,45,59546,5,0,1:1:0:0:
424,96,59863,2,0,P|411:150|409:208,1,100,10|2,2:2|1:2,0:0:0:0:
407,239,60340,2,0,L|337:250,1,50,2|10,1:2|2:2,0:0:0:0:
313,255,60657,1,2,2:2:0:0:
261,329,60975,2,0,B|213:352|213:352|173:330|173:330|126:361|62:347,1,200,2|0,2:2|1:1,0:0:0:0:
36,328,61768,2,0,L|26:271,1,50,10|2,2:2|1:2,0:0:0:0:
19,234,62086,6,0,P|52:217|118:219,1,100,4|8,1:2|2:2,0:0:0:0:
160,294,62721,1,2,1:2:0:0:
237,339,63038,1,10,2:2:0:0:
323,313,63356,2,0,P|340:280|338:214,1,100,2|8,1:2|2:2,0:0:0:0:
282,149,63990,1,2,1:2:0:0:
247,65,64308,1,10,2:2:0:0:
319,11,64625,6,0,P|368:8|413:28,1,100,6|10,1:2|2:2,0:0:0:0:
445,59,65102,1,6,1:2:0:0:
409,141,65419,2,0,L|422:209,1,50,2|10,1:2|2:2,0:0:0:0:
447,225,65737,2,0,P|405:278|319:280,1,150,6|8,1:2|2:2,0:0:0:0:
251,332,66530,1,6,2:3:0:0:
169,369,66848,2,0,L|57:347,1,100,10|4,2:2|2:3,0:0:0:0:
36,320,67324,1,4,2:3:0:0:
11,290,67483,6,0,L|33:178,1,100,14|2,2:2|1:2,0:0:0:0:
61,160,67959,2,0,L|48:97,1,50,2|10,1:2|2:2,0:0:0:0:
35,68,68276,1,2,2:2:0:0:
114,25,68594,2,0,B|180:32|180:32|234:101|313:81,1,200,2|0,2:2|1:1,0:0:0:0:
335,63,69387,2,0,L|394:75,1,50,10|2,2:2|2:2,0:0:0:0:
427,85,69705,5,0,1:1:0:0:
492,146,70022,2,0,P|472:201|467:245,1,100,10|2,2:2|1:2,0:0:0:0:
467,287,70498,2,0,L|406:303,1,50,2|10,1:2|2:2,0:0:0:0:
383,328,70816,1,2,2:2:0:0:
305,372,71133,2,0,P|254:321|287:207,1,200,2|0,2:2|1:1,0:0:0:0:
316,175,71927,2,0,L|300:116,1,50,10|2,2:2|1:2,0:0:0:0:
293,82,72244,6,0,P|243:81|201:106,1,100,4|8,1:2|2:2,0:0:0:0:
128,159,72879,1,2,1:2:0:0:
38,146,73197,1,10,2:2:0:0:
32,236,73514,2,0,P|81:245|138:251,1,100,2|8,1:2|2:2,0:0:0:0:
197,311,74149,1,2,1:2:0:0:
282,281,74467,2,0,P|319:285|356:292,1,50,10|0,2:2|0:0,0:0:0:0:
367,322,74784,2,0,P|413:312|467:307,1,100,6|10,1:2|2:2,0:0:0:0:
501,276,75260,2,0,P|491:229|486:175,1,100,6|2,1:2|2:2,0:0:0:0:
427,55,76054,6,0,P|333:35|267:114,1,200,14|8,2:3|2:2,0:0:0:0:
244,192,77006,1,2,1:2:0:0:
274,276,77324,1,6,1:2:0:0:
233,356,77641,2,0,L|111:338,1,100,6|6,2:3|2:3,0:0:0:0:
61,289,78276,2,0,L|43:167,1,100,6|6,2:3|2:3,0:0:0:0:
80,106,78911,2,0,L|202:88,1,100,6|6,2:3|2:3,0:0:0:0:
250,36,79546,1,6,2:3:0:0:
312,101,79863,6,0,P|352:119|419:113,1,100,6|8,1:2|2:2,0:0:0:0:
450,105,80340,2,0,P|469:150|466:200,1,100,2|0,1:2|1:1,0:0:0:0:
443,239,80816,1,4,2:3:0:0:
391,312,81133,2,0,P|351:294|284:300,1,100,2|0,1:2|1:1,0:0:0:0:
253,311,81610,2,0,P|207:330|102:239,1,200,6|0,2:3|0:0,0:0:0:0:
94,201,82403,1,2,2:2:0:0:
256,192,82562,12,0,84308,0:0:0:0:
209,333,84943,6,0,L|357:309,1,120,2|2,2:2|2:2,0:0:0:0:
193,193,86213,2,0,L|44:169,1,120,2|2,2:2|2:2,0:0:0:0:
208,53,87483,2,0,P|268:31|357:219,1,320,2|0,2:2|0:0,0:0:0:0:
