osu file format v14

[General]
AudioFilename: audio.mp3
AudioLeadIn: 0
PreviewTime: 57244
Countdown: 0
SampleSet: Soft
StackLeniency: 0.4
Mode: 0
LetterboxInBreaks: 0
WidescreenStoryboard: 1

[Editor]
Bookmarks: 85419
DistanceSpacing: 1.6
BeatDivisor: 4
GridSize: 16
TimelineZoom: 2.4

[Metadata]
Title:Gomakashi (TV Size)
TitleUnicode:ごまかし (TV Size)
Artist:TrySail
ArtistUnicode:TrySail
Creator:Crysisters
Version:Mochi's Hard
Source:マギアレコード 魔法少女まどか☆マギカ外伝
Tags:Momochikun Magia Record Mahou Shoujo Madoka Magica Gaiden op opening japanese anime 麻倉 もも asakura momo 雨宮 天 amamiya sora 夏川 椎菜 natsukawa shiina version Madoka☆Magica Puella Magi Side Story: VVCL-1633 アニプレックス j-pop jpop pop マギレコ Magireco
BeatmapID:4446626
BeatmapSetID:2115431

[Difficulty]
HPDrainRate:5
CircleSize:4
OverallDifficulty:6
ApproachRate:8
SliderMultiplier:1.4
SliderTickRate:1

[Events]
//Background and Video events
0,0,"bg.jpg",0,0
//Break Periods
//Storyboard Layer 0 (Background)
//Storyboard Layer 1 (Fail)
//Storyboard Layer 2 (Pass)
//Storyboard Layer 3 (Foreground)
//Storyboard Layer 4 (Overlay)
//Storyboard Sound Samples

[TimingPoints]
-136,317.460317460317,4,2,1,40,1,0
1133,-166.666666666667,4,2,1,40,0,0
10022,-166.666666666667,4,2,2,40,0,0
13832,-100,4,2,1,65,0,0
23990,-100,4,2,1,45,0,0
24943,-117.647058823529,4,2,1,45,0,0
29070,-117.647058823529,4,2,1,45,0,0
32879,-117.647058823529,4,2,2,45,0,0
33514,-117.647058823529,4,2,2,45,0,0
33832,-117.647058823529,4,2,1,45,0,0
33990,-100,4,2,1,55,0,0
36529,-100,4,2,1,55,0,0
39229,-100,4,2,1,55,0,0
40975,-100,4,2,1,55,0,0
41292,-100,4,2,1,55,0,0
42244,-100,4,2,2,55,0,0
43038,-100,4,2,1,55,0,0
43197,-100,4,2,1,55,0,0
43673,-100,4,2,1,55,0,0
44308,-100,4,2,1,65,0,0
51927,-100,4,2,1,65,0,0
52244,-100,4,2,1,40,0,0
52561,-100,4,2,1,50,0,0
52879,-100,4,2,1,60,0,0
53196,-100,4,2,1,70,0,0
53513,-100,4,2,1,80,0,0
54467,-133.333333333333,4,2,1,55,0,0
56371,-133.333333333333,4,2,1,65,0,0
57006,-100,4,2,1,80,0,1
66530,-100,4,2,1,80,0,1
66848,-100,4,2,1,80,0,1
76054,-100,4,2,3,65,0,0
76530,-100,4,2,1,65,0,0
79863,-100,4,2,1,80,0,0
81610,-133.333333333333,4,2,1,65,0,0
82403,-133.333333333333,4,2,1,65,0,0
84943,-133.333333333333,4,2,1,45,0,0
90022,-133.333333333333,4,2,1,5,0,0

[Colours]
Combo1 : 255,102,179
Combo2 : 51,153,255
Combo3 : 255,255,128
Combo4 : 192,192,192

[HitObjects]
126,57,1133,6,0,P|81:105|76:169,1,126,2|0,1:2|0:0,0:0:0:0:
107,235,1768,1,0,0:0:0:0:
249,308,2086,1,2,2:2:0:0:
249,308,2403,2,0,B|294:322|294:322|317:311|317:311|374:327,1,126,2|0,2:2|0:0,0:0:0:0:
440,291,3038,1,0,0:0:0:0:
402,135,3356,1,2,2:2:0:0:
402,135,3673,6,0,P|355:148|279:109,1,126,2|2,1:2|1:2,0:0:0:0:
229,61,4308,2,0,P|196:101|191:148,1,83.9999999999998,0|2,0:0|2:2,0:0:0:0:
169,290,4943,2,0,L|178:337,1,41.9999999999999,2|0,2:2|0:0,0:0:0:0:
249,281,5260,2,0,L|241:239,1,41.9999999999999
314,335,5578,2,0,P|351:343|404:332,1,83.9999999999998,0|2,0:0|2:2,0:0:0:0:
497,197,6213,6,0,B|462:170|471:118|471:118|442:106|421:122,1,126,2|2,1:2|2:2,0:0:0:0:
364,155,6848,2,0,L|281:133,1,83.9999999999998,0|2,0:0|2:2,0:0:0:0:
162,27,7483,2,0,L|243:48,2,83.9999999999998,2|0|0,2:2|0:0|0:0,0:0:0:0:
49,140,8435,1,2,2:2:0:0:
49,140,8752,6,0,P|53:181|78:218,1,83.9999999999998,2|0,1:2|0:0,0:0:0:0:
153,237,9229,1,2,1:2:0:0:
109,312,9387,2,0,P|97:336|92:352,2,41.9999999999999,0|0|2,0:0|0:0|2:2,0:0:0:0:
187,327,9863,1,0,0:0:0:0:
261,341,10022,1,2,2:2:0:0:
256,192,10102,12,0,13514,0:0:0:0:
504,341,13832,6,0,P|445:356|361:307,1,140,6|8,1:2|2:2,0:0:0:0:
306,276,14308,1,2,2:2:0:0:
223,290,14467,2,0,P|205:325|205:361,2,70,2|2|10,1:2|1:2|2:2,0:0:0:0:
193,211,14943,6,0,L|55:250,1,140,2|0,2:2|0:0,0:0:0:0:
7,182,15419,1,10,2:2:0:0:
51,107,15578,2,0,P|109:81|186:88,1,140,2|0,1:2|1:1,0:0:0:0:
246,31,16054,2,0,P|272:66|279:98,1,70,10|2,2:2|2:2,0:0:0:0:
264,189,16371,6,0,B|314:196|347:159|347:159|386:177|424:165,1,140,4|8,1:2|2:2,0:0:0:0:
473,200,16848,1,2,2:2:0:0:
439,277,17006,2,0,P|432:317|439:350,1,70,2|2,1:2|1:2,0:0:0:0:
348,329,17324,5,10,2:2:0:0:
348,329,17483,2,0,P|289:339|205:305,1,140,2|2,2:2|2:2,0:0:0:0:
133,293,17959,1,8,2:2:0:0:
143,209,18117,2,0,L|128:120,1,70,2|0,1:2|0:0,0:0:0:0:
28,115,18435,2,0,L|39:184,1,70,0|10,1:1|2:2,0:0:0:0:
99,62,18752,5,10,2:2:0:0:
99,62,18832,1,10,2:2:0:0:
99,62,18911,2,0,P|165:30|232:42,1,140,6|8,1:2|2:2,0:0:0:0:
296,90,19387,1,2,2:2:0:0:
296,90,19546,2,0,P|330:89|370:69,1,70,2|2,1:2|1:2,0:0:0:0:
438,37,19863,1,10,2:2:0:0:
466,130,20022,6,0,B|448:192|448:192|477:219|466:268,1,140,6|0,1:2|1:1,0:0:0:0:
418,330,20498,1,10,2:2:0:0:
352,236,20657,2,0,L|213:273,1,140,6|8,1:2|2:2,0:0:0:0:
152,326,21133,1,8,2:3:0:0:
66,180,21451,6,0,L|13:170,2,46.6666666666667,10|4|4,2:3|2:3|2:3,0:0:0:0:
107,142,21768,2,0,L|122:83,2,46.6666666666667,6|4|4,2:3|2:3|2:3,0:0:0:0:
162,153,22086,2,0,L|208:160,2,46.6666666666667,10|4|4,2:3|2:3|2:3,0:0:0:0:
153,208,22403,2,0,L|146:254,2,46.6666666666667,6|4|4,2:3|2:3|2:3,0:0:0:0:
162,153,22721,5,6,1:2:0:0:
256,192,22879,12,2,23990,1:2:0:0:
349,143,24943,6,0,L|285:156,1,59.5000000000002,2|0,2:2|0:0,0:0:0:0:
217,114,25260,2,0,P|173:113|102:168,1,119,2|0,2:2|0:0,0:0:0:0:
83,231,25737,1,0,0:0:0:0:
142,288,25895,2,0,P|176:288|200:280,1,59.5000000000002
276,314,26213,2,0,P|295:283|297:253,1,59.5000000000002,2|0,2:2|0:0,0:0:0:0:
361,205,26530,6,0,P|406:187|481:199,1,119,2|2,2:2|2:2,0:0:0:0:
498,277,27006,2,0,L|496:144,1,119,2|2,2:2|2:2,0:0:0:0:
466,80,27483,1,0,0:0:0:0:
304,38,27800,6,0,P|265:38|237:49,1,59.5000000000002,2|0,2:2|0:0,0:0:0:0:
165,19,28117,2,0,P|157:47|158:77,1,59.5000000000002,0|2,0:0|2:2,0:0:0:0:
204,146,28435,2,0,P|211:174|210:204,1,59.5000000000002,2|2,2:2|2:2,0:0:0:0:
157,269,28752,1,2,2:2:0:0:
206,335,28911,1,2,2:2:0:0:
157,269,29070,6,0,P|103:257|23:281,1,119,4|0,2:1|0:0,0:0:0:0:
147,140,29705,2,0,P|201:152|281:128,1,119,0|2,0:0|2:2,0:0:0:0:
319,77,30181,1,0,0:0:0:0:
398,53,30340,6,0,P|432:88|440:159,1,119,2|0,2:2|0:0,0:0:0:0:
369,198,30816,1,0,0:0:0:0:
407,272,30975,2,0,L|393:348,1,59.5000000000002
304,320,31292,2,0,L|314:261,1,59.5000000000002,2|0,2:2|0:0,0:0:0:0:
247,203,31610,6,0,L|128:230,1,119,2|2,2:2|2:2,0:0:0:0:
56,161,32086,2,0,L|172:134,1,119,2|2,2:2|2:2,0:0:0:0:
216,63,32562,1,0,0:0:0:0:
360,186,32879,6,0,L|347:289,2,89.2500000000003,2|2|2,2:2|2:2|2:2,0:0:0:0:
430,142,33514,1,6,2:3:0:0:
408,61,33673,1,0,1:1:0:0:
332,24,33832,1,8,2:2:0:0:
251,48,33990,6,0,P|198:60|105:23,1,140,4|0,1:1|0:0,0:0:0:0:
38,12,34467,2,0,P|3:72|6:159,1,140,0|0,1:1|1:1,0:0:0:0:
56,203,34943,1,0,0:0:0:0:
139,193,35102,2,0,P|180:197|211:222,1,70,2|0,1:2|0:0,0:0:0:0:
283,189,35419,6,0,P|289:229|273:266,1,70,2|0,1:2|0:0,0:0:0:0:
228,322,35737,1,0,1:1:0:0:
228,322,35895,1,0,0:0:0:0:
320,352,36054,2,0,P|352:352|390:330,1,70,0|0,1:1|0:0,0:0:0:0:
440,267,36371,2,0,P|470:250|505:249,1,70,2|8,1:2|2:2,0:0:0:0:
447,171,36689,6,0,P|363:138|292:155,1,140,2|2,1:2|1:2,0:0:0:0:
242,103,37165,1,2,2:2:0:0:
158,110,37324,2,0,P|141:153|139:181,1,70,0|2,1:1|2:2,0:0:0:0:
181,249,37641,1,0,1:1:0:0:
113,299,37800,1,8,2:2:0:0:
210,329,37959,6,0,P|247:320|282:313,1,70,2|8,1:2|2:2,0:0:0:0:
295,205,38276,2,0,P|258:214|223:221,1,70,0|0,1:1|0:0,0:0:0:0:
350,273,38594,2,0,P|407:281|481:237,1,140,2|2,1:2|1:2,0:0:0:0:
494,157,39070,5,0,1:1:0:0:
494,157,39149,1,0,1:1:0:0:
494,157,39229,2,0,P|482:118|494:77,1,70,4|0,1:1|0:0,0:0:0:0:
423,34,39546,1,0,1:1:0:0:
423,34,39705,1,0,0:0:0:0:
342,57,39863,2,0,L|272:75,1,70,0|0,1:1|0:0,0:0:0:0:
205,26,40181,2,0,L|170:95,1,70,2|0,1:2|0:0,0:0:0:0:
88,94,40498,6,0,P|99:161|109:234,1,140,2|2,1:2|1:2,0:0:0:0:
64,303,40975,2,0,P|106:262|186:266,1,140,10|10,2:2|2:3,0:0:0:0:
202,355,41451,2,0,P|164:351|138:329,1,70,0|0,1:1|1:1,0:0:0:0:
197,245,41768,6,0,B|281:220|281:220|339:243,1,140,4|0,1:1|1:1,0:0:0:0:
389,298,42244,2,0,P|386:340|386:375,1,70,2|2,2:2|1:2,0:0:0:0:
465,340,42562,1,2,2:2:0:0:
490,259,42721,1,2,1:2:0:0:
365,84,43038,5,4,1:1:0:0:
300,29,43197,1,8,2:2:0:0:
221,58,43356,2,0,P|187:58|152:46,1,70,8|2,2:2|1:2,0:0:0:0:
72,22,43673,1,10,2:3:0:0:
23,90,43832,1,10,2:3:0:0:
84,147,43990,2,0,P|107:180|110:216,1,70,10|0,2:3|0:0,0:0:0:0:
28,307,44308,6,0,P|5:274|2:238,2,70,6|0|10,1:2|0:0|2:2,0:0:0:0:
101,347,44784,1,0,1:1:0:0:
174,305,44943,2,0,P|242:285|317:295,1,140,0|8,1:1|2:2,0:0:0:0:
381,337,45419,6,0,P|437:348|490:271,1,140,2|2,1:2|1:2,0:0:0:0:
462,212,45895,1,8,2:2:0:0:
462,212,46054,1,0,1:1:0:0:
385,161,46213,2,0,P|342:169|314:178,1,70,0|0,1:1|0:0,0:0:0:0:
240,102,46530,2,0,P|283:94|311:85,1,70,8|0,2:2|0:0,0:0:0:0:
195,45,46848,6,0,L|178:163,1,105,2|2,1:2|2:2,0:0:0:0:
177,172,47165,1,8,2:2:0:0:
95,151,47324,1,2,1:2:0:0:
40,214,47483,2,0,P|23:254|27:295,1,70,2|0,1:2|0:0,0:0:0:0:
6,362,47800,1,10,2:2:0:0:
117,354,47959,6,0,B|159:339|159:339|186:350|186:350|274:322,1,140,2|0,1:2|1:1,0:0:0:0:
328,302,48435,1,8,2:2:0:0:
410,285,48594,2,0,L|425:353,1,70,0|0,0:0|1:1,0:0:0:0:
495,307,48911,1,0,1:1:0:0:
462,216,49070,2,0,P|454:180|464:146,1,70,8|8,2:2|2:2,0:0:0:0:
482,115,49308,5,8,2:2:0:0:
482,115,49387,2,0,P|418:124|349:94,1,140,6|10,1:2|2:2,0:0:0:0:
285,40,49863,1,2,1:2:0:0:
285,40,50022,2,0,P|216:31|153:59,1,140,2|10,1:2|2:2,0:0:0:0:
90,116,50498,1,2,1:2:0:0:
157,269,50816,5,2,1:2:0:0:
101,332,50975,2,0,P|66:338|28:327,1,70,8|0,2:2|1:1,0:0:0:0:
157,269,51292,2,0,P|192:263|230:274,1,70,2|0,1:2|0:0,0:0:0:0:
297,314,51610,1,10,2:2:0:0:
308,231,51768,1,0,0:0:0:0:
317,147,51927,5,6,2:3:0:0:
256,192,52006,12,6,54467,1:2:0:0:
102,31,55102,5,2,2:2:0:0:
144,134,55737,1,2,2:2:0:0:
91,235,56371,6,0,L|49:249,2,35.0000013351441,2|2|2,2:2|2:2|2:2,0:0:0:0:
132,245,56689,2,0,L|168:235,2,35.0000013351441,2|2|2,2:2|2:2|2:2,0:0:0:0:
105,294,57006,6,0,P|177:321|242:310,1,140,6|10,1:2|2:2,0:0:0:0:
415,249,57641,1,2,1:2:0:0:
375,174,57800,2,0,P|368:141|376:105,1,70,2|10,1:2|2:2,0:0:0:0:
442,54,58117,6,0,B|393:68|393:68|364:55|364:55|295:80,1,140,2|2,2:2|2:2,0:0:0:0:
231,44,58594,2,0,L|161:30,1,70,8|0,2:2|0:0,0:0:0:0:
183,113,58911,2,0,P|196:151|203:188,1,70,0|0,1:1|1:1,0:0:0:0:
324,235,59229,2,0,P|311:197|304:160,1,70,10|2,2:2|2:2,0:0:0:0:
232,259,59546,6,0,P|157:268|90:223,2,140,0|10|2,1:1|2:2|1:2,0:0:0:0:
201,180,60340,2,0,P|194:145|183:113,1,70,2|10,1:2|2:2,0:0:0:0:
123,53,60657,1,2,2:2:0:0:
38,119,60816,6,0,P|72:134|114:134,1,70,0|2,1:1|2:2,0:0:0:0:
205,108,61133,2,0,P|269:82|354:93,1,140,8|0,2:2|1:1,0:0:0:0:
419,110,61610,1,0,1:1:0:0:
377,182,61768,1,10,2:2:0:0:
461,255,61927,5,2,1:2:0:0:
461,255,62006,1,0,1:1:0:0:
461,255,62086,1,4,1:2:0:0:
321,348,62403,2,0,P|282:343|256:322,1,70,8|0,2:2|0:0,0:0:0:0:
193,270,62721,2,0,L|113:293,1,70,2|0,1:2|1:1,0:0:0:0:
42,274,63038,1,10,2:2:0:0:
51,190,63197,1,0,0:0:0:0:
135,149,63356,6,0,L|202:129,1,70,2|0,1:2|0:0,0:0:0:0:
273,85,63673,1,8,2:2:0:0:
273,85,63832,1,0,0:0:0:0:
353,109,63990,2,0,P|377:138|385:178,1,70,2|0,1:2|1:1,0:0:0:0:
318,256,64308,2,0,P|294:227|286:187,1,70,10|0,2:2|0:0,0:0:0:0:
376,316,64625,6,0,P|331:291|235:284,1,140,6|10,1:2|2:2,0:0:0:0:
132,312,65102,2,0,P|157:267|164:171,1,140,6|2,1:2|1:2,0:0:0:0:
133,74,65578,1,10,2:2:0:0:
87,157,65737,6,0,P|151:162|218:120,1,140,6|0,1:2|1:1,0:0:0:0:
269,61,66213,2,0,P|309:49|342:51,1,70,8|0,2:2|1:1,0:0:0:0:
434,41,66530,2,0,L|422:120,1,70,6|0,2:3|1:1,0:0:0:0:
320,205,66848,2,0,L|330:135,1,70,10|0,2:2|0:0,0:0:0:0:
431,199,67165,5,4,2:3:0:0:
467,273,67324,1,4,2:3:0:0:
368,335,67483,2,0,B|322:308|272:324|272:324|236:283,1,140,14|2,2:2|1:2,0:0:0:0:
173,250,67959,2,0,P|161:217|165:176,1,70,2|10,1:2|2:2,0:0:0:0:
230,132,68276,1,2,2:2:0:0:
160,84,68435,6,0,L|73:102,1,70,0|2,1:1|2:2,0:0:0:0:
214,17,68752,2,0,L|282:2,1,70,8|0,2:2|0:0,0:0:0:0:
357,40,69070,2,0,L|344:113,2,70,0|0|10,1:1|1:1|2:2,0:0:0:0:
438,17,69546,1,2,2:2:0:0:
462,109,69705,6,0,P|440:173|441:252,1,140,0|10,1:1|2:2,0:0:0:0:
372,295,70181,1,0,0:0:0:0:
289,280,70340,2,0,P|281:321|278:360,1,70,2|2,1:2|1:2,0:0:0:0:
194,339,70657,1,10,2:2:0:0:
135,253,70816,6,0,P|73:257|10:203,1,140,2|2,2:2|2:2,0:0:0:0:
44,132,71292,1,8,2:2:0:0:
75,53,71451,2,0,L|61:11,2,35,0|0|0,1:1|1:1|1:1,0:0:0:0:
156,74,71768,1,0,1:1:0:0:
236,49,71927,2,0,P|281:56|307:59,1,70,10|2,2:2|1:2,0:0:0:0:
371,126,72244,6,0,B|339:153|293:140|293:140|270:174|231:176,1,140,4|8,1:2|2:2,0:0:0:0:
103,283,72879,1,2,1:2:0:0:
186,266,73038,1,0,1:1:0:0:
244,326,73197,2,0,P|281:338|319:338,1,70,10|0,2:2|0:0,0:0:0:0:
390,368,73514,6,0,P|435:332|425:248,1,140,2|8,1:2|2:2,0:0:0:0:
378,188,73990,1,0,1:1:0:0:
378,188,74149,2,0,P|338:198|307:207,1,70,2|0,1:2|1:1,0:0:0:0:
181,155,74467,2,0,P|221:145|252:136,1,70,10|0,2:2|0:0,0:0:0:0:
332,28,74784,6,0,P|244:49|176:69,1,140,6|10,1:2|2:2,0:0:0:0:
116,37,75260,2,0,P|70:81|68:158,1,140,6|2,1:2|2:2,0:0:0:0:
100,241,75737,1,8,2:3:0:0:
100,241,75816,1,8,2:3:0:0:
100,241,75895,1,8,2:3:0:0:
205,204,76054,6,0,P|266:204|328:256,1,140,14|0,2:3|0:0,0:0:0:0:
377,318,76530,2,0,P|372:349|372:373,2,35,8|8|8,2:2|2:2|2:2,0:0:0:0:
459,298,76848,1,0,1:1:0:0:
486,219,77006,2,0,P|479:173|460:145,1,70,2|0,1:2|0:0,0:0:0:0:
397,87,77324,5,6,1:2:0:0:
191,202,77641,2,0,L|145:193,3,35,6|0|0|0,2:3|1:1|1:1|1:1,0:0:0:0:
121,171,77959,2,0,L|86:177,3,35,6|0|0|0,2:3|1:1|1:1|1:1,0:0:0:0:
50,198,78276,2,0,P|38:229|33:249,3,35,6|0|0|0,2:3|1:1|1:1|1:1,0:0:0:0:
49,271,78594,6,0,P|61:302|66:322,3,35,6|0|0|0,2:3|1:1|1:1|1:1,0:0:0:0:
91,332,78911,2,0,P|123:340|141:339,3,35,6|0|0|0,2:3|1:1|1:1|1:1,0:0:0:0:
161,360,79229,2,0,L|196:348,3,35,6|0|0|0,2:3|1:1|1:1|1:1,0:0:0:0:
233,361,79546,2,0,L|268:349,3,35,6|0|0|0,2:3|1:1|1:1|1:1,0:0:0:0:
306,335,79863,5,6,1:2:0:0:
256,160,80181,1,8,2:2:0:0:
179,225,80340,2,0,P|117:217|86:136,1,140,2|0,1:2|1:1,0:0:0:0:
122,78,80816,2,0,P|162:80|201:60,1,70,4|0,2:3|0:0,0:0:0:0:
322,69,81133,6,0,P|355:80|390:78,1,70,2|0,1:2|1:1,0:0:0:0:
453,22,81451,1,0,1:1:0:0:
493,122,81610,2,0,L|493:251,1,105,6|0,2:3|0:0,0:0:0:0:
407,291,82086,2,0,L|407:174,1,105.000004005432,0|2,0:0|2:2,0:0:0:0:
256,192,82483,12,0,84308,0:0:0:0:
196,120,84943,6,0,P|168:164|163:217,1,105,2|0,2:2|0:0,0:0:0:0:
216,288,85419,1,2,2:2:0:0:
317,281,85578,2,0,P|345:237|350:184,1,105
256,48,86213,2,0,B|208:39|208:39|144:67,1,105,2|0,2:2|0:0,0:0:0:0:
110,131,86689,1,2,2:2:0:0:
465,354,87483,5,2,2:2:0:0:
256,192,87562,12,0,90022,0:0:0:0:
