osu file format v14

[General]
AudioFilename: audio.mp3
AudioLeadIn: 0
PreviewTime: 57244
Countdown: 0
SampleSet: Soft
StackLeniency: 0.7
Mode: 0
LetterboxInBreaks: 0
WidescreenStoryboard: 1

[Editor]
Bookmarks: 85419
DistanceSpacing: 0.9
BeatDivisor: 4
GridSize: 32
TimelineZoom: 2.4

[Metadata]
Title:Gomakashi (TV Size)
TitleUnicode:ごまかし (TV Size)
Artist:TrySail
ArtistUnicode:TrySail
Creator:Crysisters
Version:Insane
Source:マギアレコード 魔法少女まどか☆マギカ外伝
Tags:Momochikun Magia Record Mahou Shoujo Madoka Magica Gaiden op opening japanese anime 麻倉 もも asakura momo 雨宮 天 amamiya sora 夏川 椎菜 natsukawa shiina version Madoka☆Magica Puella Magi Side Story: VVCL-1633 アニプレックス j-pop jpop pop マギレコ Magireco
BeatmapID:4442245
BeatmapSetID:2115431

[Difficulty]
HPDrainRate:6
CircleSize:4
OverallDifficulty:7
ApproachRate:9
SliderMultiplier:1.8
SliderTickRate:1

[Events]
//Background and Video events
0,0,"bg.jpg",0,0
//Break Periods
//Storyboard Layer 0 (Background)
//Storyboard Layer 1 (Fail)
//Storyboard Layer 2 (Pass)
//Storyboard Layer 3 (Foreground)
//Storyboard Layer 4 (Overlay)
//Storyboard Sound Samples

[TimingPoints]
-136,317.460317460317,4,2,1,40,1,0
1133,-166.666666666667,4,2,1,40,0,0
10022,-166.666666666667,4,2,2,40,0,0
13832,-100,4,2,1,65,0,0
21133,-100,4,2,1,65,0,0
22721,-100,4,2,1,65,0,0
23990,-100,4,2,1,45,0,0
25260,-166.666666666667,4,2,1,45,0,0
29070,-166.666666666667,4,2,1,45,0,0
32879,-166.666666666667,4,2,2,45,0,0
33514,-166.666666666667,4,2,2,45,0,0
33832,-166.666666666667,4,2,1,45,0,0
33990,-111.111111111111,4,2,1,55,0,0
36530,-111.111111111111,4,2,1,55,0,0
39229,-111.111111111111,4,2,1,55,0,0
40975,-111.111111111111,4,2,1,55,0,0
41292,-111.111111111111,4,2,1,55,0,0
41768,-111.111111111111,4,2,1,55,0,0
42244,-111.111111111111,4,2,2,55,0,0
43038,-111.111111111111,4,2,1,55,0,0
43197,-111.111111111111,4,2,1,55,0,0
43673,-111.111111111111,4,2,1,55,0,0
44308,-111.111111111111,4,2,1,65,0,0
51927,-111.111111111111,4,2,1,65,0,0
52244,-111.111111111111,4,2,1,40,0,0
52562,-111.111111111111,4,2,1,50,0,0
52879,-111.111111111111,4,2,1,60,0,0
53197,-100,4,2,1,70,0,0
53514,-100,4,2,1,80,0,0
54467,-111.111111111111,4,2,1,55,0,0
55022,-111.111111111111,4,2,1,5,0,0
55102,-111.111111111111,4,2,1,55,0,0
55657,-111.111111111111,4,2,1,5,0,0
55737,-111.111111111111,4,2,1,55,0,0
56292,-111.111111111111,4,2,1,5,0,0
56371,-166.666666666667,4,2,1,65,0,0
57006,-100,4,2,1,80,0,1
63356,-111.111111111111,4,2,1,80,0,1
65102,-100,4,2,1,80,0,1
66530,-100,4,2,1,80,0,1
66848,-100,4,2,1,80,0,1
67165,-100,4,2,1,80,0,1
67483,-100,4,2,1,80,0,1
75525,-100,4,2,1,80,0,1
76054,-111.111111111111,4,2,3,65,0,0
76530,-111.111111111111,4,2,1,65,0,0
77641,-111.111111111111,4,2,1,65,0,0
78594,-100,4,2,1,65,0,0
79863,-100,4,2,1,80,0,0
80816,-100,4,2,1,80,0,0
81610,-200,4,2,1,65,0,0
82403,-200,4,2,1,65,0,0
84943,-142.857142857143,4,2,1,45,0,0
85419,-200,4,2,1,45,0,0
86213,-142.857142857143,4,2,1,45,0,0
86689,-250,4,2,1,45,0,0
90022,-250,4,2,1,5,0,0

[Colours]
Combo1 : 255,102,179
Combo2 : 51,153,255
Combo3 : 255,255,128
Combo4 : 192,192,192

[HitObjects]
458,186,816,5,2,2:2:0:0:
458,186,1133,2,0,B|414:206|414:206|378:195|378:195|310:233|257:192,1,216,2|0,1:2|0:0,0:0:0:0:
55,186,2086,1,2,2:2:0:0:
55,186,2403,2,0,B|99:206|99:206|135:195|135:195|203:233|256:191,1,216,2|0,2:2|0:0,0:0:0:0:
336,112,3356,5,2,2:2:0:0:
252,35,3673,2,0,B|217:88|280:141|254:192,2,162,2|2|2,1:2|1:2|2:2,0:0:0:0:
252,35,4943,1,2,2:2:0:0:
256,192,5895,5,2,2:2:0:0:
260,348,6213,2,0,B|285:296|222:243|257:190,2,162,2|2|2,1:2|2:2|2:2,0:0:0:0:
260,348,7483,1,2,2:2:0:0:
256,192,8435,5,2,2:2:0:0:
331,132,8752,2,0,B|287:85|220:96|220:96,1,108,2|0,1:2|0:0,0:0:0:0:
181,252,9229,2,0,B|225:299|292:288|292:288,1,108,2|0,1:2|0:0,0:0:0:0:
407,265,9705,1,2,2:2:0:0:
475,372,10022,5,2,2:2:0:0:
280,287,10657,1,2,2:2:0:0:
442,186,11292,1,2,2:2:0:0:
256,192,11371,12,0,13514,0:0:0:0:
340,49,13832,6,0,B|254:6|159:49|159:49,1,180,6|8,1:2|2:2,0:0:0:0:
300,162,14308,1,2,2:2:0:0:
300,162,14467,2,0,B|252:185|200:162|200:162,1,90,2|2,1:2|1:2,0:0:0:0:
337,49,14784,1,10,2:2:0:0:
462,204,14943,6,0,B|516:119|461:19|461:19,1,180,2|0,2:2|0:0,0:0:0:0:
462,204,15419,1,10,2:2:0:0:
300,162,15578,2,0,B|245:246|300:346|300:346,1,180,2|0,1:2|1:1,0:0:0:0:
300,162,16054,1,10,2:2:0:0:
398,106,16213,1,2,2:2:0:0:
294,334,16371,6,0,B|231:380|172:335|172:335|107:353|107:353,1,180,4|8,1:2|2:2,0:0:0:0:
126,347,16848,1,2,2:2:0:0:
126,347,17006,1,2,1:2:0:0:
64,264,17165,1,2,1:2:0:0:
53,161,17324,1,10,2:2:0:0:
94,67,17483,6,0,B|132:26|189:41|189:41,1,90,2|0,2:2|1:1,0:0:0:0:
229,190,17800,2,0,B|175:177|159:120|159:120,1,90,2|8,2:2|2:2,0:0:0:0:
273,11,18117,2,0,B|288:63|247:105|247:105,1,90,2|0,1:2|0:0,0:0:0:0:
163,132,18435,5,0,1:1:0:0:
99,208,18594,1,10,2:2:0:0:
99,208,18673,1,10,2:2:0:0:
99,208,18752,1,10,2:2:0:0:
99,208,18832,1,10,2:2:0:0:
99,208,18911,2,0,B|81:279|159:305|130:384|130:384,1,180,6|8,1:2|2:2,0:0:0:0:
184,229,19387,5,2,2:2:0:0:
184,229,19546,1,2,1:2:0:0:
236,330,19705,1,2,1:2:0:0:
347,360,19863,1,10,2:2:0:0:
466,344,20022,6,0,B|535:262|506:162|506:162,1,180,6|0,1:2|1:1,0:0:0:0:
424,61,20498,1,10,2:2:0:0:
243,274,20657,2,0,B|216:180|289:102|289:102,1,180,6|8,1:2|2:2,0:0:0:0:
426,54,21133,1,8,2:3:0:0:
508,174,21292,1,4,2:3:0:0:
285,107,21451,6,0,L|225:123,2,60,10|4|4,2:3|2:3|2:3,0:0:0:0:
237,31,21768,2,0,L|179:47,2,60,6|4|4,2:3|2:3|2:3,0:0:0:0:
142,121,22086,6,0,L|82:105,2,60,10|4|4,2:3|2:3|2:3,0:0:0:0:
94,197,22403,2,0,L|36:181,2,60,6|4|4,2:3|2:3|2:3,0:0:0:0:
137,304,22721,6,0,B|252:221|360:358|422:288,1,270,6|0,1:2|0:0,0:0:0:0:
412,304,23276,1,2,2:2:0:0:
424,294,23356,2,0,P|450:204|256:193,1,360,2|2,2:2|1:2,0:0:0:0:
256,192,24943,5,2,2:2:0:0:
133,222,25260,2,0,B|63:154|96:61|96:61,1,162,2|0,2:2|0:0,0:0:0:0:
92,72,26213,1,2,2:2:0:0:
162,8,26530,6,0,P|270:33|270:33,1,108,2|2,2:2|2:2,0:0:0:0:
222,109,27006,2,0,P|147:91|147:91,1,53.9999999999999,2|0,2:2|0:0,0:0:0:0:
301,186,27324,2,0,P|413:158|413:158,1,108,2|0,2:2|0:0,0:0:0:0:
198,305,27800,6,0,P|80:268|80:268,1,108,2|0,2:2|0:0,0:0:0:0:
142,203,28276,1,2,2:2:0:0:
226,200,28435,1,2,2:2:0:0:
279,260,28594,1,2,2:2:0:0:
334,322,28752,1,2,2:2:0:0:
418,325,28911,1,2,2:2:0:0:
471,265,29070,6,0,L|436:103,1,162,4|0,2:1|0:0,0:0:0:0:
436,106,30022,1,2,2:2:0:0:
500,35,30340,6,0,B|432:105|339:72|339:72,1,162,2|0,2:2|0:0,0:0:0:0:
350,75,31292,1,2,2:2:0:0:
205,30,31610,1,2,2:2:0:0:
95,145,31927,1,2,2:2:0:0:
95,145,32086,1,2,2:2:0:0:
149,267,32403,1,2,2:2:0:0:
9,334,32879,5,2,2:2:0:0:
85,380,33117,1,2,2:2:0:0:
169,350,33356,1,2,2:2:0:0:
234,284,33514,5,6,2:3:0:0:
380,343,33673,1,0,1:1:0:0:
222,272,33832,1,8,2:2:0:0:
396,340,33990,6,0,B|474:267|448:187|448:187,1,162,4|0,1:1|0:0,0:0:0:0:
398,21,34467,2,0,B|386:64|422:99|422:99,1,81.0000000000001,0|0,1:1|0:0,0:0:0:0:
494,115,34784,2,0,B|462:83|414:96|414:96,1,81.0000000000001,0|0,1:1|0:0,0:0:0:0:
364,151,35102,2,0,B|407:139|419:91|419:91,1,81.0000000000001,2|0,1:2|0:0,0:0:0:0:
253,25,35419,6,0,L|87:50,1,162,2|0,1:2|1:1,0:0:0:0:
54,144,35895,2,0,L|214:119,1,162
131,222,36371,1,2,1:2:0:0:
200,298,36530,1,8,2:2:0:0:
322,191,36689,6,0,B|330:238|298:275|298:275,1,81.0000000000001,2|0,1:2|0:0,0:0:0:0:
228,206,37006,1,2,1:2:0:0:
393,337,37165,2,0,B|385:290|417:253|417:253,1,81.0000000000001,2|0,2:2|1:1,0:0:0:0:
452,188,37483,1,2,2:2:0:0:
354,38,37641,2,0,B|341:82|378:122|378:122,1,81.0000000000001,0|8,1:1|2:2,0:0:0:0:
487,107,37959,6,0,L|499:42,3,40.5,2|0|8|0,1:2|1:1|2:2|1:1,0:0:0:0:
512,42,38276,2,0,L|433:56,1,81.0000000000001,0|0,1:1|0:0,0:0:0:0:
236,124,38594,6,0,L|196:116,3,40.5,2|0|0|0,1:2|1:1|1:1|1:1,0:0:0:0:
158,94,38911,2,0,L|118:101,3,40.5,2|0|0|0,1:2|1:1|1:1|1:1,0:0:0:0:
82,122,39229,6,0,B|-4:185|53:286|53:286,1,162,4|0,1:1|1:1,0:0:0:0:
125,384,39705,1,0,0:0:0:0:
125,384,39863,2,0,B|149:340|116:300|116:300,1,81.0000000000001,0|0,1:1|0:0,0:0:0:0:
200,134,40181,6,0,B|160:164|174:214|174:214,1,81.0000000000001,2|0,1:2|0:0,0:0:0:0:
312,250,40498,2,0,B|352:220|338:170|338:170,1,81.0000000000001,2|0,1:2|0:0,0:0:0:0:
222,286,40816,1,2,1:2:0:0:
299,333,40975,6,0,B|345:350|385:305|385:305,1,81.0000000000001,10|0,2:2|1:1,0:0:0:0:
334,164,41292,1,10,2:3:0:0:
220,52,41451,2,0,B|174:35|134:80|134:80,1,81.0000000000001,0|0,1:1|1:1,0:0:0:0:
256,192,41768,6,0,B|335:236|419:187|419:187,1,162,4|0,1:1|1:1,0:0:0:0:
168,295,42244,1,2,2:2:0:0:
78,243,42403,1,2,1:2:0:0:
64,142,42562,1,2,2:2:0:0:
138,71,42721,2,0,B|184:54|224:99|224:99,1,81.0000000000001,2|0,1:2|0:0,0:0:0:0:
319,290,43038,5,4,1:1:0:0:
167,204,43197,1,8,2:2:0:0:
314,108,43356,1,8,2:2:0:0:
402,173,43514,5,2,1:2:0:0:
402,173,43673,2,0,B|448:183|488:152|488:152,2,81.0000000000001,10|10|10,2:3|2:3|2:3,0:0:0:0:
213,88,44308,6,0,B|181:146|253:196|232:252,1,162,6|10,1:2|2:2,0:0:0:0:
218,327,44784,1,0,1:1:0:0:
218,327,44943,1,0,1:1:0:0:
454,324,45260,1,8,2:2:0:0:
386,250,45419,6,0,B|376:204|407:164|407:164,1,81.0000000000001,2|0,1:2|0:0,0:0:0:0:
328,47,45737,2,0,B|338:93|307:133|307:133,1,81.0000000000001,2|8,1:2|2:2,0:0:0:0:
210,190,46054,1,0,1:1:0:0:
114,98,46213,2,0,B|68:108|28:77|28:77,1,81.0000000000001,0|0,1:1|0:0,0:0:0:0:
251,32,46530,2,0,B|297:22|337:53|337:53,1,81.0000000000001,8|0,2:2|0:0,0:0:0:0:
210,190,46848,6,0,B|155:229|71:201|71:201,2,121.5,2|2|2,1:2|2:2|1:2,0:0:0:0:
312,128,47483,2,0,B|343:162|334:208|334:208,1,81.0000000000001,2|0,1:2|0:0,0:0:0:0:
318,370,47800,1,10,2:2:0:0:
231,306,47959,1,2,1:2:0:0:
436,340,48276,6,0,L|450:258,2,81.0000000000001,0|8|0,1:1|2:2|0:0,0:0:0:0:
318,370,48752,1,0,1:1:0:0:
231,305,48911,1,0,1:1:0:0:
130,356,49070,1,8,2:2:0:0:
51,282,49229,1,8,2:2:0:0:
51,282,49308,1,8,2:2:0:0:
51,282,49387,6,0,B|-10:212|29:114|29:114,1,162,6|10,1:2|2:2,0:0:0:0:
73,25,49863,1,2,1:2:0:0:
180,68,50022,2,0,P|278:97|278:97,1,81.0000000000001,2|0,1:2|0:0,0:0:0:0:
355,208,50340,5,10,2:2:0:0:
461,122,50498,2,0,B|476:71|432:24|432:24,1,81.0000000000001,2|0,1:2|0:0,0:0:0:0:
374,95,50816,1,2,1:2:0:0:
268,181,50975,2,0,B|253:232|297:279|297:279,1,81.0000000000001,8|0,2:2|1:1,0:0:0:0:
405,320,51292,2,0,B|445:316|493:296|493:296,1,81.0000000000001,2|0,1:2|0:0,0:0:0:0:
268,181,51610,2,0,B|228:185|180:205|180:205,1,81.0000000000001,10|0,2:2|0:0,0:0:0:0:
57,328,51927,6,0,L|64:284,7,40.5,6|0|0|0|8|0|0|0,2:3|1:1|1:1|1:1|2:3|1:1|1:1|1:1,0:0:0:0:
34,210,52562,2,0,L|41:166,7,40.5,4|0|0|0|10|0|0|0,2:3|1:1|1:1|1:1|1:3|1:1|1:1|1:1,0:0:0:0:
16,73,53197,5,6,2:3:0:0:
16,73,53276,1,0,1:1:0:0:
16,73,53356,2,0,L|67:86,1,45,0|0,1:1|1:1,0:0:0:0:
146,49,53514,1,8,2:3:0:0:
146,49,53594,1,0,1:1:0:0:
146,49,53673,2,0,L|197:62,1,45,0|0,1:1|1:1,0:0:0:0:
252,118,53832,5,4,1:3:0:0:
284,89,53911,1,0,1:1:0:0:
323,72,53990,1,0,1:1:0:0:
365,68,54070,1,0,1:1:0:0:
407,77,54149,1,10,2:3:0:0:
444,100,54229,1,0,1:1:0:0:
471,133,54308,1,0,1:1:0:0:
487,172,54387,1,0,1:1:0:0:
489,215,54467,6,0,B|368:127|255:271|190:198,1,283.5,6|0,1:2|0:0,0:0:0:0:
194,199,55102,2,0,P|142:167|86:321,1,283.5,2|0,2:2|0:0,0:0:0:0:
107,339,55737,2,0,B|248:262|392:358|392:358,1,283.5,2|0,2:2|0:0,0:0:0:0:
409,371,56371,6,0,L|463:353,5,35.9999999999999,2|2|2|2|2|2,2:2|2:2|2:2|2:2|2:2|2:2,0:0:0:0:
489,285,57006,6,0,B|531:183|445:98|445:98,1,180,6|10,1:2|2:2,0:0:0:0:
459,115,57641,1,2,1:2:0:0:
355,196,57800,1,2,1:2:0:0:
223,172,57959,1,10,2:2:0:0:
93,214,58117,6,0,B|62:171|65:113|65:113,1,90,2|0,2:2|1:1,0:0:0:0:
144,16,58435,1,2,2:2:0:0:
279,46,58594,2,0,B|309:88|307:147|307:147,1,90,8|0,2:2|0:0,0:0:0:0:
302,311,58911,5,0,1:1:0:0:
207,278,59070,1,0,1:1:0:0:
381,275,59229,1,10,2:2:0:0:
128,314,59387,1,2,2:2:0:0:
258,204,59546,6,0,B|293:269|213:325|236:388,1,180,0|10,1:1|2:2,0:0:0:0:
232,376,60181,1,2,1:2:0:0:
340,305,60340,1,2,1:2:0:0:
177,242,60498,1,10,2:2:0:0:
305,124,60657,1,2,2:2:0:0:
371,191,60816,6,0,B|406:226|464:216|464:216,1,90,0|2,1:1|2:2,0:0:0:0:
270,48,61133,2,0,B|235:13|177:23|177:23,1,90,8|0,2:2|0:0,0:0:0:0:
49,179,61451,1,0,1:1:0:0:
78,45,61610,1,0,1:1:0:0:
196,119,61768,1,10,2:2:0:0:
90,305,61927,5,2,1:2:0:0:
90,305,62006,1,0,1:1:0:0:
90,305,62086,2,0,B|127:322|127:322|158:312|158:312|217:345|262:310,1,180,4|8,1:2|2:2,0:0:0:0:
258,312,62721,1,2,1:2:0:0:
390,243,62879,1,0,1:1:0:0:
443,384,63038,1,10,2:2:0:0:
443,384,63197,1,0,0:0:0:0:
258,312,63356,6,0,B|193:234|260:156|260:156,1,162,2|8,1:2|2:2,0:0:0:0:
255,162,63990,1,2,1:2:0:0:
124,89,64149,1,0,1:1:0:0:
78,231,64308,1,10,2:2:0:0:
78,231,64467,1,0,0:0:0:0:
255,162,64625,6,0,B|320:84|253:6|253:6,1,162,6|10,1:2|2:2,0:0:0:0:
316,230,65102,2,0,L|425:212,1,90,6|0,1:2|0:0,0:0:0:0:
160,200,65419,1,2,1:2:0:0:
120,335,65578,1,10,2:2:0:0:
284,369,65737,2,0,L|393:387,1,90,6|0,1:2|0:0,0:0:0:0:
316,230,66054,5,0,1:1:0:0:
160,200,66213,1,8,2:2:0:0:
120,335,66371,1,0,1:1:0:0:
284,369,66530,1,6,2:3:0:0:
316,230,66848,1,10,2:2:0:0:
120,336,67165,1,4,2:3:0:0:
160,200,67483,6,0,B|87:112|162:24|162:24,1,180,14|2,2:2|1:2,0:0:0:0:
160,200,67959,1,2,1:2:0:0:
275,271,68117,1,10,2:2:0:0:
390,181,68276,2,0,B|431:131|410:82|410:82,1,90,2|0,2:2|1:1,0:0:0:0:
470,236,68594,5,2,2:2:0:0:
332,112,68752,2,0,B|282:71|233:92|233:92,1,90,8|0,2:2|0:0,0:0:0:0:
407,18,69070,1,0,1:1:0:0:
407,18,69229,1,0,1:1:0:0:
296,187,69387,2,0,B|255:237|276:286|276:286,1,90,10|2,2:2|2:2,0:0:0:0:
100,363,69705,6,0,B|138:263|66:189|66:189,1,180,0|10,1:1|2:2,0:0:0:0:
70,193,70340,1,2,1:2:0:0:
182,128,70498,1,2,1:2:0:0:
320,169,70657,1,10,2:2:0:0:
440,90,70816,6,0,B|434:37|463:-1|463:-1,1,90,2|0,2:2|1:1,0:0:0:0:
320,169,71133,1,2,2:2:0:0:
192,52,71292,2,0,B|245:46|283:75|283:75,1,90,8|0,2:2|1:1,0:0:0:0:
278,71,71530,1,0,1:1:0:0:
278,71,71610,1,0,1:1:0:0:
194,240,71768,5,0,1:1:0:0:
72,196,71927,1,10,2:2:0:0:
318,144,72086,1,2,1:2:0:0:
440,188,72244,2,0,B|467:253|385:298|401:360,1,180,4|8,1:2|2:2,0:0:0:0:
400,357,72879,5,2,1:2:0:0:
512,295,73038,1,0,1:1:0:0:
440,188,73197,2,0,P|409:83|409:83,1,90,10|0,2:2|0:0,0:0:0:0:
280,302,73514,6,0,B|245:319|245:319|214:316|214:316|170:367|100:355|100:355,1,180,2|8,1:2|2:2,0:0:0:0:
26,255,73990,1,0,1:1:0:0:
26,255,74070,1,0,1:1:0:0:
26,255,74149,2,0,B|-7:195|37:147|37:147,1,90,2|0,1:2|1:1,0:0:0:0:
220,71,74467,2,0,B|253:130|208:178|208:178,1,90,10|0,2:2|0:0,0:0:0:0:
18,48,74784,6,0,L|110:26,1,90,6|0,1:2|0:0,0:0:0:0:
220,71,75102,1,10,2:2:0:0:
235,250,75260,6,0,L|56:212,1,180,6|2,1:2|2:2,0:0:0:0:
305,207,75737,2,0,L|376:190,2,60,8|8|8,2:3|2:3|2:3,0:0:0:0:
164,316,76054,6,0,L|346:351,1,162,14|0,2:3|0:0,0:0:0:0:
487,301,76530,1,8,2:2:0:0:
487,301,76610,1,8,2:2:0:0:
487,301,76689,2,0,B|557:229|505:141|505:141,1,162,8|2,2:2|1:2,0:0:0:0:
509,150,77324,6,0,L|464:163,3,40.5,6|0|0|0,1:2|1:1|1:1|1:1,0:0:0:0:
442,58,77641,2,0,L|420:99,3,40.5,6|0|0|0,2:3|1:1|1:1|1:1,0:0:0:0:
327,43,77959,2,0,L|340:87,3,40.5,6|0|0|0,2:3|1:1|1:1|1:1,0:0:0:0:
240,119,78276,2,0,L|281:140,3,40.5,6|0|0|0,2:3|1:1|1:1|1:1,0:0:0:0:
371,192,78594,6,0,L|377:238,3,45,6|0|0|0,2:3|1:1|1:1|1:1,0:0:0:0:
315,319,78911,2,0,L|281:351,3,45,6|0|0|0,2:3|1:1|1:1|1:1,0:0:0:0:
167,354,79229,1,6,2:3:0:0:
132,366,79308,1,0,1:1:0:0:
92,367,79387,1,0,1:1:0:0:
54,353,79467,1,0,1:1:0:0:
24,326,79546,1,6,2:3:0:0:
6,294,79625,1,0,1:1:0:0:
0,255,79705,1,0,1:1:0:0:
10,216,79784,1,0,1:1:0:0:
25,180,79863,6,0,B|45:1,1,180,6|8,1:2|2:2,0:0:0:0:
83,235,80340,2,0,B|142:182|200:230|263:182,1,180,2|0,1:2|1:1,0:0:0:0:
355,146,80816,2,0,L|360:87,2,60,4|4|4,2:3|2:3|2:3,0:0:0:0:
444,210,81133,6,0,B|527:126|454:30|454:30,1,180,2|0,1:2|1:1,0:0:0:0:
274,26,81610,2,0,B|189:108|262:204|262:204,1,180,6|0,2:3|0:0,0:0:0:0:
346,279,82403,1,2,2:2:0:0:
256,192,82483,12,0,84308,0:0:0:0:
328,290,84943,6,0,P|283:325|214:311,1,126,2|0,2:2|0:0,0:0:0:0:
158,267,85419,2,0,P|120:219|135:147,1,135,2|0,2:2|0:0,0:0:0:0:
376,230,86213,2,0,P|394:176|358:115,1,126,2|0,2:2|0:0,0:0:0:0:
302,72,86689,2,0,P|240:49|174:89,1,144,2|0,2:2|0:0,0:0:0:0:
176,85,87483,1,2,2:2:0:0:
256,192,87562,12,0,90022,0:0:0:0:
