osu file format v14

[General]
AudioFilename: audio.mp3
AudioLeadIn: 0
PreviewTime: 56543
Countdown: 0
SampleSet: Soft
StackLeniency: 0.3
Mode: 0
LetterboxInBreaks: 0
WidescreenStoryboard: 1

[Editor]
Bookmarks: 680,13378,23537,33537,43854,56553,67029,76870,81949
DistanceSpacing: 1
BeatDivisor: 2
GridSize: 4
TimelineZoom: 2

[Metadata]
Title:Gomakashi (TV Size)
TitleUnicode:ごまかし (TV Size)
Artist:TrySail
ArtistUnicode:TrySail
Creator:Andrea
Version:Normal
Source:マギアレコード 魔法少女まどか☆マギカ外伝
Tags:Opening Puella Magi Madoka Magica Side Story: Magia Record Mahou Shoujo Madoka☆Magica Gaiden Anime Japanese osuplayer111 Sekai Sekaii Sekai-nyan Collaboration Asakura Momo 麻倉もも Amamiya Sora 雨宮天 Natsukawa Shiina 夏川椎菜
BeatmapID:2281477
BeatmapSetID:1091323

[Difficulty]
HPDrainRate:4
CircleSize:3.5
OverallDifficulty:4
ApproachRate:5
SliderMultiplier:1
SliderTickRate:1

[Events]
//Background and Video events
Video,200,"Video.mp4"
0,0,"BG Normal.jpg",0,0
//Break Periods
//Storyboard Layer 0 (Background)
//Storyboard Layer 1 (Fail)
//Storyboard Layer 2 (Pass)
//Storyboard Layer 3 (Foreground)
//Storyboard Layer 4 (Overlay)
//Storyboard Sound Samples

[TimingPoints]
670,317.460317460317,4,2,1,50,1,0
10908,-100,4,2,1,60,0,0
11463,-100,4,2,1,65,0,0
12098,-100,4,2,1,70,0,0
12574,-100,4,2,1,75,0,0
12892,-100,4,2,1,80,0,0
13050,-100,4,2,1,5,0,0
13368,-100,4,2,1,70,0,0
18130,-100,4,2,1,60,0,0
18447,-100,4,2,1,70,0,0
20669,-100,4,2,1,60,0,0
22336,-100,4,2,1,50,0,0
23209,-100,4,2,1,5,0,0
23527,-100,4,2,1,60,0,0
28527,-100,4,2,1,5,0,0
28606,-100,4,2,1,60,0,0
33050,-100,4,2,1,50,0,0
33368,-100,4,2,1,60,0,0
33527,-100,4,2,1,70,0,0
46622,-100,4,2,1,50,0,0
46701,-100,4,2,1,70,0,0
51701,-100,4,2,1,5,0,0
51781,-100,4,2,1,50,0,0
55908,-100,4,2,1,60,0,0
56225,-100,4,2,1,70,0,0
56543,-100,4,2,1,80,0,1
66701,-100,4,2,1,60,0,1
66939,-100,4,2,1,5,0,0
67019,-100,4,2,1,80,0,1
76066,-100,4,2,1,70,0,1
76860,-100,4,2,1,70,0,0
77098,-100,4,2,1,5,0,0
77177,-100,4,2,1,50,0,0
79400,-100,4,2,1,70,0,0
80352,-100,4,2,1,50,0,0
81146,-100,4,2,1,60,0,0
81860,-100,4,2,1,5,0,0
81939,-100,4,2,1,60,0,0
86939,-100,4,2,1,5,0,0
87019,-100,4,2,1,60,0,0
88289,-100,4,2,1,5,0,0

[Colours]
Combo1 : 244,0,122
Combo2 : 255,125,190
SliderBorder : 255,128,191
SliderTrackOverride : 255,202,228

[HitObjects]
256,192,352,5,2,0:0:0:0:
176,128,670,2,0,P|256:77|336:128,1,200,8|2,0:0|0:0,0:0:0:0:
256,192,1622,1,0,0:0:0:0:
176,256,1939,2,0,P|256:307|336:256,1,200,0|2,0:0|0:0,0:0:0:0:
256,192,2892,1,0,0:0:0:0:
256,92,3209,6,0,P|324:92|384:36,2,150,8|2|0,0:0|0:0|0:0,0:0:0:0:
156,92,4479,1,2,0:0:0:0:
356,292,5431,1,2,0:0:0:0:
256,292,5749,6,0,P|188:292|128:348,2,150,8|2|0,0:0|0:0|0:0,0:0:0:0:
356,292,7019,1,2,0:0:0:0:
256,8,7971,1,2,0:0:0:0:
320,84,8289,6,0,B|256:124|256:124|192:84,2,150,8|2|0,0:0|0:0|0:0,0:0:0:0:
256,8,9558,1,2,0:0:0:0:
152,179,10193,1,2,0:0:0:0:
360,180,10828,2,0,B|424:284|424:284|352:356|304:256|304:256|256:353|208:256|208:256|160:356|88:284|88:284|152:180,1,700,2|0,0:0|0:0,0:0:0:0:
180,84,13368,6,0,P|225:64|268:85,1,100,4|8,0:0|0:0,0:0:0:0:
314,65,13844,1,0,0:0:0:0:
314,65,14003,2,0,P|358:85|402:64,1,100,2|8,0:0|0:0,0:0:0:0:
448,152,14638,2,0,L|448:272,1,100,2|8,0:0|0:0,0:0:0:0:
400,264,15114,1,2,0:0:0:0:
400,264,15273,2,0,P|355:284|311:263,1,100,0|8,0:0|0:0,0:0:0:0:
216,284,15908,6,0,L|60:256,1,150,4|0,0:0|0:0,0:0:0:0:
44,216,16543,2,0,P|23:171|43:127,1,100,2|8,0:0|0:0,0:0:0:0:
92,92,17019,1,2,0:0:0:0:
92,92,17177,2,0,L|200:72,1,100,0|8,0:0|0:0,0:0:0:0:
260,144,17812,2,0,L|161:162,1,100,2|10,0:0|0:0,0:0:0:0:
228,236,18447,6,0,L|379:211,1,150,4|0,0:0|0:0,0:0:0:0:
424,204,19082,2,0,B|448:248|448:248|424:292,1,100,2|8,0:0|0:0,0:0:0:0:
376,304,19558,2,0,L|229:329,1,150,2|8,0:0|0:0,0:0:0:0:
178,337,20193,1,2,0:0:0:0:
72,228,20669,1,8,3:0:0:0:
96,132,20987,6,0,L|71:34,1,100,12|8,0:0|0:0,0:0:0:0:
170,16,21622,2,0,L|191:113,1,100,8|8,0:0|0:0,0:0:0:0:
276,167,22257,2,0,P|340:134|404:167,1,150,4|0,0:0|0:0,0:0:0:0:
404,217,22892,2,0,P|340:250|276:217,1,150,2|0,0:0|0:0,0:0:0:0:
236,188,23527,6,0,L|136:188,1,100,4|0,0:0|0:0,0:0:0:0:
60,124,24162,1,2,0:0:0:0:
148,76,24479,1,0,0:0:0:0:
240,36,24796,2,0,P|292:36|328:68,1,100,2|0,0:0|0:0,0:0:0:0:
262,142,25431,6,0,P|210:142|174:110,1,100,2|0,0:0|0:0,0:0:0:0:
120,28,26066,2,0,L|36:100,1,100,2|0,0:0|0:0,0:0:0:0:
4,124,26543,1,2,0:0:0:0:
28,220,26860,6,0,B|48:268|100:268|100:268|160:268,1,150,0|2,0:0|0:0,0:0:0:0:
256,292,27654,2,0,P|308:292|340:260,1,100,0|2,0:0|0:0,0:0:0:0:
416,192,28289,1,0,0:0:0:0:
339,125,28606,6,0,P|303:91|255:93,1,100,2|0,0:0|0:0,0:0:0:0:
156,116,29241,2,0,L|84:184,1,100,2|0,0:0|0:0,0:0:0:0:
164,244,29876,2,0,B|256:284|256:284|348:244,1,200,2|2,0:0|0:0,0:0:0:0:
396,332,30828,6,0,L|300:380,1,100,0|2,0:0|0:0,0:0:0:0:
206,376,31463,1,0,0:0:0:0:
206,376,31622,2,0,L|117:332,1,100,2|0,0:0|0:0,0:0:0:0:
256,272,32416,6,0,L|256:196,2,75,2|2|2,0:0|0:0|0:0,0:0:0:0:
256,320,33050,1,8,3:0:0:0:
160,288,33368,1,8,0:0:0:0:
160,288,33527,6,0,P|127:224|160:160,1,150,2|8,0:0|0:0,0:0:0:0:
212,72,34320,2,0,P|257:51|301:71,1,100,10|8,0:0|0:0,0:0:0:0:
396,96,34955,2,0,L|436:300,1,200,10|10,0:0|0:0,0:0:0:0:
346,341,35908,2,0,L|334:285,1,50,8|8,0:0|0:0,0:0:0:0:
292,268,36225,6,0,L|272:160,1,100,10|8,0:0|0:0,0:0:0:0:
180,136,36860,2,0,P|128:136|92:168,1,100,10|8,0:0|0:0,0:0:0:0:
93,218,37336,1,8,0:0:0:0:
93,218,37495,2,0,P|130:249|179:247,1,100,10|8,0:0|0:0,0:0:0:0:
264,192,38130,2,0,L|396:192,1,100,10|8,0:0|0:0,0:0:0:0:
408,100,38765,6,0,B|448:192|448:192|408:284,1,200,10|10,0:0|0:0,0:0:0:0:
328,340,39717,1,8,0:0:0:0:
340,236,40035,2,0,B|364:192|364:192|340:148,1,100,10|8,0:0|0:0,0:0:0:0:
300,120,40511,1,8,0:0:0:0:
300,120,40669,2,0,B|256:96|256:96|212:120,1,100,10|8,0:0|0:0,0:0:0:0:
136,184,41304,6,0,P|91:205|47:185,1,100,4|8,0:0|0:0,0:0:0:0:
28,140,41781,1,0,0:0:0:0:
28,140,41939,2,0,L|20:40,1,100,10|8,0:0|0:0,0:0:0:0:
116,8,42574,2,0,L|124:108,1,100,12|8,0:0|0:0,0:0:0:0:
212,152,43209,2,0,B|256:176|256:176|300:152,1,100,2|0,0:0|0:0,0:0:0:0:
356,68,43844,6,0,B|400:44|400:44|444:68,1,100,4|8,0:0|0:0,0:0:0:0:
452,116,44320,1,0,0:0:0:0:
452,116,44479,2,0,L|428:216,1,100,2|8,0:0|0:0,0:0:0:0:
412,260,44955,1,2,0:0:0:0:
336,324,45273,1,0,0:0:0:0:
336,324,45431,2,0,P|288:336|240:324,1,100,8|2,0:0|0:0,0:0:0:0:
156,272,46066,1,8,0:0:0:0:
76,212,46384,6,0,P|63:163|75:115,1,100,2|8,0:0|0:0,0:0:0:0:
152,52,47019,1,2,0:0:0:0:
228,116,47336,1,8,0:0:0:0:
228,116,47495,2,0,B|280:116|280:116|324:140,1,100,2|0,0:0|0:0,0:0:0:0:
368,160,47971,2,0,L|324:256,1,100,8|2,0:0|0:0,0:0:0:0:
256,324,48606,1,8,0:0:0:0:
186,250,48923,6,0,L|145:160,1,100,4|8,0:0|0:0,0:0:0:0:
96,72,49558,1,2,0:0:0:0:
188,32,49876,1,8,0:0:0:0:
188,32,50035,1,2,0:0:0:0:
288,32,50352,2,0,P|372:32|416:76,1,150,0|2,0:0|0:0,0:0:0:0:
464,164,51146,1,8,0:0:0:0:
388,232,51463,6,0,P|353:267|305:270,1,100,4|8,0:0|0:0,0:0:0:0:
207,270,52098,2,0,P|158:267|123:232,1,100,8|8,0:0|0:0,0:0:0:0:
124,132,52733,2,0,P|159:97|206:94,1,100,8|8,0:0|0:0,0:0:0:0:
304,94,53368,2,0,P|353:97|388:132,1,100,8|8,0:0|0:0,0:0:0:0:
316,200,54003,6,0,P|256:266|196:200,2,200,4|2|2,0:0|0:0|0:0,0:0:0:0:
172,64,55908,1,2,0:0:0:0:
256,120,56225,1,2,0:0:0:0:
340,64,56543,6,0,L|392:152,1,100,4|8,0:0|0:0,0:0:0:0:
412,196,57019,1,0,0:0:0:0:
412,196,57177,2,0,P|460:184|508:196,1,100,2|8,0:0|0:0,0:0:0:0:
508,296,57812,2,0,P|459:309|411:297,1,100,2|8,0:0|0:0,0:0:0:0:
368,276,58289,1,0,0:0:0:0:
368,276,58447,2,0,P|319:264|272:277,1,100,2|8,0:0|0:0,0:0:0:0:
224,188,59082,6,0,L|120:164,1,100,2|8,0:0|0:0,0:0:0:0:
76,156,59558,1,0,0:0:0:0:
76,156,59717,2,0,B|52:200|52:200|76:244,1,100,2|8,0:0|0:0,0:0:0:0:
156,304,60352,1,2,0:0:0:0:
256,304,60669,2,0,P|308:304|344:272,1,100,8|2,0:0|0:0,0:0:0:0:
388,184,61304,2,0,L|412:128,1,50,8|8,0:0|0:0,0:0:0:0:
392,92,61622,6,0,P|343:90|305:121,1,100,4|8,0:0|0:0,0:0:0:0:
207,120,62257,2,0,L|207:64,2,50,2|0|8,0:0|0:0|0:0,0:0:0:0:
208,172,62733,1,0,0:0:0:0:
208,172,62892,2,0,B|164:196|164:196|120:172,1,100,2|8,0:0|0:0,0:0:0:0:
32,124,63527,2,0,L|32:180,2,50,2|0|8,0:0|0:0|0:0,0:0:0:0:
32,72,64003,1,0,0:0:0:0:
32,72,64162,6,0,B|76:48|76:48|120:72,1,100,4|8,0:0|0:0,0:0:0:0:
168,76,64638,2,0,L|324:16,1,150,4|8,0:0|0:0,0:0:0:0:
356,4,65273,1,4,0:0:0:0:
468,104,65749,2,0,P|479:152|466:199,1,100,8|2,0:0|0:0,0:0:0:0:
404,280,66384,1,8,0:0:0:0:
208,240,67019,6,0,P|197:192|210:145,1,100,4|2,0:0|0:0,0:0:0:0:
260,56,67654,1,8,0:0:0:0:
260,56,67812,2,0,P|308:45|355:58,1,100
396,88,68289,2,0,P|407:136|394:183,1,100,8|2,0:0|0:0,0:0:0:0:
324,256,68923,1,8,0:0:0:0:
324,256,69082,6,0,P|256:284|188:256,1,150,0|8,0:0|0:0,0:0:0:0:
112,192,69876,1,2,0:0:0:0:
188,128,70193,1,8,0:0:0:0:
188,128,70352,1,2,0:0:0:0:
268,68,70669,2,0,P|344:68|400:116,1,150,0|8,0:0|0:0,0:0:0:0:
456,196,71463,2,0,L|412:232,1,50,8|8,0:0|0:0,0:0:0:0:
372,252,71781,6,0,B|372:308|372:308|344:344,1,100,4|8,0:0|0:0,0:0:0:0:
256,296,72416,1,2,0:0:0:0:
168,342,72733,2,0,B|141:308|141:308|141:252,1,100,8|2,0:0|0:0,0:0:0:0:
140,152,73368,2,0,L|140:100,1,50,8|0,0:0|0:0,0:0:0:0:
168,60,73685,1,2,0:0:0:0:
256,16,74003,1,8,0:0:0:0:
344,60,74320,6,0,P|392:48|439:61,1,100,4|8,0:0|0:0,0:0:0:0:
468,104,74796,1,4,0:0:0:0:
496,200,75114,1,0,0:0:0:0:
428,336,75590,2,0,P|356:336|308:276,1,150,4|8,0:0|0:0,0:0:0:0:
284,236,76225,1,8,0:0:0:0:
188,264,76543,1,8,0:0:0:0:
148,172,76860,6,0,L|180:76,1,100,4|8,0:0|0:0,0:0:0:0:
280,64,77495,2,0,L|248:158,1,100,8|8,0:0|0:0,0:0:0:0:
284,252,78130,2,0,B|240:276|240:276|196:252,1,100,8|8,0:0|0:0,0:0:0:0:
159,158,78765,2,0,B|203:134|203:134|247:158,1,100,8|8,0:0|0:0,0:0:0:0:
268,60,79400,6,0,P|203:26|139:59,2,150,4|10|8,0:0|0:0|0:0,0:0:0:0:
348,120,80669,2,0,P|412:152|476:119,1,150,8|4,0:0|0:0,0:0:0:0:
236,56,81939,6,0,P|114:192|236:328,1,400,2|2,0:0|0:0,0:0:0:0:
384,192,83844,1,2,0:0:0:0:
184,188,84479,5,2,0:0:0:0:
44,132,84955,1,2,0:0:0:0:
288,76,85749,1,2,0:0:0:0:
428,132,86225,1,2,0:0:0:0:
392,376,87019,2,0,B|308:376|256:247|256:247|208:376|120:376,1,400,2|0,0:0|0:0,0:0:0:0:
