osu file format v14

[General]
AudioFilename: audio.mp3
AudioLeadIn: 0
PreviewTime: 56543
Countdown: 0
SampleSet: Soft
StackLeniency: 0.3
Mode: 0
LetterboxInBreaks: 0
WidescreenStoryboard: 1

[Editor]
Bookmarks: 680,13378,23537,33537,43854,56553,67029,76870,81949
DistanceSpacing: 1.2
BeatDivisor: 4
GridSize: 4
TimelineZoom: 2

[Metadata]
Title:Gomakashi (TV Size)
TitleUnicode:ごまかし (TV Size)
Artist:TrySail
ArtistUnicode:TrySail
Creator:Andrea
Version:Hard
Source:マギアレコード 魔法少女まどか☆マギカ外伝
Tags:Opening Puella Magi Madoka Magica Side Story: Magia Record Mahou Shoujo Madoka☆Magica Gaiden Anime Japanese osuplayer111 Sekai Sekaii Sekai-nyan Collaboration Asakura Momo 麻倉もも Amamiya Sora 雨宮天 Natsukawa Shiina 夏川椎菜
BeatmapID:2281475
BeatmapSetID:1091323

[Difficulty]
HPDrainRate:6
CircleSize:4.5
OverallDifficulty:7
ApproachRate:8
SliderMultiplier:1.4
SliderTickRate:1

[Events]
//Background and Video events
Video,200,"Video.mp4"
0,0,"BG Hard.jpg",0,0
//Break Periods
//Storyboard Layer 0 (Background)
//Storyboard Layer 1 (Fail)
//Storyboard Layer 2 (Pass)
//Storyboard Layer 3 (Foreground)
//Storyboard Layer 4 (Overlay)
//Storyboard Sound Samples

[TimingPoints]
670,317.460317460317,4,2,1,50,1,0
670,-133.333333333333,4,2,1,50,0,0
10908,-133.333333333333,4,2,1,60,0,0
11463,-133.333333333333,4,2,1,65,0,0
12098,-133.333333333333,4,2,1,70,0,0
12574,-133.333333333333,4,2,1,75,0,0
12892,-133.333333333333,4,2,1,80,0,0
13050,-133.333333333333,4,2,1,5,0,0
13368,-100,4,2,1,70,0,0
18130,-100,4,2,1,60,0,0
18447,-100,4,2,1,70,0,0
20669,-100,4,2,1,50,0,0
20987,-100,4,2,1,60,0,0
22336,-100,4,2,1,50,0,0
23209,-100,4,2,1,5,0,0
23527,-133.333333333333,4,2,1,60,0,0
33050,-133.333333333333,4,2,1,50,0,0
33368,-133.333333333333,4,2,1,60,0,0
33527,-100,4,2,1,70,0,0
46622,-100,4,2,1,50,0,0
46701,-100,4,2,1,70,0,0
51701,-100,4,2,1,5,0,0
51781,-100,4,2,1,50,0,0
55908,-100,4,2,1,60,0,0
56225,-100,4,2,1,70,0,0
56543,-100,4,2,1,80,0,1
66701,-100,4,2,1,60,0,1
66939,-100,4,2,1,5,0,0
67019,-100,4,2,1,80,0,1
76066,-100,4,2,1,70,0,1
76860,-100,4,2,1,70,0,0
77098,-100,4,2,1,5,0,0
77177,-100,4,2,1,50,0,0
79400,-100,4,2,1,70,0,0
80352,-100,4,2,1,50,0,0
81146,-200,4,2,1,60,0,0
81860,-200,4,2,1,5,0,0
81939,-133.333333333333,4,2,1,60,0,0
86225,-200,4,2,1,60,0,0
86939,-200,4,2,1,5,0,0
87019,-133.333333333333,4,2,1,60,0,0
88289,-133.333333333333,4,2,1,5,0,0

[Colours]
Combo1 : 244,0,122
Combo2 : 255,125,190
SliderBorder : 255,128,191
SliderTrackOverride : 255,202,228

[HitObjects]
256,192,352,5,2,0:0:0:0:
168,284,670,2,0,B|220:284|256:333|256:333|292:284|344:284,1,210.000008010865,8|2,0:0|0:0,0:0:0:0:
256,192,1622,1,0,0:0:0:0:
168,100,1939,2,0,B|220:100|256:51|256:51|292:100|344:100,1,210.000008010865,0|2,0:0|0:0,0:0:0:0:
432,192,2892,1,0,0:0:0:0:
344,284,3209,6,0,P|304:340|220:340,2,157.500006008148,8|2|0,0:0|0:0|0:0,0:0:0:0:
432,192,4479,1,2,0:0:0:0:
80,192,5431,1,2,0:0:0:0:
168,100,5749,6,0,P|208:44|292:44,2,157.500006008148,8|2|0,0:0|0:0|0:0,0:0:0:0:
80,192,7019,1,2,0:0:0:0:
256,356,7971,1,2,0:0:0:0:
184,252,8289,6,0,P|256:224|328:252,2,157.500006008148,8|2|0,0:0|0:0|0:0,0:0:0:0:
256,356,9558,1,2,0:0:0:0:
132,136,10193,1,2,0:0:0:0:
380,136,10828,1,2,0:0:0:0:
256,192,10908,12,0,13050,0:0:0:0:
199,307,13368,6,0,B|235:307|256:272|256:272|281:307|313:307,1,140,4|8,0:0|0:0,0:0:0:0:
328,224,13844,1,0,0:0:0:0:
328,224,14003,2,0,P|340:191|328:159,1,70,2|0,0:0|0:0,0:0:0:0:
183,159,14320,2,0,P|171:191|184:224,1,70,8|2,0:0|0:0,0:0:0:0:
311,88,14638,6,0,P|256:52|200:87,1,140,0|8,0:0|0:0,0:0:0:0:
311,88,15114,2,0,L|336:20,1,70,2|0,0:0|0:0,0:0:0:0:
440,24,15431,1,0,0:0:0:0:
440,24,15590,2,0,L|415:89,1,70,8|2,0:0|0:0,0:0:0:0:
456,208,15908,6,0,B|388:232|388:180|320:208,1,140,4|8,0:0|0:0,0:0:0:0:
256,272,16384,1,0,0:0:0:0:
191,207,16543,1,2,0:0:0:0:
256,143,16701,1,0,0:0:0:0:
320,207,16860,1,8,0:0:0:0:
191,207,17019,2,0,B|177:175|177:175|191:143,1,70,2|0,0:0|0:0,0:0:0:0:
321,143,17336,2,0,B|335:175|335:175|321:207,1,70,2|8,0:0|0:0,0:0:0:0:
192,296,17654,2,0,B|256:268|256:268|320:296,1,140,2|0,0:0|0:0,0:0:0:0:
404,328,18130,2,0,L|432:292,3,35,10|8|8|8,0:0|0:0|0:0|0:0,0:0:0:0:
456,264,18447,6,0,P|492:208|457:152,1,140,4|8,0:0|0:0,0:0:0:0:
364,108,18923,1,0,0:0:0:0:
364,108,19082,2,0,P|351:140|364:172,1,70,2|0,0:0|0:0,0:0:0:0:
456,151,19400,2,0,P|468:119|455:87,1,70,8|2,0:0|0:0,0:0:0:0:
360,16,19717,6,0,B|328:2|328:2|296:16,1,70,0|0,0:0|0:0,0:0:0:0:
212,68,20035,1,8,0:0:0:0:
299,108,20193,2,0,B|331:122|331:122|363:108,1,70,2|0,0:0|0:0,0:0:0:0:
212,68,20511,1,8,0:0:0:0:
295,16,20669,1,8,3:0:0:0:
300,108,20828,1,8,3:0:0:0:
212,68,20987,6,0,L|156:60,2,46.6666666666667,12|8|8,0:0|0:0|0:0,0:0:0:0:
160,100,21304,2,0,L|100:88,2,46.6666666666667,8|8|8,0:0|0:0|0:0,0:0:0:0:
104,124,21622,2,0,L|52:116,2,46.6666666666667,8|8|8,0:0|0:0|0:0,0:0:0:0:
60,164,21939,2,0,L|12:156,2,46.6666666666667,8|8|8,0:0|0:0|0:0,0:0:0:0:
12,200,22257,5,4,0:0:0:0:
256,192,22336,12,0,23209,0:0:0:0:
104,112,23527,6,0,P|164:112|196:84,1,105.000004005432,4|0,0:0|0:0,0:0:0:0:
256,24,24003,1,0,0:0:0:0:
315,83,24162,2,0,P|356:115|408:111,1,105.000004005432,2|0,0:0|0:0,0:0:0:0:
484,76,24638,1,0,0:0:0:0:
484,76,24796,2,0,L|484:188,1,105.000004005432,2|0,0:0|0:0,0:0:0:0:
380,312,25431,2,0,L|380:200,1,105.000004005432,2|0,0:0|0:0,0:0:0:0:
380,124,25908,1,0,0:0:0:0:
304,88,26066,6,0,P|256:69|208:88,1,105.000004005432,2|0,0:0|0:0,0:0:0:0:
132,123,26543,2,0,P|114:171|133:219,1,105.000004005432,2|0,0:0|0:0,0:0:0:0:
192,280,27019,1,2,0:0:0:0:
256,336,27177,1,0,0:0:0:0:
320,280,27336,6,0,L|372:312,1,52.5000020027161,2|0,0:0|0:0,0:0:0:0:
412,236,27654,2,0,L|367:208,1,52.5000020027161,0|0,0:0|0:0,0:0:0:0:
296,164,27971,1,2,0:0:0:0:
224,120,28130,1,0,0:0:0:0:
148,80,28289,2,0,L|112:136,1,52.5000020027161
71,193,28606,6,0,P|52:240|71:288,1,105.000004005432,2|0,0:0|0:0,0:0:0:0:
116,360,29082,1,0,0:0:0:0:
116,360,29241,2,0,P|163:378|211:359,1,105.000004005432,2|0,0:0|0:0,0:0:0:0:
396,360,29876,2,0,P|348:378|300:359,1,105.000004005432,2|0,0:0|0:0,0:0:0:0:
256,288,30352,1,0,0:0:0:0:
256,204,30511,6,0,B|240:152|272:152|256:100,1,105.000004005432,2|0,0:0|0:0,0:0:0:0:
188,48,30987,1,0,0:0:0:0:
324,48,31146,2,0,P|384:48|416:80,1,105.000004005432,2|0,0:0|0:0,0:0:0:0:
436,160,31622,2,0,P|376:160|344:128,1,105.000004005432,2|0,0:0|0:0,0:0:0:0:
100,192,32416,6,0,B|68:192|68:192|64:188|64:188|64:196|64:196|60:192|60:192|28:192,2,78.7500030040742,2|2|2,0:0|0:0|0:0,0:0:0:0:
156,256,33050,1,8,3:0:0:0:
214,316,33209,1,8,3:0:0:0:
298,316,33368,1,8,0:0:0:0:
356,256,33527,6,0,B|424:228|424:280|492:256,1,140,2|0,0:0|0:0,0:0:0:0:
483,121,34003,2,0,L|458:193,1,70,8|0,0:0|0:0,0:0:0:0:
400,100,34320,2,0,P|368:88|336:100,1,70,10|0,0:0|0:0,0:0:0:0:
276,180,34638,2,0,P|308:192|340:180,1,70,8|0,0:0|0:0,0:0:0:0:
313,307,34955,6,0,B|281:307|256:272|256:272|235:307|199:307,1,140,10|8,0:0|0:0,0:0:0:0:
84,312,35431,1,0,0:0:0:0:
84,312,35590,2,0,B|70:280|70:280|84:248,1,70,10|0,0:0|0:0,0:0:0:0:
140,160,35908,1,8,0:0:0:0:
188,240,36066,1,8,0:0:0:0:
280,156,36225,6,0,P|335:121|391:156,1,140,10|8,0:0|0:0,0:0:0:0:
428,248,36701,1,0,0:0:0:0:
391,157,36860,2,0,L|471:141,1,70,10|0,0:0|0:0,0:0:0:0:
428,248,37177,2,0,L|359:261,1,70,8|8,0:0|0:0,0:0:0:0:
224,172,37495,6,0,B|256:158|256:158|288:172,1,70,2|8,0:0|0:0,0:0:0:0:
288,272,37812,2,0,B|256:286|256:286|224:272,1,70,8|0,0:0|0:0,0:0:0:0:
320,340,38130,2,0,B|256:368|256:368|192:340,1,140,10|8,0:0|0:0,0:0:0:0:
76,244,38606,1,0,0:0:0:0:
76,244,38685,1,0,0:0:0:0:
76,244,38765,6,0,B|76:196|76:196|56:160|56:160|56:108,1,140,10|8,0:0|0:0,0:0:0:0:
132,48,39241,1,0,0:0:0:0:
132,48,39400,2,0,L|132:120,1,70,10|0,0:0|0:0,0:0:0:0:
220,72,39717,2,0,L|220:2,1,70,8|0,0:0|0:0,0:0:0:0:
320,112,40035,6,0,B|356:112|377:77|377:77|402:112|434:112,1,140,10|8,0:0|0:0,0:0:0:0:
376,192,40511,1,8,0:0:0:0:
434,112,40669,2,0,P|446:79|434:47,1,70,10|0,0:0|0:0,0:0:0:0:
319,47,40987,2,0,P|306:79|319:111,1,70,8|0,0:0|0:0,0:0:0:0:
376,192,41304,6,0,B|404:260|352:260|376:328,1,140,4|8,0:0|0:0,0:0:0:0:
312,228,41781,1,0,0:0:0:0:
312,228,41939,2,0,P|280:216|248:228,1,70,10|0,0:0|0:0,0:0:0:0:
192,312,42257,2,0,P|224:324|256:312,1,70,8|0,0:0|0:0,0:0:0:0:
133,372,42574,5,12,0:0:0:0:
73,312,42733,1,8,0:0:0:0:
133,253,42892,1,8,0:0:0:0:
192,312,43050,1,0,0:0:0:0:
73,312,43209,2,0,B|65:290|65:290|60:287|60:287|68:285|68:285|63:282|63:282|54:256,1,70,2|0,0:0|0:0,0:0:0:0:
192,312,43527,2,0,B|199:290|199:290|204:287|204:287|196:285|196:285|201:282|201:282|210:256,1,70,2|0,0:0|0:0,0:0:0:0:
192,152,43844,6,0,B|256:124|256:124|320:152,1,140,4|8,0:0|0:0,0:0:0:0:
360,76,44320,1,0,0:0:0:0:
360,76,44479,2,0,L|292:44,1,70,2|0,0:0|0:0,0:0:0:0:
216,46,44796,1,8,0:0:0:0:
216,46,44955,2,0,L|88:102,1,140,2|0,0:0|0:0,0:0:0:0:
28,216,45431,2,0,L|156:160,1,140,8|0,0:0|0:0,0:0:0:0:
224,212,45908,1,0,0:0:0:0:
224,212,46066,2,0,P|256:224|288:212,1,70,8|0,0:0|0:0,0:0:0:0:
356,159,46384,6,0,L|452:203,1,105,2|0,0:0|0:0,0:0:0:0:
488,220,46701,2,0,P|500:252|488:284,1,70,8|0,0:0|0:0,0:0:0:0:
356,159,47019,2,0,P|321:104|356:48,1,140,2|8,0:0|0:0,0:0:0:0:
420,104,47495,2,0,L|272:104,1,140,2|0,0:0|0:0,0:0:0:0:
196,104,47971,2,0,B|182:136|182:136|196:168,1,70,8|0,0:0|0:0,0:0:0:0:
224,248,48289,2,0,B|256:262|256:262|288:248,1,70,2|0,0:0|0:0,0:0:0:0:
316,168,48606,2,0,B|330:136|330:136|316:104,1,70,8|8,0:0|0:0,0:0:0:0:
284,76,48844,1,8,0:0:0:0:
284,76,48923,6,0,P|220:76|164:128,1,140,4|8,0:0|0:0,0:0:0:0:
197,216,49400,1,0,0:0:0:0:
197,216,49558,2,0,P|261:216|317:164,1,140,2|8,0:0|0:0,0:0:0:0:
320,84,50035,2,0,L|388:216,1,140,2|0,0:0|0:0,0:0:0:0:
436,140,50511,2,0,L|404:76,1,70,8|0,0:0|0:0,0:0:0:0:
320,84,50828,2,0,B|272:84|272:84|236:104|236:104|184:104,1,140,2|8,0:0|0:0,0:0:0:0:
100,104,51304,1,0,0:0:0:0:
32,244,51463,6,0,P|88:244|128:280,1,105,4|0,0:0|0:0,0:0:0:0:
164,332,51781,2,0,L|184:368,3,35,8|8|8|8,0:0|0:0|0:0|0:0,0:0:0:0:
220,280,52098,2,0,L|203:249,3,35,8|8|8|8,0:0|0:0|0:0|0:0,0:0:0:0:
292,280,52416,2,0,L|308:249,3,35,8|8|8|8,0:0|0:0|0:0|0:0,0:0:0:0:
348,332,52733,6,0,L|328:368,3,35,8|8|8|8,0:0|0:0|0:0|0:0,0:0:0:0:
420,328,53050,2,0,L|456:348,3,35,8|8|8|8,0:0|0:0|0:0|0:0,0:0:0:0:
395,263,53368,2,0,L|411:232,3,35,8|8|8|8,0:0|0:0|0:0|0:0,0:0:0:0:
320,264,53685,2,0,L|289:247,3,35,8|8|8|8,0:0|0:0|0:0|0:0,0:0:0:0:
229,211,54003,5,4,0:0:0:0:
200,192,54638,1,2,0:0:0:0:
172,176,55273,1,2,0:0:0:0:
296,64,55908,6,0,L|328:16,2,46.6666666666667,2|0|0,0:0|0:0|0:0,0:0:0:0:
216,64,56225,2,0,L|184:16,2,46.6666666666667,2|0|0,0:0|0:0|0:0,0:0:0:0:
256,128,56543,6,0,B|284:196|232:196|256:264,1,140,4|8,0:0|0:0,0:0:0:0:
208,332,57019,1,0,0:0:0:0:
256,264,57177,1,2,0:0:0:0:
304,332,57336,1,0,0:0:0:0:
208,332,57495,2,0,P|175:344|143:331,1,70,8|0,0:0|0:0,0:0:0:0:
256,264,57812,6,0,L|404:212,1,140,2|8,0:0|0:0,0:0:0:0:
468,192,58289,1,0,0:0:0:0:
468,192,58447,2,0,B|482:160|482:160|468:128,1,70,2|0,0:0|0:0,0:0:0:0:
388,153,58765,2,0,B|374:185|374:185|388:217,1,70,8|0,0:0|0:0,0:0:0:0:
360,320,59082,6,0,L|227:366,1,140,2|8,0:0|0:0,0:0:0:0:
136,340,59558,1,0,0:0:0:0:
208,276,59717,1,2,0:0:0:0:
227,366,59876,1,0,0:0:0:0:
136,340,60035,2,0,P|123:307|135:275,1,70,8|0,0:0|0:0,0:0:0:0:
199,172,60352,6,0,B|235:172|256:137|256:137|281:172|313:172,1,140,2|8,0:0|0:0,0:0:0:0:
256,60,60828,1,0,0:0:0:0:
313,172,60987,2,0,B|327:204|327:204|313:236,1,70,2|0,0:0|0:0,0:0:0:0:
199,236,61304,2,0,B|185:204|185:204|199:172,1,70,8|8,0:0|0:0,0:0:0:0:
176,136,61543,1,8,0:0:0:0:
176,136,61622,6,0,L|28:112,1,140,4|8,0:0|0:0,0:0:0:0:
16,32,62098,1,0,0:0:0:0:
16,32,62257,2,0,L|96:44,1,70,2|0,0:0|0:0,0:0:0:0:
108,124,62574,2,0,L|38:113,1,70,8|0,0:0|0:0,0:0:0:0:
52,256,62892,6,0,L|200:280,1,140,2|8,0:0|0:0,0:0:0:0:
212,360,63368,1,0,0:0:0:0:
212,360,63527,2,0,L|132:348,1,70,2|0,0:0|0:0,0:0:0:0:
120,268,63844,2,0,L|189:278,1,70,8|0,0:0|0:0,0:0:0:0:
320,184,64162,6,0,B|256:212|256:212|192:184,1,140,4|8,0:0|0:0,0:0:0:0:
200,64,64638,2,0,B|236:64|257:99|257:99|282:64|314:64,1,140,4|0,0:0|0:0,0:0:0:0:
400,108,65114,1,8,0:0:0:0:
314,63,65273,1,4,0:0:0:0:
396,20,65431,6,0,L|472:24,1,70,0|0,0:0|0:0,0:0:0:0:
469,111,65749,2,0,L|399:107,1,70,8|0,0:0|0:0,0:0:0:0:
316,160,66066,2,0,P|304:192|316:224,1,70,2|0,0:0|0:0,0:0:0:0:
400,268,66384,2,0,P|412:235|400:203,1,70,8|0,0:0|0:0,0:0:0:0:
320,300,66701,2,0,L|208:308,1,105,2|0,0:0|0:0,0:0:0:0:
172,312,67019,6,0,P|117:347|61:312,1,140,4|2,0:0|0:0,0:0:0:0:
23,234,67495,1,0,0:0:0:0:
23,150,67654,1,8,0:0:0:0:
60,73,67812,2,0,P|115:37|172:72,1,140,0|0,0:0|0:0,0:0:0:0:
232,128,68289,2,0,B|280:128|280:128|316:148|316:148|368:148,1,140,8|2,0:0|0:0,0:0:0:0:
376,64,68765,1,0,0:0:0:0:
376,64,68923,2,0,B|340:64|340:64|308:48,1,70,8|0,0:0|0:0,0:0:0:0:
232,128,69241,6,0,B|181:128|181:128|145:108|145:108|97:108,1,140,2|8,0:0|0:0,0:0:0:0:
28,160,69717,1,0,0:0:0:0:
28,160,69876,2,0,P|16:192|28:224,1,70,2|0,0:0|0:0,0:0:0:0:
97,276,70193,1,8,0:0:0:0:
97,276,70352,2,0,B|145:276|145:276|181:256|181:256|232:256,1,140,2|0,0:0|0:0,0:0:0:0:
316,256,70828,5,8,0:0:0:0:
372,192,70987,1,8,0:0:0:0:
372,192,71066,1,8,0:0:0:0:
372,192,71146,2,0,B|404:206|404:206|436:192,1,70,8|8,0:0|0:0,0:0:0:0:
436,80,71463,2,0,B|404:66|404:66|372:80,1,70,8|8,0:0|0:0,0:0:0:0:
256,132,71781,6,0,B|220:132|199:167|199:167|174:132|142:132,1,140,4|8,0:0|0:0,0:0:0:0:
116,208,72257,1,0,0:0:0:0:
116,208,72416,2,0,L|168:60,1,140,2|8,0:0|0:0,0:0:0:0:
256,36,72892,1,0,0:0:0:0:
350,75,73050,2,0,L|396:207,1,140,2|8,0:0|0:0,0:0:0:0:
424,288,73527,1,0,0:0:0:0:
312,320,73685,6,0,P|256:356|200:321,1,140,2|8,0:0|0:0,0:0:0:0:
256,260,74162,1,0,0:0:0:0:
256,260,74320,2,0,B|232:192|284:192|256:124,1,140,4|8,0:0|0:0,0:0:0:0:
200,64,74796,2,0,P|256:28|311:65,1,140,4|0,0:0|0:0,0:0:0:0:
336,148,75273,1,2,0:0:0:0:
256,124,75431,1,0,0:0:0:0:
176,148,75590,1,4,0:0:0:0:
308,364,76066,5,8,0:0:0:0:
308,364,76146,1,8,0:0:0:0:
308,364,76225,2,0,P|320:331|308:299,1,70,8|8,0:0|0:0,0:0:0:0:
203,299,76543,2,0,P|191:331|204:364,1,70,8|8,0:0|0:0,0:0:0:0:
256,248,76860,6,0,B|240:192|272:192|256:144,1,105,4|0,0:0|0:0,0:0:0:0:
256,76,77177,2,0,L|208:72,3,35,8|8|8|8,0:0|0:0|0:0|0:0,0:0:0:0:
179,127,77495,2,0,L|145:125,3,35,8|8|8|8,0:0|0:0|0:0|0:0,0:0:0:0:
116,188,77812,2,0,L|81:185,3,35,8|8|8|8,0:0|0:0|0:0|0:0,0:0:0:0:
100,264,78130,6,0,L|134:266,3,35,8|8|8|8,0:0|0:0|0:0|0:0,0:0:0:0:
152,336,78447,2,0,L|186:338,3,35,8|8|8|8,0:0|0:0|0:0|0:0,0:0:0:0:
232,284,78765,2,0,L|266:286,3,35,8|8|8|8,0:0|0:0|0:0|0:0,0:0:0:0:
300,224,79082,2,0,L|334:226,3,35,8|8|8|8,0:0|0:0|0:0|0:0,0:0:0:0:
360,160,79400,6,0,L|220:148,1,140,4|8,0:0|0:0,0:0:0:0:
188,56,79876,2,0,L|328:68,1,140,10|0,0:0|0:0,0:0:0:0:
420,96,80352,6,8,P|432:128|432:156,2,46.6666666666667
432,172,80669,2,8,P|422:204|406:227,2,46.6666666666667
360,160,80987,1,8,0:0:0:0:
272,192,81146,6,0,B|212:192|212:192|176:176|176:176|116:176,1,157.5,4|0,0:0|0:0,0:0:0:0:
76,116,81939,6,0,P|256:24|436:116,1,420.000016021729,2|2,0:0|0:0,0:0:0:0:
368,164,83368,1,0,0:0:0:0:
298,210,83527,1,0,0:0:0:0:
214,210,83685,1,0,0:0:0:0:
144,164,83844,1,2,0:0:0:0:
100,336,84479,6,0,B|140:328|164:352|164:352|204:352,1,105.000004005432,2|0,0:0|0:0,0:0:0:0:
256,292,84955,1,0,0:0:0:0:
311,352,85114,2,0,B|348:352|348:352|372:328|412:336,1,105.000004005432,2|0,0:0|0:0,0:0:0:0:
412,168,85749,1,2,0:0:0:0:
328,24,86225,6,0,P|256:52|184:24,1,157.5,2|0,0:0|0:0,0:0:0:0:
76,40,87019,6,0,P|256:132|436:40,1,420.000016021729,2|0,0:0|0:0,0:0:0:0:
