osu file format v14

[General]
AudioFilename: audio.mp3
AudioLeadIn: 0
PreviewTime: 56456
Countdown: 0
SampleSet: Soft
StackLeniency: 0.7
Mode: 3
LetterboxInBreaks: 0
SpecialStyle: 0
WidescreenStoryboard: 0

[Editor]
DistanceSpacing: 1.4
BeatDivisor: 6
GridSize: 16
TimelineZoom: 2

[Metadata]
Title:Gomakashi (TV Size)
TitleUnicode:ごまかし (TV Size)
Artist:TrySail
ArtistUnicode:TrySail
Creator:Amiichii
Version:Wish
Source:マギアレコード 魔法少女まどか☆マギカ外伝
Tags:MagiReco マギレコ Magia Record Mahou Shoujo Madoka Magica Gaiden anime op opening japanese j-pop jpop VVCL-1633 アニプレックス Aniplex Puella Magi Side Story 麻倉もも Asakura Momo 雨宮天 Amamiya Sora 夏川椎菜 Natsukawa Shiina Syadow- _Asha
BeatmapID:2294920
BeatmapSetID:1098415

[Difficulty]
HPDrainRate:8.5
CircleSize:4
OverallDifficulty:7.8
ApproachRate:9.5
SliderMultiplier:2
SliderTickRate:2

[Events]
//Background and Video events
0,0,"bg.jpg",0,0
Video,115,"gomakashi.mp4"
//Break Periods
//Storyboard Layer 0 (Background)
//Storyboard Layer 1 (Fail)
//Storyboard Layer 2 (Pass)
//Storyboard Layer 3 (Foreground)
//Storyboard Layer 4 (Overlay)
//Storyboard Sound Samples

[TimingPoints]
583,317.460317460318,4,3,1,40,1,0
13281,-100,4,2,1,40,0,0
56456,-100,4,2,1,40,0,1
66614,-100,4,2,1,40,0,0
66932,-100,4,2,1,40,0,1
75503,-100,4,2,1,40,0,0
81852,-100,4,2,1,25,0,0

[HitObjects]
320,192,265,128,0,583:0:0:0:0:
64,192,583,1,2,0:0:0:0:
448,192,583,128,0,1217:0:0:0:0:
192,192,900,1,0,0:0:0:0:
64,192,1217,128,8,1852:0:0:0:0:
192,192,1535,128,0,1852:0:0:0:0:
320,192,1852,128,0,2487:0:0:0:0:
448,192,1852,1,0,0:0:0:0:
192,192,2170,1,8,0:0:0:0:
64,192,2487,128,8,3122:0:0:0:0:
192,192,2487,1,0,0:0:0:0:
448,192,2805,128,8,3122:0:0:0:0:
192,192,3122,1,2,0:0:0:0:
320,192,3122,128,0,3440:0:0:0:0:
64,192,3598,128,2,3916:0:0:0:0:
192,192,3598,1,0,0:0:0:0:
448,192,3757,1,8,0:0:0:0:
320,192,3916,1,8,0:0:0:0:
64,192,4075,128,0,4392:0:0:0:0:
192,192,4075,1,2,0:0:0:0:
320,192,4233,1,8,0:0:0:0:
192,192,4392,1,0,0:0:0:0:
448,192,4392,128,0,5027:0:0:0:0:
64,192,4709,128,0,5027:0:0:0:0:
320,192,5027,1,0,0:0:0:0:
192,192,5344,128,0,5662:0:0:0:0:
320,192,5503,1,8,0:0:0:0:
64,192,5662,1,2,0:0:0:0:
448,192,5662,128,0,6297:0:0:0:0:
192,192,5979,1,8,0:0:0:0:
320,192,6138,128,8,6297:0:0:0:0:
64,192,6297,1,8,0:0:0:0:
192,192,6614,128,0,6932:0:0:0:0:
448,192,6932,128,0,7884:0:0:0:0:
64,192,7249,1,8,0:0:0:0:
320,192,7567,128,0,7884:0:0:0:0:
64,192,7884,1,8,0:0:0:0:
192,192,8202,1,2,0:0:0:0:
448,192,8202,128,0,8519:0:0:0:0:
64,192,8678,1,2,0:0:0:0:
448,192,8678,128,0,8995:0:0:0:0:
320,192,8836,1,8,0:0:0:0:
192,192,8995,1,8,0:0:0:0:
64,192,9154,128,2,9471:0:0:0:0:
448,192,9154,1,0,0:0:0:0:
192,192,9313,1,8,0:0:0:0:
320,192,9471,128,0,10741:0:0:0:0:
448,192,9471,128,0,9789:0:0:0:0:
192,192,9630,1,0,0:0:0:0:
64,192,9789,128,8,9948:0:0:0:0:
192,192,9948,128,0,10106:0:0:0:0:
448,192,10106,128,0,10265:0:0:0:0:
64,192,10265,128,0,10424:0:0:0:0:
448,192,10424,128,0,10583:0:0:0:0:
192,192,10583,128,8,10741:0:0:0:0:
64,192,10741,128,0,12963:0:0:0:0:
448,192,10741,128,0,10900:0:0:0:0:
320,192,10900,128,0,11059:0:0:0:0:
192,192,11059,128,8,11217:0:0:0:0:
448,192,11217,128,0,11535:0:0:0:0:
320,192,11376,128,0,11694:0:0:0:0:
192,192,11535,128,0,11852:0:0:0:0:
448,192,11694,128,0,12011:0:0:0:0:
320,192,11852,128,8,12170:0:0:0:0:
192,192,12011,128,0,12329:0:0:0:0:
448,192,12170,128,0,12487:0:0:0:0:
320,192,12329,128,0,12646:0:0:0:0:
192,192,12487,128,0,12805:0:0:0:0:
448,192,12646,128,0,12963:0:0:0:0:
320,192,12805,128,0,12963:0:0:0:0:
192,192,12963,1,0,0:0:0:0:
64,192,13281,128,2,13440:0:0:0:0:
192,192,13281,128,4,13440:0:0:0:0:
448,192,13281,128,0,13598:0:0:0:0:
64,192,13598,1,8,0:0:0:0:
192,192,13598,1,0,0:0:0:0:
320,192,13598,1,0,0:0:0:0:
320,192,13757,128,0,13916:0:0:0:0:
64,192,13916,128,2,14075:0:0:0:0:
192,192,13916,1,0,0:0:0:0:
192,192,14075,128,2,14233:0:0:0:0:
448,192,14075,1,0,0:0:0:0:
64,192,14233,1,8,0:0:0:0:
320,192,14233,1,0,0:0:0:0:
448,192,14233,128,0,14392:0:0:0:0:
64,192,14392,128,0,14868:0:0:0:0:
192,192,14392,128,0,14551:0:0:0:0:
320,192,14551,1,2,0:0:0:0:
448,192,14551,1,0,0:0:0:0:
192,192,14709,1,0,0:0:0:0:
192,192,14868,1,8,0:0:0:0:
320,192,14868,1,0,0:0:0:0:
448,192,14868,128,0,15027:0:0:0:0:
64,192,15027,128,2,15186:0:0:0:0:
192,192,15027,128,0,15503:0:0:0:0:
320,192,15186,1,0,0:0:0:0:
64,192,15344,1,2,0:0:0:0:
448,192,15344,1,0,0:0:0:0:
64,192,15503,1,8,0:0:0:0:
320,192,15503,128,0,15662:0:0:0:0:
448,192,15503,1,0,0:0:0:0:
64,192,15662,128,0,15821:0:0:0:0:
448,192,15662,128,0,16138:0:0:0:0:
192,192,15821,1,4,0:0:0:0:
320,192,15821,1,2,0:0:0:0:
64,192,15979,1,0,0:0:0:0:
64,192,16138,1,8,0:0:0:0:
192,192,16138,1,0,0:0:0:0:
320,192,16138,1,0,0:0:0:0:
192,192,16297,128,0,16456:0:0:0:0:
64,192,16456,1,2,0:0:0:0:
448,192,16456,128,0,16614:0:0:0:0:
192,192,16614,1,2,0:0:0:0:
320,192,16614,128,0,16773:0:0:0:0:
64,192,16773,1,8,0:0:0:0:
192,192,16773,128,0,16932:0:0:0:0:
448,192,16773,1,0,0:0:0:0:
64,192,16932,128,0,17090:0:0:0:0:
320,192,16932,128,0,17011:0:0:0:0:
448,192,16932,128,0,17011:0:0:0:0:
192,192,17090,1,2,0:0:0:0:
448,192,17090,1,0,0:0:0:0:
192,192,17249,128,0,17329:0:0:0:0:
320,192,17249,128,0,17329:0:0:0:0:
64,192,17408,1,8,0:0:0:0:
320,192,17408,1,0,0:0:0:0:
448,192,17408,1,0,0:0:0:0:
64,192,17567,128,2,17646:0:0:0:0:
192,192,17567,128,0,17646:0:0:0:0:
448,192,17567,128,0,17884:0:0:0:0:
320,192,17725,1,0,0:0:0:0:
64,192,17884,1,2,0:0:0:0:
192,192,17884,128,0,17963:0:0:0:0:
320,192,17963,128,0,18043:0:0:0:0:
64,192,18043,128,8,18122:0:0:0:0:
448,192,18043,128,0,18122:0:0:0:0:
192,192,18122,128,0,18202:0:0:0:0:
320,192,18202,128,8,18281:0:0:0:0:
448,192,18202,1,0,0:0:0:0:
64,192,18281,1,8,0:0:0:0:
192,192,18281,128,0,18360:0:0:0:0:
320,192,18360,128,2,18519:0:0:0:0:
448,192,18360,128,4,18678:0:0:0:0:
64,192,18678,1,8,0:0:0:0:
192,192,18678,1,0,0:0:0:0:
320,192,18678,1,0,0:0:0:0:
64,192,18836,128,0,18995:0:0:0:0:
320,192,18995,1,2,0:0:0:0:
448,192,18995,128,0,19154:0:0:0:0:
64,192,19154,1,2,0:0:0:0:
192,192,19154,128,0,19313:0:0:0:0:
64,192,19313,1,8,0:0:0:0:
320,192,19313,128,0,19471:0:0:0:0:
448,192,19313,1,0,0:0:0:0:
192,192,19471,128,2,19630:0:0:0:0:
448,192,19471,128,0,19948:0:0:0:0:
320,192,19630,1,0,0:0:0:0:
64,192,19789,1,2,0:0:0:0:
192,192,19789,1,0,0:0:0:0:
64,192,19948,1,8,0:0:0:0:
192,192,19948,1,0,0:0:0:0:
320,192,19948,1,0,0:0:0:0:
64,192,20106,1,2,0:0:0:0:
320,192,20106,128,4,20265:0:0:0:0:
448,192,20106,128,0,20741:0:0:0:0:
192,192,20265,1,0,0:0:0:0:
64,192,20424,1,8,0:0:0:0:
192,192,20424,1,0,0:0:0:0:
320,192,20424,1,0,0:0:0:0:
64,192,20583,1,0,0:0:0:40:Tom2.wav
320,192,20583,1,0,0:0:0:0:
64,192,20741,1,2,0:0:0:0:
192,192,20741,1,0,0:0:0:40:Tom3.wav
192,192,20900,1,4,0:0:0:0:
320,192,20900,1,2,0:0:0:0:
448,192,20900,1,0,0:0:0:0:
64,192,21006,1,0,0:0:0:0:
320,192,21112,1,8,0:0:0:0:
448,192,21112,1,0,0:0:0:0:
192,192,21217,1,8,0:0:0:0:
320,192,21217,1,0,0:0:0:0:
64,192,21323,1,8,0:0:0:0:
192,192,21323,1,0,0:0:0:0:
320,192,21429,1,8,0:0:0:0:
448,192,21429,1,0,0:0:0:0:
64,192,21535,1,8,0:0:0:0:
192,192,21535,1,2,0:0:0:0:
320,192,21641,1,0,0:0:0:0:
192,192,21747,1,0,0:0:0:40:Tom1.wav
448,192,21747,1,0,0:0:0:0:
64,192,21852,1,0,0:0:0:40:Tom2.wav
320,192,21852,1,0,0:0:0:0:
64,192,21958,1,0,0:0:0:40:Tom3.wav
192,192,21958,1,0,0:0:0:0:
320,192,22064,1,0,0:0:0:40:Tom4.wav
448,192,22064,1,0,0:0:0:0:
64,192,22170,128,4,22567:0:0:0:0:
192,192,22170,128,2,22646:0:0:0:0:
448,192,22170,128,0,22725:0:0:0:0:
64,192,22646,128,0,23360:0:0:0:0:
192,192,22725,128,0,23360:0:0:0:0:
320,192,22805,1,0,0:0:0:0:
448,192,22805,128,0,23360:0:0:0:0:
320,192,23122,128,0,23360:0:0:0:70:F#5S_Gb5S.ogg
64,192,23440,1,2,0:0:0:0:
320,192,23440,1,0,0:0:0:0:
448,192,23440,1,0,0:0:0:0:
192,192,23598,128,0,23678:0:0:0:70:C#6S_Db6S.ogg
320,192,23757,128,0,23836:0:0:0:70:F#6S_Gb6S.ogg
192,192,23916,128,0,23995:0:0:0:70:C#6S_Db6S.ogg
448,192,24075,128,0,24154:0:0:0:70:G#6S_Ab6S.ogg
192,192,24233,128,0,24313:0:0:0:70:C#6S_Db6S.ogg
320,192,24392,128,0,24471:0:0:0:70:F#6S_Gb6S.ogg
192,192,24551,128,0,24630:0:0:0:70:C#6S_Db6S.ogg
320,192,24709,1,0,0:0:0:0:
448,192,24709,1,0,0:0:0:0:
64,192,24868,128,0,24948:0:0:0:70:C#6S_Db6S.ogg
192,192,25027,128,0,25106:0:0:0:70:F#6S_Gb6S.ogg
64,192,25186,128,0,25265:0:0:0:70:C#6S_Db6S.ogg
320,192,25344,128,0,25424:0:0:0:70:G#6S_Ab6S.ogg
64,192,25503,128,0,25583:0:0:0:70:C#6S_Db6S.ogg
448,192,25662,128,0,25741:0:0:0:70:C#7S_Db7S.ogg
64,192,25821,128,0,25900:0:0:0:70:C#6S_Db6S.ogg
192,192,25979,1,0,0:0:0:0:
448,192,25979,1,0,0:0:0:0:
320,192,26138,128,0,26217:0:0:0:70:C#6S_Db6S.ogg
192,192,26297,128,0,26376:0:0:0:70:F#6S_Gb6S.ogg
320,192,26456,128,0,26535:0:0:0:70:C#6S_Db6S.ogg
64,192,26614,128,0,26694:0:0:0:70:G#6S_Ab6S.ogg
320,192,26773,128,0,26852:0:0:0:70:C#6S_Db6S.ogg
192,192,26932,128,0,27011:0:0:0:70:F#6S_Gb6S.ogg
320,192,27090,128,0,27170:0:0:0:70:C#6S_Db6S.ogg
64,192,27249,1,0,0:0:0:0:
448,192,27249,1,0,0:0:0:0:
192,192,27408,128,0,27487:0:0:0:70:F#6S_Gb6S.ogg
320,192,27567,128,0,27646:0:0:0:70:G#6S_Ab6S.ogg
448,192,27725,128,0,27805:0:0:0:70:C#7S_Db7S.ogg
320,192,27884,128,0,27963:0:0:0:70:B6S.ogg
192,192,28043,128,0,28122:0:0:0:70:A#6S_Bb6S.ogg
64,192,28202,128,0,28281:0:0:0:70:G#6S_Ab6S.ogg
320,192,28360,128,0,28440:0:0:0:70:F#6S_Gb6S.ogg
64,192,28519,1,4,0:0:0:0:
192,192,28519,1,0,0:0:0:0:
448,192,28678,128,0,28757:0:0:0:70:C#6S_Db6S.ogg
192,192,28836,128,0,28916:0:0:0:70:F#6S_Gb6S.ogg
448,192,28995,128,0,29075:0:0:0:70:C#6S_Db6S.ogg
64,192,29154,128,0,29233:0:0:0:70:G#6S_Ab6S.ogg
448,192,29313,128,0,29392:0:0:0:70:C#6S_Db6S.ogg
192,192,29471,128,0,29551:0:0:0:70:F#6S_Gb6S.ogg
448,192,29630,128,0,29709:0:0:0:70:C#6S_Db6S.ogg
64,192,29789,1,0,0:0:0:0:
320,192,29789,1,0,0:0:0:0:
192,192,29948,128,0,30027:0:0:0:70:C#6S_Db6S.ogg
448,192,30106,128,0,30186:0:0:0:70:F#6S_Gb6S.ogg
192,192,30265,128,0,30344:0:0:0:70:C#6S_Db6S.ogg
320,192,30424,128,0,30503:0:0:0:70:G#6S_Ab6S.ogg
192,192,30583,128,0,30662:0:0:0:70:C#6S_Db6S.ogg
320,192,30741,1,0,0:0:0:70:F#6S_Gb6S.ogg
448,192,30741,128,0,30821:0:0:0:0:
192,192,30900,128,0,30979:0:0:0:70:C#6S_Db6S.ogg
64,192,31059,1,0,0:0:0:0:
448,192,31059,1,0,0:0:0:0:
320,192,31217,128,0,31297:0:0:0:70:C#6S_Db6S.ogg
192,192,31376,128,0,31456:0:0:0:70:F#6S_Gb6S.ogg
320,192,31535,128,0,31614:0:0:0:70:C#6S_Db6S.ogg
64,192,31694,128,0,31773:0:0:0:70:G#6S_Ab6S.ogg
320,192,31852,128,0,31932:0:0:0:70:C#6S_Db6S.ogg
192,192,32011,128,0,32090:0:0:0:70:F#6S_Gb6S.ogg
320,192,32170,128,0,32249:0:0:0:70:C#6S_Db6S.ogg
448,192,32329,128,0,32487:0:0:0:70:F#7S_Gb7S.ogg
448,192,32567,128,0,32725:0:0:0:70:F7S.ogg
64,192,32805,128,0,32963:0:0:0:70:F#7S_Gb7S.ogg
320,192,32963,1,0,0:0:0:70:G#7S_Ab7S.ogg
448,192,32963,1,0,0:0:0:40:Tom2.wav
192,192,33122,1,2,0:0:0:0:
320,192,33122,1,0,0:0:0:0:
64,192,33281,1,8,0:0:0:0:
192,192,33281,1,0,0:0:0:0:
448,192,33281,1,0,0:0:0:0:
64,192,33440,1,2,0:0:0:0:
320,192,33440,1,4,0:0:0:0:
448,192,33440,128,0,34551:0:0:0:0:
192,192,33519,1,0,0:0:0:0:
320,192,33598,1,0,0:0:0:0:
192,192,33678,1,0,0:0:0:0:
320,192,33757,1,0,0:0:0:0:
192,192,33836,1,0,0:0:0:0:
64,192,33916,1,2,0:0:0:0:
320,192,33916,1,0,0:0:0:0:
192,192,33995,1,0,0:0:0:0:
320,192,34075,1,0,0:0:0:0:
64,192,34233,1,2,0:0:0:0:
192,192,34233,1,0,0:0:0:0:
320,192,34392,1,0,0:0:0:0:
64,192,34551,1,2,0:0:0:0:
192,192,34551,1,0,0:0:0:0:
320,192,34709,1,0,0:0:0:0:
192,192,34789,1,0,0:0:0:0:
64,192,34868,128,2,35503:0:0:0:0:
448,192,34868,1,0,0:0:0:0:
192,192,34948,1,0,0:0:0:0:
448,192,35027,1,0,0:0:0:0:
192,192,35106,1,0,0:0:0:0:
320,192,35186,1,2,0:0:0:0:
448,192,35186,1,0,0:0:0:0:
192,192,35344,1,0,0:0:0:0:
320,192,35503,1,2,0:0:0:0:
448,192,35503,1,0,0:0:0:0:
192,192,35662,1,0,0:0:0:0:
64,192,35821,1,2,0:0:0:0:
448,192,35821,1,0,0:0:0:0:
320,192,35979,1,8,0:0:0:0:
192,192,35979,1,0,0:0:0:0:
448,192,35979,1,0,0:0:0:0:
64,192,36138,1,2,0:0:0:0:
320,192,36138,128,0,36456:0:0:0:0:
448,192,36217,1,0,0:0:0:0:
64,192,36297,1,0,0:0:0:0:
448,192,36376,1,0,0:0:0:0:
64,192,36456,1,2,0:0:0:0:
192,192,36456,1,0,0:0:0:0:
448,192,36535,1,0,0:0:0:0:
64,192,36614,128,0,36773:0:0:0:0:
192,192,36773,1,2,0:0:0:0:
320,192,36773,1,0,0:0:0:0:
448,192,36932,128,0,37408:0:0:0:0:
64,192,37090,1,2,0:0:0:0:
192,192,37090,1,0,0:0:0:0:
64,192,37249,1,8,0:0:0:0:
192,192,37249,1,0,0:0:0:0:
320,192,37249,1,0,0:0:0:0:
64,192,37408,128,2,38043:0:0:0:0:
320,192,37408,1,0,0:0:0:0:
192,192,37487,1,0,0:0:0:0:
320,192,37567,1,8,0:0:0:0:
448,192,37567,1,0,0:0:0:0:
192,192,37646,1,0,0:0:0:0:
320,192,37725,1,2,0:0:0:0:
448,192,37725,1,0,0:0:0:0:
192,192,37805,1,0,0:0:0:0:
448,192,37884,128,0,38043:0:0:0:0:
192,192,38043,1,2,0:0:0:0:
320,192,38043,1,0,0:0:0:0:
64,192,38122,1,0,0:0:0:0:
192,192,38202,1,0,0:0:0:40:Tom2.wav
448,192,38202,1,0,0:0:0:0:
320,192,38281,1,0,0:0:0:0:
64,192,38360,1,2,0:0:0:0:
192,192,38360,1,0,0:0:0:0:
320,192,38440,1,0,0:0:0:0:
64,192,38519,1,0,0:0:0:40:Tom3.wav
448,192,38519,1,0,0:0:0:0:
192,192,38598,1,0,0:0:0:40:Tom3.wav
320,192,38598,1,0,0:0:0:0:
64,192,38678,1,2,0:0:0:0:
448,192,38678,128,4,39313:0:0:0:0:
320,192,38757,1,0,0:0:0:0:
192,192,38836,1,0,0:0:0:0:
64,192,38916,1,0,0:0:0:0:
192,192,38995,1,2,0:0:0:0:
320,192,38995,1,0,0:0:0:0:
64,192,39075,1,0,0:0:0:0:
320,192,39154,1,0,0:0:0:0:
192,192,39233,1,0,0:0:0:0:
64,192,39313,1,2,0:0:0:0:
320,192,39313,1,0,0:0:0:0:
192,192,39471,1,0,0:0:0:0:
64,192,39630,128,2,39948:0:0:0:0:
448,192,39630,1,0,0:0:0:0:
320,192,39789,1,0,0:0:0:0:
192,192,39868,1,0,0:0:0:0:
320,192,39948,128,2,40265:0:0:0:0:
448,192,39948,1,0,0:0:0:0:
192,192,40106,1,0,0:0:0:0:
64,192,40265,1,2,0:0:0:0:
448,192,40265,1,0,0:0:0:0:
192,192,40424,1,8,0:0:0:0:
320,192,40424,1,0,0:0:0:0:
448,192,40424,128,0,40583:0:0:0:0:
64,192,40583,1,2,0:0:0:0:
192,192,40583,1,0,0:0:0:0:
64,192,40741,128,0,41217:0:0:0:40:Tom2.wav
448,192,40741,1,0,0:0:0:0:
192,192,40900,1,2,0:0:0:0:
320,192,40900,1,0,0:0:0:0:
320,192,41059,1,0,0:0:0:40:Tom3.wav
448,192,41059,1,0,0:0:0:0:
192,192,41217,1,2,0:0:0:0:
320,192,41217,1,4,0:0:0:0:
448,192,41217,1,0,0:0:0:0:
64,192,41376,1,0,0:0:0:0:
192,192,41535,1,2,0:0:0:0:
320,192,41535,1,0,0:0:0:0:
448,192,41694,128,0,41773:0:0:0:70:B6S.ogg
64,192,41852,1,2,0:0:0:0:
320,192,41852,128,0,41932:0:0:0:70:A#6S_Bb6S.ogg
192,192,42011,128,0,42090:0:0:0:70:F#6S_Gb6S.ogg
448,192,42090,1,0,0:0:0:0:
64,192,42170,128,2,42249:0:0:0:0:
192,192,42170,1,0,0:0:0:70:C#6S_Db6S.ogg
448,192,42329,128,0,42408:0:0:0:70:A#5S_Bb5S.ogg
64,192,42408,1,0,0:0:0:0:
192,192,42487,1,2,0:0:0:0:
320,192,42487,1,4,0:0:0:0:
448,192,42487,128,0,42963:0:0:0:70:B5S.ogg
64,192,42646,1,8,0:0:0:0:
192,192,42646,1,0,0:0:0:0:
320,192,42646,128,0,42963:0:0:0:0:
64,192,42805,1,8,0:0:0:0:
192,192,42805,128,0,42963:0:0:0:0:
64,192,42963,128,0,43122:0:0:0:40:Tom2.wav
320,192,43122,1,0,0:0:0:70:A#5S_Bb5S.ogg
448,192,43122,128,0,43281:0:0:0:40:Tom3.wav
64,192,43281,1,0,0:0:0:40:Tom3.wav
192,192,43281,128,0,43440:0:0:0:0:
320,192,43440,128,0,43757:0:0:0:40:Tom4.wav
448,192,43440,1,0,0:0:0:0:
64,192,43598,1,0,0:0:0:40:Tom4.wav
192,192,43598,1,0,0:0:0:0:
64,192,43757,1,4,0:0:0:0:
192,192,43757,1,2,0:0:0:0:
448,192,43757,1,0,0:0:0:70:C#6S_Db6S.ogg
64,192,44075,1,8,0:0:0:0:
320,192,44075,1,0,0:0:0:0:
448,192,44075,1,0,0:0:0:0:
64,192,44233,1,2,0:0:0:0:
192,192,44233,1,0,0:0:0:0:
64,192,44392,128,2,44551:0:0:0:0:
192,192,44392,128,0,44551:0:0:0:70:G#6S_Ab6S.ogg
320,192,44551,1,0,0:0:0:70:F6S.ogg
64,192,44709,1,8,0:0:0:0:
192,192,44709,1,0,0:0:0:70:C#6S_Db6S.ogg
448,192,44709,1,0,0:0:0:0:
320,192,44868,128,2,45027:0:0:0:0:
448,192,44868,128,0,45027:0:0:0:0:
192,192,45027,1,0,0:0:0:0:
320,192,45186,128,2,45344:0:0:0:0:
448,192,45186,128,0,45344:0:0:0:0:
64,192,45344,1,8,0:0:0:0:
192,192,45344,1,0,0:0:0:0:
192,192,45503,1,2,0:0:0:0:
448,192,45503,1,0,0:0:0:0:
192,192,45662,128,2,45821:0:0:0:0:
448,192,45662,128,0,45821:0:0:0:0:
320,192,45821,1,0,0:0:0:70:F#6S_Gb6S.ogg
64,192,45979,1,8,0:0:0:0:
192,192,45979,1,0,0:0:0:70:C#6S_Db6S.ogg
448,192,45979,1,0,0:0:0:0:
320,192,46138,1,0,0:0:0:0:
64,192,46297,128,2,46614:0:0:0:0:
448,192,46297,1,0,0:0:0:0:
320,192,46535,128,0,46773:0:0:0:0:
192,192,46614,1,8,0:0:0:0:
448,192,46614,1,0,0:0:0:0:
64,192,46773,1,2,0:0:0:0:
192,192,46773,128,0,47170:0:0:0:0:
320,192,46932,128,2,47170:0:0:0:0:
448,192,46932,128,0,47170:0:0:0:0:
64,192,47249,1,8,0:0:0:0:
192,192,47249,1,0,0:0:0:0:
448,192,47249,1,0,0:0:0:0:
64,192,47408,128,2,47567:0:0:0:0:
320,192,47408,128,0,47567:0:0:0:0:
448,192,47408,128,0,47567:0:0:0:0:
192,192,47567,1,0,0:0:0:0:
64,192,47725,1,2,0:0:0:0:
448,192,47725,128,0,47805:0:0:0:70:B6S.ogg
64,192,47884,1,8,0:0:0:0:
320,192,47884,128,0,47963:0:0:0:70:A#6S_Bb6S.ogg
448,192,47884,1,0,0:0:0:0:
192,192,48043,128,0,48122:0:0:0:70:F#6S_Gb6S.ogg
64,192,48202,1,2,0:0:0:0:
448,192,48202,1,0,0:0:0:0:
192,192,48360,1,2,0:0:0:0:
320,192,48360,128,0,48440:0:0:0:70:C#6S_Db6S.ogg
64,192,48519,1,8,0:0:0:0:
192,192,48519,1,0,0:0:0:70:F#6S_Gb6S.ogg
448,192,48519,128,0,48598:0:0:0:0:
320,192,48678,1,8,0:0:0:0:
448,192,48678,1,0,0:0:0:0:
192,192,48757,1,8,0:0:0:0:
64,192,48836,128,2,49154:0:0:0:0:
320,192,48836,1,4,0:0:0:0:
448,192,48836,1,0,0:0:0:0:
192,192,49154,1,8,0:0:0:0:
320,192,49154,1,0,0:0:0:0:
448,192,49154,128,0,49313:0:0:0:0:
64,192,49313,1,2,0:0:0:0:
192,192,49313,128,0,49630:0:0:0:0:
320,192,49471,128,2,49630:0:0:0:0:
448,192,49471,128,0,49630:0:0:0:0:
64,192,49630,1,0,0:0:0:0:
64,192,49789,1,8,0:0:0:0:
192,192,49789,1,0,0:0:0:0:
448,192,49789,1,0,0:0:0:0:
320,192,49948,128,2,50106:0:0:0:0:
448,192,49948,128,0,50106:0:0:0:0:
192,192,50106,1,0,0:0:0:0:
64,192,50265,128,2,50424:0:0:0:0:
320,192,50265,128,0,50424:0:0:0:0:
192,192,50424,1,8,0:0:0:0:
448,192,50424,1,0,0:0:0:0:
64,192,50583,1,2,0:0:0:0:
320,192,50583,1,0,0:0:0:0:
192,192,50662,1,0,0:0:0:0:
320,192,50741,1,2,0:0:0:0:
448,192,50741,128,0,51059:0:0:0:0:
192,192,50900,1,0,0:0:0:0:
64,192,51059,128,8,51376:0:0:0:0:
192,192,51059,1,0,0:0:0:0:
320,192,51059,1,0,0:0:0:0:
448,192,51217,1,0,0:0:0:0:
192,192,51376,1,2,0:0:0:0:
320,192,51376,1,4,0:0:0:0:
448,192,51376,128,0,51694:0:0:0:0:
64,192,51535,1,0,0:0:0:0:
192,192,51694,1,2,0:0:0:0:
320,192,51694,1,0,0:0:0:0:
64,192,51852,1,2,0:3:0:0:
448,192,51852,1,0,0:0:0:0:
192,192,51932,1,2,0:3:0:0:
320,192,52011,1,2,0:0:0:0:
448,192,52011,1,0,0:0:0:0:
64,192,52090,1,0,0:0:0:0:
192,192,52090,1,2,0:3:0:0:
320,192,52170,1,2,0:3:0:0:
448,192,52170,1,0,0:0:0:0:
64,192,52249,1,2,0:3:0:0:
192,192,52249,1,0,0:0:0:0:
320,192,52329,1,2,0:0:0:0:
448,192,52329,1,0,0:0:0:0:
64,192,52408,1,2,0:3:0:0:
192,192,52408,1,0,0:0:0:0:
320,192,52487,1,2,0:3:0:0:
448,192,52487,1,0,0:0:0:0:
192,192,52567,1,2,0:3:0:0:
64,192,52646,1,2,0:0:0:0:
448,192,52646,1,0,0:0:0:0:
320,192,52725,1,0,0:0:0:0:
192,192,52725,1,2,0:3:0:0:
64,192,52805,1,2,0:3:0:0:
448,192,52805,1,0,0:0:0:0:
192,192,52884,1,2,0:3:0:0:
320,192,52884,1,0,0:0:0:0:
64,192,52963,1,2,0:0:0:0:
448,192,52963,1,0,0:0:0:0:
192,192,53043,1,2,0:3:0:0:
320,192,53043,1,0,0:0:0:0:
64,192,53122,1,2,0:3:0:0:
448,192,53122,1,0,0:0:0:0:
320,192,53202,1,2,0:3:0:0:
64,192,53281,1,2,0:0:0:0:
192,192,53281,1,0,0:0:0:0:
448,192,53360,1,0,0:0:0:0:
320,192,53360,1,2,0:3:0:0:
64,192,53440,1,2,0:3:0:0:
192,192,53440,1,0,0:0:0:0:
320,192,53519,1,2,0:3:0:0:
448,192,53519,1,0,0:0:0:0:
64,192,53598,1,2,0:0:0:0:
192,192,53598,1,0,0:0:0:0:
320,192,53678,1,2,0:3:0:0:
448,192,53678,1,0,0:0:0:0:
64,192,53757,1,2,0:3:0:0:
192,192,53757,1,0,0:0:0:0:
320,192,53836,1,2,0:3:0:0:
64,192,53916,128,2,55186:0:0:0:0:
192,192,53916,128,4,54233:0:0:0:0:
448,192,53916,128,0,54233:0:0:0:0:
192,192,54551,128,0,55027:0:0:0:0:
320,192,54551,128,0,55027:0:0:0:0:
192,192,55186,128,0,55821:0:0:0:0:
320,192,55186,128,0,55662:0:0:0:0:
448,192,55186,128,0,55662:0:0:0:0:
64,192,55821,128,0,56350:0:0:0:0:
320,192,55821,128,0,55926:0:0:0:0:
448,192,55821,128,0,56032:0:0:0:0:
192,192,55926,128,0,56244:0:0:0:0:
320,192,56032,128,0,56138:0:0:0:0:
448,192,56138,128,0,56350:0:0:0:0:
320,192,56244,128,0,56350:0:0:0:0:
192,192,56350,128,0,56456:0:0:0:0:
64,192,56456,128,4,57725:0:0:0:0:
320,192,56456,1,2,0:0:0:0:
448,192,56456,1,0,0:0:0:0:
192,192,56773,1,8,0:0:0:0:
320,192,56773,128,0,56932:0:0:0:0:
448,192,56773,128,0,57090:0:0:0:0:
192,192,56932,1,0,0:0:0:0:
192,192,57090,128,2,57170:0:0:0:0:
320,192,57090,1,0,0:0:0:0:
320,192,57249,1,2,0:0:0:0:
448,192,57249,128,0,57329:0:0:0:0:
192,192,57408,1,8,0:0:0:0:
320,192,57408,128,0,57487:0:0:0:0:
448,192,57408,1,0,0:0:0:0:
192,192,57567,128,0,57646:0:0:0:0:
320,192,57725,128,2,58995:0:0:0:0:
448,192,57725,1,0,0:0:0:0:
64,192,57884,128,0,57963:0:0:0:0:
64,192,58043,1,8,0:0:0:0:
192,192,58043,1,0,0:0:0:0:
448,192,58043,1,0,0:0:0:0:
192,192,58202,1,0,0:0:0:0:
64,192,58360,1,2,0:0:0:0:
448,192,58360,1,0,0:0:0:0:
192,192,58519,1,2,0:0:0:0:
448,192,58519,1,0,0:0:0:0:
64,192,58678,1,8,0:0:0:0:
192,192,58678,1,0,0:0:0:0:
448,192,58678,128,0,58757:0:0:0:0:
64,192,58836,128,0,58916:0:0:0:0:
192,192,58995,128,2,59948:0:0:0:0:
448,192,58995,1,0,0:0:0:0:
320,192,59313,128,8,59471:0:0:0:0:
448,192,59313,128,0,59630:0:0:0:0:
64,192,59313,1,0,0:0:0:0:
64,192,59471,1,0,0:0:0:0:
64,192,59630,128,2,59709:0:0:0:0:
320,192,59630,1,0,0:0:0:0:
320,192,59789,1,2,0:0:0:0:
448,192,59789,128,0,59868:0:0:0:0:
64,192,59948,1,8,0:0:0:0:
320,192,59948,128,0,60027:0:0:0:0:
448,192,59948,128,0,60106:0:0:0:0:
64,192,60106,128,0,60265:0:0:0:0:
192,192,60106,128,0,60186:0:0:0:0:
192,192,60265,1,2,0:0:0:0:
320,192,60265,1,0,0:0:0:0:
64,192,60424,128,0,60583:0:0:0:0:
448,192,60424,128,0,61217:0:0:0:0:
192,192,60583,1,8,0:0:0:0:
320,192,60583,1,0,0:0:0:0:
320,192,60741,1,0,0:0:0:0:
64,192,60900,1,2,0:0:0:0:
192,192,60900,1,0,0:0:0:0:
192,192,61059,1,2,0:0:0:0:
320,192,61059,1,0,0:0:0:0:
64,192,61217,1,8,0:0:0:0:
192,192,61217,1,0,0:0:0:0:
320,192,61217,128,0,61376:0:0:0:0:
64,192,61376,128,8,61456:0:0:0:0:
448,192,61376,1,0,0:0:0:0:
192,192,61456,1,8,0:0:0:0:
64,192,61535,1,2,0:0:0:0:
320,192,61535,1,4,0:0:0:0:
448,192,61535,128,0,61852:0:0:0:0:
64,192,61852,1,8,0:0:0:0:
192,192,61852,1,0,0:0:0:0:
320,192,61852,1,0,0:0:0:0:
448,192,62011,1,0,0:0:0:0:
64,192,62170,128,2,62487:0:0:0:0:
192,192,62170,128,0,62329:0:0:0:0:
320,192,62329,1,2,0:0:0:0:
448,192,62329,1,0,0:0:0:0:
192,192,62487,1,8,0:0:0:0:
320,192,62487,128,0,62646:0:0:0:0:
448,192,62487,128,0,62805:0:0:0:0:
64,192,62646,128,0,62805:0:0:0:0:
192,192,62805,128,2,63122:0:0:0:0:
320,192,62805,128,0,62963:0:0:0:0:
64,192,62963,1,0,0:0:0:0:
320,192,63122,1,0,0:0:0:0:
64,192,63122,1,8,0:0:0:0:
448,192,63122,1,0,0:0:0:0:
192,192,63281,128,0,63440:0:0:0:0:
320,192,63360,128,0,63440:0:0:0:0:
64,192,63440,128,2,63598:0:0:0:0:
448,192,63440,128,0,63757:0:0:0:0:
192,192,63598,1,2,0:0:0:0:
320,192,63598,1,0,0:0:0:0:
64,192,63757,128,8,64075:0:0:0:0:
192,192,63757,1,0,0:0:0:0:
320,192,63757,128,0,63916:0:0:0:0:
448,192,63916,1,0,0:0:0:0:
192,192,64075,1,2,0:0:0:0:
320,192,64075,1,4,0:0:0:0:
448,192,64075,1,0,0:0:0:0:
192,192,64233,1,0,0:0:0:0:
64,192,64392,1,8,0:0:0:0:
320,192,64392,1,0,0:0:0:0:
448,192,64392,1,0,0:0:0:0:
64,192,64551,128,2,64709:0:0:0:0:
192,192,64551,128,4,64709:0:0:0:0:
448,192,64551,128,0,64868:0:0:0:0:
192,192,64868,1,2,0:0:0:0:
320,192,64868,1,0,0:0:0:0:
64,192,65027,1,8,0:0:0:0:
192,192,65027,1,0,0:0:0:0:
448,192,65027,1,0,0:0:0:0:
64,192,65186,128,2,65503:0:0:0:0:
320,192,65186,128,0,65344:0:0:0:0:
448,192,65186,128,4,65344:0:0:0:0:
192,192,65503,1,2,0:0:0:0:
320,192,65503,1,0,0:0:0:0:
64,192,65662,1,8,0:0:0:0:
320,192,65662,1,0,0:0:0:0:
448,192,65662,1,0,0:0:0:0:
192,192,65821,1,2,0:0:0:0:
448,192,65821,1,0,0:0:0:0:
64,192,65979,128,0,66059:0:0:0:40:Tom2.wav
192,192,65979,128,0,66059:0:0:0:0:
320,192,65979,128,0,66138:0:0:0:0:
448,192,66059,128,0,66217:0:0:0:0:
64,192,66138,128,2,66217:0:0:0:0:
192,192,66138,128,0,66297:0:0:0:0:
320,192,66217,128,0,66376:0:0:0:0:
64,192,66297,128,8,66535:0:0:0:0:
448,192,66297,128,0,66456:0:0:0:40:Tom3.wav
192,192,66376,128,0,66535:0:0:0:0:
320,192,66456,128,0,66614:0:0:0:0:
448,192,66535,128,0,66614:0:0:0:0:
64,192,66614,1,2,0:0:0:0:
192,192,66614,1,0,0:0:0:0:
320,192,66773,1,2,0:0:0:0:
448,192,66773,1,0,0:0:0:0:
64,192,66932,1,8,0:0:0:0:
192,192,66932,1,4,0:0:0:0:
320,192,66932,1,0,0:0:0:0:
448,192,66932,128,0,67249:0:0:0:0:
64,192,67249,128,2,67329:0:0:0:0:
192,192,67249,1,0,0:0:0:0:
320,192,67249,1,0,0:0:0:0:
192,192,67408,128,2,67487:0:0:0:0:
448,192,67408,1,0,0:0:0:0:
64,192,67567,1,8,0:0:0:0:
320,192,67567,128,0,67646:0:0:0:0:
448,192,67567,128,0,67725:0:0:0:0:
64,192,67725,128,0,67884:0:0:0:0:
192,192,67725,128,0,67805:0:0:0:0:
320,192,67884,128,2,68202:0:0:0:0:
448,192,67884,1,0,0:0:0:0:
192,192,68043,128,0,68122:0:0:0:0:
64,192,68202,1,8,0:0:0:0:
192,192,68202,1,0,0:0:0:0:
448,192,68202,1,0,0:0:0:0:
320,192,68360,1,0,0:0:0:0:
448,192,68360,128,0,69471:0:0:0:0:
192,192,68519,1,2,0:0:0:0:
64,192,68519,1,0,0:0:0:0:
192,192,68678,1,2,0:0:0:0:
320,192,68678,1,0,0:0:0:0:
64,192,68836,128,8,68916:0:0:0:0:
192,192,68836,1,0,0:0:0:0:
320,192,68836,1,0,0:0:0:0:
320,192,68995,128,0,69075:0:0:0:0:
64,192,69154,1,2,0:0:0:0:
192,192,69154,1,0,0:0:0:0:
320,192,69313,1,0,0:0:0:0:
64,192,69471,128,8,70106:0:0:0:0:
192,192,69471,128,0,69789:0:0:0:0:
320,192,69471,1,0,0:0:0:0:
448,192,69630,1,0,0:0:0:0:
320,192,69789,1,2,0:0:0:0:
448,192,69789,128,0,69868:0:0:0:0:
192,192,69948,128,2,70027:0:0:0:0:
320,192,69948,1,0,0:0:0:0:
192,192,70106,1,8,0:0:0:0:
320,192,70106,128,0,70265:0:0:0:0:
448,192,70106,128,0,70186:0:0:0:0:
64,192,70265,128,0,70344:0:0:0:0:
192,192,70265,128,0,70424:0:0:0:0:
320,192,70424,1,2,0:0:0:0:
448,192,70424,1,0,0:0:0:0:
64,192,70583,128,0,71376:0:0:0:0:
192,192,70741,1,8,0:0:0:0:
320,192,70741,1,0,0:0:0:0:
448,192,70741,1,0,0:0:0:0:
192,192,70900,1,0,0:0:0:0:
448,192,70979,1,8,0:0:0:0:
192,192,71059,1,8,0:0:0:0:
320,192,71059,1,0,0:0:0:0:
320,192,71217,1,2,0:0:0:0:
448,192,71217,1,0,0:0:0:0:
192,192,71376,1,8,0:0:0:0:
320,192,71376,1,0,0:0:0:0:
448,192,71376,128,0,71456:0:0:0:0:
64,192,71535,128,8,71614:0:0:0:0:
192,192,71535,1,0,0:0:0:0:
320,192,71535,1,0,0:0:0:0:
192,192,71694,1,4,0:0:0:0:
320,192,71694,1,2,0:0:0:0:
448,192,71694,128,0,72329:0:0:0:0:
64,192,72011,1,8,0:0:0:0:
192,192,72011,1,0,0:0:0:0:
320,192,72011,1,0,0:0:0:0:
320,192,72170,1,0,0:0:0:0:
64,192,72329,128,2,72963:0:0:0:0:
192,192,72329,128,0,72408:0:0:0:0:
320,192,72487,1,2,0:0:0:0:
448,192,72487,1,0,0:0:0:0:
192,192,72646,1,8,0:0:0:0:
320,192,72646,1,0,0:0:0:0:
448,192,72646,128,0,72725:0:0:0:0:
192,192,72805,1,0,0:0:0:0:
320,192,72963,128,2,73043:0:0:0:0:
448,192,72963,128,0,73598:0:0:0:0:
64,192,73281,1,8,0:0:0:0:
192,192,73281,1,0,0:0:0:0:
320,192,73281,1,0,0:0:0:0:
320,192,73440,1,0,0:0:0:0:
64,192,73598,128,2,73678:0:0:0:0:
192,192,73598,128,0,74233:0:0:0:0:
320,192,73757,1,2,0:0:0:0:
448,192,73757,1,0,0:0:0:0:
64,192,73916,1,8,0:0:0:0:
320,192,73916,128,0,73995:0:0:0:0:
448,192,73916,1,0,0:0:0:0:
64,192,74075,1,0,0:0:0:0:
64,192,74233,128,4,74551:0:0:0:0:
320,192,74233,128,2,74392:0:0:0:0:
448,192,74233,128,0,74551:0:0:0:0:
192,192,74551,1,8,0:0:0:0:
320,192,74551,1,0,0:0:0:0:
64,192,74709,128,8,74974:0:0:0:0:
192,192,74709,128,4,74868:0:0:0:0:
448,192,74709,128,0,74974:0:0:0:0:
320,192,74974,1,0,0:0:0:40:Tom1.wav
192,192,75027,1,0,0:0:0:0:
64,192,75080,1,0,0:0:0:40:Tom2.wav
448,192,75080,1,0,0:0:0:0:
192,192,75186,1,0,0:0:0:40:Tom3.wav
320,192,75186,1,0,0:0:0:0:
448,192,75291,1,0,0:0:0:40:Tom3.wav
320,192,75291,1,0,0:0:0:0:
192,192,75397,1,0,0:0:0:40:Tom4.wav
64,192,75397,1,0,0:0:0:0:
64,192,75503,128,4,75821:0:0:0:0:
320,192,75503,1,2,0:0:0:0:
448,192,75503,128,0,76138:0:0:0:0:
64,192,75979,1,8,0:0:0:0:
192,192,75979,1,0,0:0:0:0:
320,192,76059,1,8,0:0:0:0:
64,192,76138,128,8,76588:0:0:0:0:
192,192,76138,1,0,0:0:0:0:
320,192,76297,1,0,0:0:0:40:Tom2.wav
448,192,76297,1,0,0:0:0:0:
192,192,76456,1,0,0:0:0:40:Tom3.wav
320,192,76456,128,0,76588:0:0:0:0:
192,192,76588,1,0,0:0:0:40:Tom4.wav
448,192,76588,1,0,0:0:0:0:
64,192,76773,128,4,76852:0:0:0:0:
320,192,76773,1,2,0:0:0:0:
448,192,76773,128,0,77011:0:0:0:0:
192,192,76932,128,0,77011:0:0:0:0:
320,192,77011,128,0,77090:0:0:0:0:
64,192,77090,128,2,77329:3:0:0:0:
448,192,77090,128,0,77170:0:0:0:0:
192,192,77170,128,2,77249:3:0:0:0:
448,192,77249,128,2,77329:3:0:0:0:
320,192,77329,128,2,77408:3:0:0:0:
64,192,77408,128,2,77487:3:0:0:0:
192,192,77408,128,0,77646:0:0:0:0:
320,192,77487,128,2,77567:3:0:0:0:
64,192,77567,128,2,77646:3:0:0:0:
448,192,77646,128,2,77725:3:0:0:0:
192,192,77725,128,2,77805:3:0:0:0:
320,192,77725,128,0,77963:0:0:0:0:
448,192,77805,128,2,77884:3:0:0:0:
192,192,77884,128,2,77963:3:0:0:0:
64,192,77963,128,2,78043:3:0:0:0:
320,192,78043,128,2,78122:0:0:0:0:
448,192,78043,128,0,78281:0:0:0:0:
64,192,78122,128,2,78202:3:0:0:0:
320,192,78202,128,2,78281:3:0:0:0:
192,192,78281,128,2,78360:3:0:0:0:
64,192,78360,128,2,78598:0:0:0:0:
448,192,78360,128,0,78440:0:0:0:0:
192,192,78440,128,2,78519:3:0:0:0:
448,192,78519,128,2,78598:3:0:0:0:
320,192,78598,128,2,78678:3:0:0:0:
64,192,78678,128,2,78757:0:0:0:0:
192,192,78678,128,0,78916:0:0:0:0:
320,192,78757,128,2,78836:3:0:0:0:
64,192,78836,128,2,78916:3:0:0:0:
448,192,78916,128,2,78995:3:0:0:0:
192,192,78995,128,2,79075:0:0:0:0:
320,192,78995,128,0,79233:0:0:0:0:
448,192,79075,128,2,79154:3:0:0:0:
192,192,79154,128,2,79233:3:0:0:0:
64,192,79233,128,2,79313:3:0:0:0:
192,192,79313,128,4,79630:0:0:0:0:
320,192,79313,128,2,79551:0:0:0:0:
448,192,79313,128,0,79551:0:0:0:0:
320,192,79630,1,8,0:0:0:0:
448,192,79630,1,0,0:0:0:0:
64,192,79789,128,2,80027:0:0:0:0:
192,192,79789,128,4,80027:0:0:0:0:
320,192,79789,128,0,80106:0:0:0:0:
64,192,80106,1,2,0:0:0:0:
192,192,80106,1,0,0:0:0:0:
320,192,80265,1,8,0:0:0:0:
448,192,80265,1,0,0:0:0:0:
192,192,80371,1,8,0:0:0:0:
320,192,80371,1,0,0:0:0:0:
64,192,80477,1,8,0:0:0:0:
192,192,80477,1,0,0:0:0:0:
64,192,80583,1,0,0:0:0:40:Tom2.wav
320,192,80583,1,0,0:0:0:0:
448,192,80583,1,2,0:0:0:0:
192,192,80688,1,0,0:0:0:40:Tom2.wav
448,192,80688,1,0,0:0:0:0:
64,192,80794,1,0,0:0:0:40:Tom3.wav
320,192,80794,1,0,0:0:0:0:
64,192,80900,1,0,0:0:0:40:Tom3.wav
192,192,80900,1,0,0:0:0:0:
192,192,81059,128,2,81694:0:0:0:0:
320,192,81059,128,0,81694:0:0:0:0:
448,192,81059,128,0,81852:0:0:0:0:
64,192,81852,128,0,83598:0:0:0:0:
192,192,81852,128,0,82963:0:0:0:0:
320,192,81852,128,0,82963:0:0:0:0:
192,192,83122,1,0,0:0:0:0:
448,192,83122,128,0,83440:0:0:0:0:
320,192,83440,1,0,0:0:0:0:
192,192,83598,1,0,0:0:0:0:
64,192,83757,1,0,0:0:0:0:
448,192,83757,128,0,84075:0:0:0:0:
192,192,84075,1,0,0:0:0:0:
320,192,84392,128,0,84709:0:0:0:0:
448,192,84392,1,0,0:0:0:0:
64,192,84709,1,0,0:0:0:0:
192,192,84868,128,0,85503:0:0:0:0:
448,192,85027,128,0,85344:0:0:0:0:
64,192,85344,1,0,0:0:0:0:
64,192,85583,1,0,0:0:0:0:
192,192,85622,1,0,0:0:0:0:
320,192,85662,128,0,85979:0:0:0:0:
448,192,85662,128,0,86614:0:0:0:0:
64,192,86138,128,0,86872:0:0:0:0:
192,192,86872,1,0,0:0:0:0:
320,192,86912,1,0,0:0:0:0:
448,192,86952,128,0,88202:0:0:0:0:
64,192,86991,1,0,0:0:0:0:
192,192,87031,1,0,0:0:0:0:
320,192,87071,128,0,88202:0:0:0:0:
