osu file format v14

[General]
AudioFilename: audio.mp3
AudioLeadIn: 0
PreviewTime: 56456
Countdown: 0
SampleSet: Soft
StackLeniency: 0.7
Mode: 3
LetterboxInBreaks: 0
SpecialStyle: 0
WidescreenStoryboard: 0

[Editor]
DistanceSpacing: 1.4
BeatDivisor: 6
GridSize: 16
TimelineZoom: 1.8

[Metadata]
Title:Gomakashi (TV Size)
TitleUnicode:ごまかし (TV Size)
Artist:TrySail
ArtistUnicode:TrySail
Creator:Amiichii
Version:Hard
Source:マギアレコード 魔法少女まどか☆マギカ外伝
Tags:MagiReco マギレコ Magia Record Mahou Shoujo Madoka Magica Gaiden anime op opening japanese j-pop jpop VVCL-1633 アニプレックス Aniplex Puella Magi Side Story 麻倉もも Asakura Momo 雨宮天 Amamiya Sora 夏川椎菜 Natsukawa Shiina Syadow- _Asha
BeatmapID:2295016
BeatmapSetID:1098415

[Difficulty]
HPDrainRate:8
CircleSize:4
OverallDifficulty:7.5
ApproachRate:9.5
SliderMultiplier:2
SliderTickRate:2

[Events]
//Background and Video events
Video,115,"gomakashi.mp4"
0,0,"bg hard.jpg",0,0
//Break Periods
//Storyboard Layer 0 (Background)
//Storyboard Layer 1 (Fail)
//Storyboard Layer 2 (Pass)
//Storyboard Layer 3 (Foreground)
//Storyboard Layer 4 (Overlay)
//Storyboard Sound Samples

[TimingPoints]
583,317.460317460318,4,3,1,40,1,0
13281,-100,4,2,1,40,0,0
56456,-100,4,2,1,40,0,1
66614,-100,4,2,1,40,0,0
66932,-100,4,2,1,40,0,1
75503,-100,4,2,1,40,0,0
81852,-100,4,2,1,25,0,0

[HitObjects]
192,192,265,128,0,583:0:0:0:0:
64,192,583,1,2,0:0:0:0:
448,192,583,128,0,1217:0:0:0:0:
64,192,1217,128,8,1535:0:0:0:0:
320,192,1535,1,0,0:0:0:0:
192,192,1852,1,0,0:0:0:0:
448,192,1852,128,0,2487:0:0:0:0:
320,192,2170,1,8,0:0:0:0:
192,192,2487,128,8,2805:0:0:0:0:
64,192,2805,1,8,0:0:0:0:
320,192,3122,128,2,3440:0:0:0:0:
448,192,3122,1,0,0:0:0:0:
64,192,3598,1,2,0:0:0:0:
192,192,3598,128,0,3916:0:0:0:0:
448,192,3757,1,8,0:0:0:0:
192,192,4075,128,2,4392:0:0:0:0:
320,192,4233,1,8,0:0:0:0:
64,192,4392,1,0,0:0:0:0:
448,192,4392,128,0,5027:0:0:0:0:
192,192,4709,128,0,5027:0:0:0:0:
64,192,5027,128,0,5344:0:0:0:0:
320,192,5344,1,0,0:0:0:0:
64,192,5662,1,2,0:0:0:0:
448,192,5662,128,0,6297:0:0:0:0:
192,192,6138,128,8,6297:0:0:0:0:
64,192,6297,128,8,6614:0:0:0:0:
320,192,6614,1,0,0:0:0:0:
448,192,6932,128,0,7567:0:0:0:0:
192,192,7249,1,8,0:0:0:0:
64,192,7567,128,0,7884:0:0:0:0:
192,192,7884,1,8,0:0:0:0:
320,192,8202,128,2,8519:0:0:0:0:
448,192,8202,1,0,0:0:0:0:
64,192,8678,1,2,0:0:0:0:
320,192,8678,128,0,8995:0:0:0:0:
192,192,8836,1,8,0:0:0:0:
192,192,9154,128,2,9471:0:0:0:0:
64,192,9313,1,8,0:0:0:0:
320,192,9471,128,0,9789:0:0:0:0:
448,192,9471,128,0,9789:0:0:0:0:
64,192,9789,128,8,9948:0:0:0:0:
192,192,9948,128,0,10106:0:0:0:0:
320,192,10106,128,0,10265:0:0:0:0:
192,192,10265,128,0,10424:0:0:0:0:
320,192,10424,128,0,10583:0:0:0:0:
448,192,10583,128,8,10741:0:0:0:0:
64,192,10741,128,0,10900:0:0:0:0:
192,192,10741,128,0,10900:0:0:0:0:
320,192,10900,128,0,11059:0:0:0:0:
448,192,11059,128,8,11217:0:0:0:0:
64,192,11217,128,0,11376:0:0:0:0:
192,192,11376,128,0,11535:0:0:0:0:
320,192,11535,128,0,11694:0:0:0:0:
448,192,11694,128,0,11852:0:0:0:0:
64,192,11852,128,8,12011:0:0:0:0:
192,192,12011,128,0,12170:0:0:0:0:
320,192,12170,128,0,12329:0:0:0:0:
448,192,12329,128,0,12487:0:0:0:0:
64,192,12487,128,0,12646:0:0:0:0:
192,192,12646,128,0,12805:0:0:0:0:
320,192,12805,128,0,12963:0:0:0:0:
64,192,12963,1,0,0:0:0:0:
192,192,13281,1,2,0:0:0:0:
320,192,13281,1,4,0:0:0:0:
448,192,13281,128,0,13598:0:0:0:0:
64,192,13598,1,8,0:0:0:0:
192,192,13598,1,0,0:0:0:0:
320,192,13757,1,0,0:0:0:0:
64,192,13916,1,2,0:0:0:0:
192,192,13916,1,0,0:0:0:0:
320,192,14075,1,2,0:0:0:0:
448,192,14075,1,0,0:0:0:0:
64,192,14233,1,8,0:0:0:0:
448,192,14233,1,0,0:0:0:0:
320,192,14392,128,0,14868:0:0:0:0:
64,192,14551,1,2,0:0:0:0:
192,192,14551,1,0,0:0:0:0:
64,192,14868,1,8,0:0:0:0:
448,192,14868,1,0,0:0:0:0:
192,192,15027,1,2,0:0:0:0:
448,192,15027,128,0,15503:0:0:0:0:
64,192,15344,1,2,0:0:0:0:
320,192,15344,1,0,0:0:0:0:
64,192,15503,1,8,0:0:0:0:
192,192,15503,1,0,0:0:0:0:
320,192,15662,128,0,16138:0:0:0:0:
64,192,15821,1,4,0:0:0:0:
192,192,15821,1,2,0:0:0:0:
64,192,16138,1,8,0:0:0:0:
448,192,16138,1,0,0:0:0:0:
192,192,16297,1,0,0:0:0:0:
320,192,16456,1,2,0:0:0:0:
448,192,16456,1,0,0:0:0:0:
64,192,16614,1,2,0:0:0:0:
192,192,16614,1,0,0:0:0:0:
320,192,16773,1,8,0:0:0:0:
448,192,16773,1,0,0:0:0:0:
64,192,16932,128,0,17090:0:0:0:0:
192,192,16932,128,0,17090:0:0:0:0:
320,192,17090,1,2,0:0:0:0:
448,192,17090,1,0,0:0:0:0:
192,192,17249,128,0,17408:0:0:0:0:
320,192,17249,128,0,17408:0:0:0:0:
64,192,17408,1,8,0:0:0:0:
448,192,17408,1,0,0:0:0:0:
320,192,17567,128,2,17725:0:0:0:0:
448,192,17567,128,0,17725:0:0:0:0:
64,192,17884,1,2,0:0:0:0:
192,192,17963,1,0,0:0:0:0:
320,192,18043,1,8,0:0:0:0:
448,192,18122,1,0,0:0:0:0:
64,192,18202,1,8,0:0:0:0:
192,192,18281,1,8,0:0:0:0:
64,192,18360,1,2,0:0:0:0:
320,192,18360,1,4,0:0:0:0:
448,192,18360,128,0,18678:0:0:0:0:
192,192,18678,1,8,0:0:0:0:
320,192,18678,1,0,0:0:0:0:
64,192,18836,1,0,0:0:0:0:
320,192,18995,1,2,0:0:0:0:
448,192,18995,1,0,0:0:0:0:
64,192,19154,1,2,0:0:0:0:
192,192,19154,1,0,0:0:0:0:
64,192,19313,1,8,0:0:0:0:
320,192,19313,1,0,0:0:0:0:
192,192,19471,1,2,0:0:0:0:
448,192,19471,128,0,19948:0:0:0:0:
64,192,19789,1,2,0:0:0:0:
192,192,19789,1,0,0:0:0:0:
320,192,19948,1,8,0:0:0:0:
192,192,19948,1,0,0:0:0:0:
448,192,20106,1,2,0:0:0:0:
64,192,20106,128,4,20741:0:0:0:0:
320,192,20106,1,0,0:0:0:0:
192,192,20424,1,8,0:0:0:0:
320,192,20424,1,0,0:0:0:0:
320,192,20583,1,0,0:0:0:40:Tom2.wav
448,192,20583,1,0,0:0:0:0:
448,192,20741,1,2,0:0:0:0:
192,192,20741,1,0,0:0:0:40:Tom3.wav
192,192,20900,1,4,0:0:0:0:
320,192,20900,1,2,0:0:0:0:
448,192,20900,1,0,0:0:0:0:
64,192,21006,1,0,0:0:0:0:
448,192,21112,1,8,0:0:0:0:
320,192,21217,1,8,0:0:0:0:
192,192,21323,1,8,0:0:0:0:
64,192,21429,1,8,0:0:0:0:
320,192,21535,1,10,0:0:0:0:
192,192,21641,1,0,0:0:0:0:
448,192,21747,1,0,0:0:0:40:Tom1.wav
320,192,21852,1,0,0:0:0:40:Tom2.wav
192,192,21958,1,0,0:0:0:40:Tom3.wav
64,192,22064,1,0,0:0:0:40:Tom4.wav
192,192,22170,1,4,0:0:0:0:
320,192,22170,1,2,0:0:0:0:
448,192,22170,128,0,22805:0:0:0:0:
64,192,22646,1,0,0:0:0:0:
192,192,22725,1,0,0:0:0:0:
320,192,22805,128,0,23440:0:0:0:0:
192,192,23122,128,0,23440:0:0:0:70:F#5S_Gb5S.ogg
64,192,23440,1,2,0:0:0:0:
448,192,23440,1,0,0:0:0:0:
192,192,23598,1,0,0:0:0:70:C#6S_Db6S.ogg
448,192,23757,1,0,0:0:0:70:F#6S_Gb6S.ogg
192,192,23916,1,0,0:0:0:70:C#6S_Db6S.ogg
320,192,24075,1,0,0:0:0:70:G#6S_Ab6S.ogg
192,192,24233,1,0,0:0:0:70:C#6S_Db6S.ogg
448,192,24392,1,0,0:0:0:70:F#6S_Gb6S.ogg
192,192,24551,1,0,0:0:0:70:C#6S_Db6S.ogg
64,192,24709,1,0,0:0:0:0:
448,192,24709,1,0,0:0:0:0:
320,192,24868,1,0,0:0:0:70:C#6S_Db6S.ogg
64,192,25027,1,0,0:0:0:70:F#6S_Gb6S.ogg
320,192,25186,1,0,0:0:0:70:C#6S_Db6S.ogg
192,192,25344,1,0,0:0:0:70:G#6S_Ab6S.ogg
320,192,25503,1,0,0:0:0:70:C#6S_Db6S.ogg
64,192,25662,1,0,0:0:0:70:C#7S_Db7S.ogg
320,192,25821,1,0,0:0:0:70:C#6S_Db6S.ogg
192,192,25979,1,0,0:0:0:0:
448,192,25979,1,0,0:0:0:0:
64,192,26138,1,0,0:0:0:70:C#6S_Db6S.ogg
320,192,26297,1,0,0:0:0:70:F#6S_Gb6S.ogg
64,192,26456,1,0,0:0:0:70:C#6S_Db6S.ogg
448,192,26614,1,0,0:0:0:70:G#6S_Ab6S.ogg
64,192,26773,1,0,0:0:0:70:C#6S_Db6S.ogg
320,192,26932,1,0,0:0:0:70:F#6S_Gb6S.ogg
64,192,27090,1,0,0:0:0:70:C#6S_Db6S.ogg
320,192,27249,1,0,0:0:0:0:
448,192,27249,1,0,0:0:0:0:
192,192,27408,1,0,0:0:0:70:F#6S_Gb6S.ogg
320,192,27567,1,0,0:0:0:70:G#6S_Ab6S.ogg
448,192,27725,1,0,0:0:0:70:C#7S_Db7S.ogg
320,192,27884,1,0,0:0:0:70:B6S.ogg
192,192,28043,1,0,0:0:0:70:A#6S_Bb6S.ogg
64,192,28202,1,0,0:0:0:70:G#6S_Ab6S.ogg
320,192,28360,1,0,0:0:0:70:F#6S_Gb6S.ogg
64,192,28519,1,4,0:0:0:0:
192,192,28519,1,0,0:0:0:0:
448,192,28678,1,0,0:0:0:70:C#6S_Db6S.ogg
192,192,28836,1,0,0:0:0:70:F#6S_Gb6S.ogg
448,192,28995,1,0,0:0:0:70:C#6S_Db6S.ogg
64,192,29154,1,0,0:0:0:70:G#6S_Ab6S.ogg
448,192,29313,1,0,0:0:0:70:C#6S_Db6S.ogg
192,192,29471,1,0,0:0:0:70:F#6S_Gb6S.ogg
448,192,29630,1,0,0:0:0:70:C#6S_Db6S.ogg
192,192,29789,1,0,0:0:0:0:
320,192,29789,1,0,0:0:0:0:
64,192,29948,1,0,0:0:0:70:C#6S_Db6S.ogg
448,192,30106,1,0,0:0:0:70:F#6S_Gb6S.ogg
64,192,30265,1,0,0:0:0:70:C#6S_Db6S.ogg
320,192,30424,1,0,0:0:0:70:G#6S_Ab6S.ogg
64,192,30583,1,0,0:0:0:70:C#6S_Db6S.ogg
320,192,30741,1,0,0:0:0:70:F#6S_Gb6S.ogg
448,192,30741,1,0,0:0:0:0:
64,192,30900,1,0,0:0:0:70:C#6S_Db6S.ogg
192,192,31059,1,0,0:0:0:0:
448,192,31059,1,0,0:0:0:0:
320,192,31217,1,0,0:0:0:70:C#6S_Db6S.ogg
64,192,31376,1,0,0:0:0:70:F#6S_Gb6S.ogg
320,192,31535,1,0,0:0:0:70:C#6S_Db6S.ogg
192,192,31694,1,0,0:0:0:70:G#6S_Ab6S.ogg
320,192,31852,1,0,0:0:0:70:C#6S_Db6S.ogg
64,192,32011,1,0,0:0:0:70:F#6S_Gb6S.ogg
320,192,32170,1,0,0:0:0:70:C#6S_Db6S.ogg
192,192,32329,128,0,32567:0:0:0:70:F#7S_Gb7S.ogg
320,192,32567,128,0,32805:0:0:0:70:F7S.ogg
192,192,32805,128,0,32963:0:0:0:70:F#7S_Gb7S.ogg
64,192,32963,1,0,0:0:0:70:G#7S_Ab7S.ogg
448,192,32963,1,0,0:0:0:40:Tom2.wav
192,192,33122,1,2,0:0:0:0:
320,192,33122,1,0,0:0:0:0:
64,192,33281,1,8,0:0:0:0:
320,192,33281,1,0,0:0:0:0:
64,192,33440,1,2,0:0:0:0:
192,192,33440,1,4,0:0:0:0:
448,192,33440,1,0,0:0:0:0:
320,192,33757,128,0,33916:0:0:0:0:
64,192,33916,1,2,0:0:0:0:
192,192,33916,128,0,34075:0:0:0:0:
448,192,34075,128,0,34233:0:0:0:0:
64,192,34233,1,2,0:0:0:0:
192,192,34233,1,0,0:0:0:0:
320,192,34392,1,0,0:0:0:0:
64,192,34551,1,2,0:0:0:0:
448,192,34551,1,0,0:0:0:0:
192,192,34709,1,0,0:0:0:0:
320,192,34868,1,2,0:0:0:0:
448,192,34868,1,0,0:0:0:0:
192,192,35027,128,0,35186:0:0:0:0:
64,192,35186,1,2,0:0:0:0:
320,192,35186,128,0,35344:0:0:0:0:
448,192,35344,128,0,35503:0:0:0:0:
192,192,35503,1,2,0:0:0:0:
320,192,35503,1,0,0:0:0:0:
64,192,35662,1,0,0:0:0:0:
320,192,35821,1,2,0:0:0:0:
448,192,35821,1,0,0:0:0:0:
64,192,35979,1,8,0:0:0:0:
192,192,35979,1,0,0:0:0:0:
320,192,36138,1,2,0:0:0:0:
448,192,36138,1,0,0:0:0:0:
192,192,36297,128,0,36456:0:0:0:0:
64,192,36456,1,2,0:0:0:0:
320,192,36456,128,0,36614:0:0:0:0:
448,192,36614,128,0,36773:0:0:0:0:
64,192,36773,1,2,0:0:0:0:
192,192,36773,1,0,0:0:0:0:
448,192,36932,1,0,0:0:0:0:
64,192,37090,1,2,0:0:0:0:
320,192,37090,1,0,0:0:0:0:
192,192,37249,1,8,0:0:0:0:
448,192,37249,1,0,0:0:0:0:
64,192,37408,1,2,0:0:0:0:
320,192,37408,1,0,0:0:0:0:
192,192,37567,1,8,0:0:0:0:
448,192,37567,128,0,37725:0:0:0:0:
64,192,37725,128,2,37884:0:0:0:0:
320,192,37725,1,0,0:0:0:0:
448,192,37884,128,0,38043:0:0:0:0:
64,192,38043,1,2,0:0:0:0:
192,192,38043,1,0,0:0:0:0:
320,192,38202,128,0,38360:0:0:0:40:Tom2.wav
64,192,38360,128,2,38519:0:0:0:0:
448,192,38360,1,0,0:0:0:0:
320,192,38519,1,0,0:0:0:40:Tom3.wav
192,192,38598,1,0,0:0:0:40:Tom3.wav
64,192,38678,1,2,0:0:0:0:
448,192,38678,1,4,0:0:0:0:
192,192,38836,128,0,38995:0:0:0:0:
320,192,38995,1,2,0:0:0:0:
448,192,38995,128,0,39154:0:0:0:0:
64,192,39154,128,0,39313:0:0:0:0:
192,192,39313,1,2,0:0:0:0:
448,192,39313,1,0,0:0:0:0:
320,192,39471,1,0,0:0:0:0:
64,192,39630,1,2,0:0:0:0:
192,192,39630,1,0,0:0:0:0:
320,192,39789,1,0,0:0:0:0:
64,192,39948,1,2,0:0:0:0:
448,192,39948,1,0,0:0:0:0:
320,192,40106,128,0,40265:0:0:0:0:
64,192,40265,128,2,40424:0:0:0:0:
192,192,40265,1,0,0:0:0:0:
320,192,40424,1,8,0:0:0:0:
448,192,40424,128,0,40583:0:0:0:0:
64,192,40583,1,2,0:0:0:0:
192,192,40583,1,0,0:0:0:0:
320,192,40741,1,0,0:0:0:40:Tom2.wav
448,192,40741,1,0,0:0:0:0:
64,192,40900,1,2,0:0:0:0:
192,192,40900,128,0,41059:0:0:0:0:
320,192,41059,1,0,0:0:0:40:Tom3.wav
64,192,41217,1,2,0:0:0:0:
192,192,41217,1,4,0:0:0:0:
448,192,41217,1,0,0:0:0:0:
320,192,41376,1,0,0:0:0:0:
64,192,41535,1,2,0:0:0:0:
448,192,41535,1,0,0:0:0:0:
192,192,41694,128,0,41773:0:0:0:70:B6S.ogg
64,192,41852,1,2,0:0:0:0:
448,192,41852,128,0,41932:0:0:0:70:A#6S_Bb6S.ogg
320,192,42011,128,0,42090:0:0:0:70:F#6S_Gb6S.ogg
64,192,42170,128,2,42249:0:0:0:0:
192,192,42170,1,0,0:0:0:70:C#6S_Db6S.ogg
320,192,42329,128,0,42408:0:0:0:70:A#5S_Bb5S.ogg
64,192,42487,1,2,0:0:0:0:
192,192,42487,1,4,0:0:0:0:
448,192,42487,1,0,0:0:0:70:B5S.ogg
64,192,42646,1,8,0:0:0:0:
320,192,42646,1,0,0:0:0:0:
192,192,42805,1,8,0:0:0:0:
448,192,42805,1,0,0:0:0:0:
64,192,42963,128,0,43122:0:0:0:40:Tom2.wav
320,192,42963,1,0,0:0:0:0:
320,192,43122,1,0,0:0:0:70:A#5S_Bb5S.ogg
448,192,43122,128,0,43281:0:0:0:40:Tom3.wav
64,192,43281,1,0,0:0:0:40:Tom3.wav
192,192,43281,128,0,43440:0:0:0:0:
320,192,43440,128,0,43757:0:0:0:40:Tom4.wav
448,192,43440,1,0,0:0:0:0:
64,192,43598,1,0,0:0:0:40:Tom4.wav
64,192,43757,1,4,0:0:0:0:
192,192,43757,1,2,0:0:0:0:
448,192,43757,1,0,0:0:0:70:C#6S_Db6S.ogg
64,192,44075,1,8,0:0:0:0:
320,192,44075,1,0,0:0:0:0:
192,192,44233,1,2,0:0:0:0:
448,192,44233,1,0,0:0:0:0:
192,192,44392,1,2,0:0:0:0:
448,192,44392,1,0,0:0:0:70:G#6S_Ab6S.ogg
64,192,44551,1,0,0:0:0:70:F6S.ogg
320,192,44709,1,8,0:0:0:0:
448,192,44709,1,0,0:0:0:70:C#6S_Db6S.ogg
64,192,44868,1,2,0:0:0:0:
192,192,44868,1,0,0:0:0:0:
320,192,45027,1,0,0:0:0:0:
64,192,45186,1,2,0:0:0:0:
192,192,45186,1,0,0:0:0:0:
320,192,45344,1,8,0:0:0:0:
448,192,45344,1,0,0:0:0:0:
64,192,45503,1,2,0:0:0:0:
192,192,45503,1,0,0:0:0:0:
64,192,45662,128,2,45979:0:0:0:0:
192,192,45662,128,0,45979:0:0:0:0:
320,192,45979,128,8,46297:0:0:0:0:
448,192,45979,128,0,46297:0:0:0:70:C#6S_Db6S.ogg
64,192,46297,1,2,0:0:0:0:
192,192,46297,1,0,0:0:0:0:
320,192,46535,1,0,0:0:0:0:
64,192,46614,1,8,0:0:0:0:
448,192,46614,1,0,0:0:0:0:
192,192,46773,1,2,0:0:0:0:
320,192,46773,1,0,0:0:0:0:
192,192,46932,128,2,47249:0:0:0:0:
320,192,46932,1,0,0:0:0:0:
320,192,47249,1,8,0:0:0:0:
448,192,47249,1,0,0:0:0:0:
64,192,47408,1,2,0:0:0:0:
192,192,47408,1,0,0:0:0:0:
320,192,47567,1,0,0:0:0:0:
64,192,47725,1,2,0:0:0:0:
448,192,47725,128,0,47805:0:0:0:70:B6S.ogg
192,192,47884,1,8,0:0:0:0:
320,192,47884,128,0,47963:0:0:0:70:A#6S_Bb6S.ogg
64,192,48043,128,0,48122:0:0:0:70:F#6S_Gb6S.ogg
448,192,48202,1,0,0:0:0:0:
192,192,48202,1,2,0:0:0:0:
64,192,48360,1,2,0:0:0:0:
320,192,48360,128,0,48440:0:0:0:70:C#6S_Db6S.ogg
192,192,48519,1,8,0:0:0:0:
448,192,48519,128,0,48598:0:0:0:70:F#6S_Gb6S.ogg
320,192,48678,1,8,0:0:0:0:
192,192,48757,1,8,0:0:0:0:
64,192,48836,1,2,0:0:0:0:
320,192,48836,1,4,0:0:0:0:
448,192,48836,128,0,49154:0:0:0:0:
64,192,49154,1,8,0:0:0:0:
192,192,49154,1,0,0:0:0:0:
320,192,49313,1,2,0:0:0:0:
448,192,49313,1,0,0:0:0:0:
320,192,49471,1,2,0:0:0:0:
448,192,49471,1,0,0:0:0:0:
192,192,49630,1,0,0:0:0:0:
64,192,49789,1,8,0:0:0:0:
448,192,49789,1,0,0:0:0:0:
192,192,49948,1,2,0:0:0:0:
320,192,49948,1,0,0:0:0:0:
64,192,50106,1,0,0:0:0:0:
192,192,50265,1,2,0:0:0:0:
320,192,50265,1,0,0:0:0:0:
64,192,50424,1,8,0:0:0:0:
448,192,50424,1,0,0:0:0:0:
192,192,50583,1,2,0:0:0:0:
320,192,50583,1,0,0:0:0:0:
64,192,50741,128,2,51059:0:0:0:0:
320,192,50741,1,0,0:0:0:0:
192,192,50900,1,0,0:0:0:0:
320,192,51059,1,8,0:0:0:0:
448,192,51059,128,0,51376:0:0:0:0:
64,192,51217,1,0,0:0:0:0:
192,192,51376,1,2,0:0:0:0:
320,192,51376,1,4,0:0:0:0:
64,192,51376,1,0,0:0:0:0:
448,192,51535,1,0,0:0:0:0:
64,192,51694,1,2,0:0:0:0:
192,192,51773,1,0,0:0:0:0:
320,192,51852,1,2,0:3:0:0:
64,192,51932,1,2,0:3:0:0:
448,192,52011,1,2,0:0:0:0:
192,192,52090,1,2,0:3:0:0:
320,192,52170,1,2,0:3:0:0:
448,192,52249,1,2,0:3:0:0:
64,192,52329,1,2,0:0:0:0:
320,192,52408,1,2,0:3:0:0:
192,192,52487,1,2,0:3:0:0:
64,192,52567,1,2,0:3:0:0:
448,192,52646,1,2,0:0:0:0:
320,192,52725,1,2,0:3:0:0:
192,192,52805,1,2,0:3:0:0:
64,192,52884,1,2,0:3:0:0:
320,192,52963,1,2,0:0:0:0:
192,192,53043,1,2,0:3:0:0:
448,192,53122,1,2,0:3:0:0:
320,192,53202,1,2,0:3:0:0:
64,192,53281,1,2,0:0:0:0:
192,192,53360,1,2,0:3:0:0:
320,192,53440,1,2,0:3:0:0:
448,192,53519,1,2,0:3:0:0:
64,192,53598,1,2,0:0:0:0:
192,192,53678,1,2,0:3:0:0:
320,192,53757,1,2,0:3:0:0:
192,192,53836,1,2,0:3:0:0:
64,192,53916,128,2,54233:0:0:0:0:
448,192,53916,1,4,0:0:0:0:
320,192,53916,1,0,0:0:0:0:
320,192,54551,128,0,55027:0:0:0:0:
64,192,55186,128,0,55821:0:0:0:0:
192,192,55821,1,0,0:0:0:0:
320,192,55926,1,0,0:0:0:0:
448,192,56032,1,0,0:0:0:0:
64,192,56138,1,0,0:0:0:0:
192,192,56244,1,0,0:0:0:0:
320,192,56350,1,0,0:0:0:0:
64,192,56456,1,4,0:0:0:0:
192,192,56456,1,2,0:0:0:0:
448,192,56456,1,0,0:0:0:0:
192,192,56773,128,8,57090:0:0:0:0:
320,192,56773,1,0,0:0:0:0:
64,192,57090,1,2,0:0:0:0:
448,192,57090,1,0,0:0:0:0:
64,192,57249,1,2,0:0:0:0:
448,192,57249,1,0,0:0:0:0:
192,192,57408,1,8,0:0:0:0:
320,192,57408,1,0,0:0:0:0:
64,192,57567,1,0,0:0:0:0:
192,192,57725,1,2,0:0:0:0:
448,192,57725,1,0,0:0:0:0:
320,192,57884,128,0,58678:0:0:0:0:
64,192,58043,1,8,0:0:0:0:
448,192,58043,1,0,0:0:0:0:
64,192,58360,1,2,0:0:0:0:
192,192,58360,1,0,0:0:0:0:
64,192,58519,1,2,0:0:0:0:
192,192,58519,1,0,0:0:0:0:
64,192,58678,1,8,0:0:0:0:
448,192,58678,1,0,0:0:0:0:
192,192,58836,1,0,0:0:0:0:
320,192,58995,1,2,0:0:0:0:
448,192,58995,1,0,0:0:0:0:
64,192,59313,128,8,59630:0:0:0:0:
448,192,59313,1,0,0:0:0:0:
192,192,59630,1,2,0:0:0:0:
320,192,59630,1,0,0:0:0:0:
192,192,59789,1,2,0:0:0:0:
320,192,59789,1,0,0:0:0:0:
64,192,59948,1,8,0:0:0:0:
448,192,59948,1,0,0:0:0:0:
192,192,60106,1,0,0:0:0:0:
64,192,60265,1,2,0:0:0:0:
320,192,60265,1,0,0:0:0:0:
448,192,60424,128,0,61217:0:0:0:0:
64,192,60583,1,8,0:0:0:0:
192,192,60583,1,0,0:0:0:0:
320,192,60741,1,0,0:0:0:0:
64,192,60900,1,2,0:0:0:0:
192,192,60900,1,0,0:0:0:0:
64,192,61059,1,2,0:0:0:0:
192,192,61059,1,0,0:0:0:0:
64,192,61217,1,8,0:0:0:0:
320,192,61217,1,0,0:0:0:0:
192,192,61376,1,8,0:0:0:0:
320,192,61456,1,8,0:0:0:0:
64,192,61535,1,2,0:0:0:0:
192,192,61535,1,4,0:0:0:0:
448,192,61535,1,0,0:0:0:0:
320,192,61852,1,8,0:0:0:0:
448,192,61852,1,0,0:0:0:0:
192,192,62011,1,0,0:0:0:0:
64,192,62170,1,2,0:0:0:0:
448,192,62170,1,0,0:0:0:0:
192,192,62329,1,2,0:0:0:0:
448,192,62329,1,0,0:0:0:0:
64,192,62487,1,8,0:0:0:0:
320,192,62487,1,0,0:0:0:0:
448,192,62646,1,0,0:0:0:0:
64,192,62805,1,2,0:0:0:0:
192,192,62805,1,0,0:0:0:0:
320,192,62963,1,0,0:0:0:0:
192,192,63122,1,8,0:0:0:0:
448,192,63122,1,0,0:0:0:0:
64,192,63281,1,0,0:0:0:0:
320,192,63440,1,2,0:0:0:0:
448,192,63440,1,0,0:0:0:0:
192,192,63598,1,2,0:0:0:0:
320,192,63598,1,0,0:0:0:0:
64,192,63757,1,8,0:0:0:0:
448,192,63757,1,0,0:0:0:0:
320,192,63916,1,0,0:0:0:0:
64,192,64075,1,2,0:0:0:0:
192,192,64075,1,4,0:0:0:0:
448,192,64075,128,0,64392:0:0:0:0:
320,192,64233,1,0,0:0:0:0:
64,192,64392,1,8,0:0:0:0:
192,192,64392,1,0,0:0:0:0:
64,192,64551,128,2,64868:0:0:0:0:
320,192,64551,1,4,0:0:0:0:
448,192,64551,1,0,0:0:0:0:
192,192,64868,1,2,0:0:0:0:
320,192,64868,1,0,0:0:0:0:
64,192,65027,1,8,0:0:0:0:
448,192,65027,1,0,0:0:0:0:
192,192,65186,1,2,0:0:0:0:
320,192,65186,128,0,65503:0:0:0:0:
448,192,65186,1,4,0:0:0:0:
64,192,65503,1,2,0:0:0:0:
192,192,65503,1,0,0:0:0:0:
320,192,65662,1,8,0:0:0:0:
448,192,65662,1,0,0:0:0:0:
64,192,65821,1,2,0:0:0:0:
192,192,65821,1,0,0:0:0:0:
64,192,65979,1,0,0:0:0:40:Tom2.wav
320,192,65979,1,0,0:0:0:0:
448,192,66059,1,0,0:0:0:0:
192,192,66138,1,2,0:0:0:0:
320,192,66217,1,0,0:0:0:0:
64,192,66297,1,8,0:0:0:0:
448,192,66297,1,0,0:0:0:40:Tom3.wav
192,192,66376,1,0,0:0:0:0:
320,192,66456,1,0,0:0:0:0:
448,192,66535,1,0,0:0:0:0:
64,192,66614,1,2,0:0:0:0:
192,192,66614,1,0,0:0:0:0:
64,192,66773,1,2,0:0:0:0:
192,192,66773,1,0,0:0:0:0:
64,192,66932,1,8,0:0:0:0:
320,192,66932,1,4,0:0:0:0:
448,192,66932,128,0,67249:0:0:0:0:
64,192,67249,1,2,0:0:0:0:
192,192,67249,1,0,0:0:0:0:
192,192,67408,1,2,0:0:0:0:
320,192,67408,1,0,0:0:0:0:
64,192,67567,1,8,0:0:0:0:
448,192,67567,1,0,0:0:0:0:
192,192,67725,128,0,67884:0:0:0:0:
64,192,67884,1,2,0:0:0:0:
320,192,67884,1,0,0:0:0:0:
448,192,68043,128,0,68202:0:0:0:0:
64,192,68202,1,8,0:0:0:0:
192,192,68202,1,0,0:0:0:0:
320,192,68360,1,0,0:0:0:0:
192,192,68519,1,2,0:0:0:0:
448,192,68519,1,0,0:0:0:0:
64,192,68678,1,2,0:0:0:0:
320,192,68678,1,0,0:0:0:0:
64,192,68836,1,8,0:0:0:0:
448,192,68836,1,0,0:0:0:0:
192,192,68995,1,0,0:0:0:0:
320,192,69154,1,2,0:0:0:0:
448,192,69154,1,0,0:0:0:0:
64,192,69471,128,8,69789:0:0:0:0:
320,192,69471,1,0,0:0:0:0:
448,192,69630,1,0,0:0:0:0:
192,192,69789,1,2,0:0:0:0:
320,192,69789,1,0,0:0:0:0:
64,192,69948,1,2,0:0:0:0:
320,192,69948,1,0,0:0:0:0:
192,192,70106,1,8,0:0:0:0:
448,192,70106,1,0,0:0:0:0:
320,192,70265,128,0,70424:0:0:0:0:
64,192,70424,1,2,0:0:0:0:
192,192,70424,1,0,0:0:0:0:
448,192,70583,128,0,70741:0:0:0:0:
192,192,70741,1,8,0:0:0:0:
320,192,70741,1,0,0:0:0:0:
64,192,70900,1,0,0:0:0:0:
448,192,70979,1,8,0:0:0:0:
192,192,71059,1,8,0:0:0:0:
320,192,71059,1,0,0:0:0:0:
64,192,71217,1,2,0:0:0:0:
320,192,71217,1,0,0:0:0:0:
192,192,71376,1,8,0:0:0:0:
448,192,71376,1,0,0:0:0:0:
192,192,71535,1,8,0:0:0:0:
320,192,71535,1,0,0:0:0:0:
64,192,71694,1,4,0:0:0:0:
320,192,71694,1,2,0:0:0:0:
448,192,71694,1,0,0:0:0:0:
192,192,72011,1,8,0:0:0:0:
448,192,72011,1,0,0:0:0:0:
320,192,72170,1,0,0:0:0:0:
64,192,72329,1,2,0:0:0:0:
448,192,72329,128,0,72487:0:0:0:0:
192,192,72487,1,2,0:0:0:0:
320,192,72487,1,0,0:0:0:0:
64,192,72646,1,8,0:0:0:0:
192,192,72646,128,0,72805:0:0:0:0:
320,192,72805,1,0,0:0:0:0:
64,192,72963,128,2,73122:0:0:0:0:
448,192,72963,1,0,0:0:0:0:
320,192,73281,1,8,0:0:0:0:
448,192,73281,1,0,0:0:0:0:
64,192,73440,1,0,0:0:0:0:
192,192,73519,1,0,0:0:0:0:
320,192,73598,1,2,0:0:0:0:
448,192,73598,128,0,73757:0:0:0:0:
64,192,73757,1,2,0:0:0:0:
192,192,73757,1,0,0:0:0:0:
192,192,73916,128,8,74075:0:0:0:0:
448,192,73916,1,0,0:0:0:0:
320,192,74075,1,0,0:0:0:0:
64,192,74233,128,4,74392:0:0:0:0:
192,192,74233,1,2,0:0:0:0:
448,192,74233,1,0,0:0:0:0:
64,192,74551,1,8,0:0:0:0:
320,192,74551,1,0,0:0:0:0:
448,192,74709,128,8,74974:0:0:0:0:
192,192,74709,1,4,0:0:0:0:
320,192,74709,1,0,0:0:0:0:
64,192,74974,1,0,0:0:0:40:Tom1.wav
320,192,75080,1,0,0:0:0:40:Tom2.wav
192,192,75186,1,0,0:0:0:40:Tom3.wav
448,192,75291,1,0,0:0:0:40:Tom3.wav
320,192,75397,1,0,0:0:0:40:Tom4.wav
64,192,75503,128,4,76138:0:0:0:0:
448,192,75503,1,2,0:0:0:0:
192,192,75503,1,0,0:0:0:0:
320,192,75979,1,8,0:0:0:0:
192,192,76059,1,8,0:0:0:0:
320,192,76138,1,8,0:0:0:0:
448,192,76138,128,0,76773:0:0:0:0:
192,192,76297,1,0,0:0:0:40:Tom2.wav
320,192,76456,1,0,0:0:0:40:Tom3.wav
64,192,76588,1,0,0:0:0:40:Tom4.wav
64,192,76773,1,4,0:0:0:0:
192,192,76773,1,2,0:0:0:0:
320,192,76773,1,0,0:0:0:0:
192,192,76932,1,0,0:0:0:0:
320,192,77011,1,0,0:0:0:0:
448,192,77090,1,2,3:0:0:0:
64,192,77170,1,2,3:0:0:0:
192,192,77249,1,2,3:0:0:0:
320,192,77329,1,2,3:0:0:0:
448,192,77408,1,2,3:0:0:0:
64,192,77487,1,2,3:0:0:0:
320,192,77567,1,2,3:0:0:0:
192,192,77646,1,2,3:0:0:0:
64,192,77725,1,2,3:0:0:0:
448,192,77805,1,2,3:0:0:0:
320,192,77884,1,2,3:0:0:0:
192,192,77963,1,2,3:0:0:0:
448,192,78043,1,2,0:0:0:0:
64,192,78122,1,2,3:0:0:0:
192,192,78202,1,2,3:0:0:0:
320,192,78281,1,2,3:0:0:0:
448,192,78360,1,2,0:0:0:0:
192,192,78440,1,2,3:0:0:0:
320,192,78519,1,2,3:0:0:0:
64,192,78598,1,2,3:0:0:0:
192,192,78678,1,2,0:0:0:0:
448,192,78757,1,2,3:0:0:0:
320,192,78836,1,2,3:0:0:0:
192,192,78916,1,2,3:0:0:0:
448,192,78995,1,2,0:0:0:0:
64,192,79075,1,2,3:0:0:0:
192,192,79154,1,2,3:0:0:0:
320,192,79233,1,2,3:0:0:0:
64,192,79313,128,4,79630:0:0:0:0:
192,192,79313,1,2,0:0:0:0:
448,192,79313,128,0,79630:0:0:0:0:
192,192,79630,1,8,0:0:0:0:
320,192,79630,1,0,0:0:0:0:
64,192,79789,128,2,80106:0:0:0:0:
320,192,79789,128,4,80106:0:0:0:0:
448,192,79789,1,0,0:0:0:0:
192,192,80106,1,2,0:0:0:0:
448,192,80265,1,8,0:0:0:0:
320,192,80371,1,8,0:0:0:0:
192,192,80477,1,8,0:0:0:0:
64,192,80583,1,0,0:0:0:40:Tom2.wav
320,192,80583,1,2,0:0:0:0:
448,192,80688,1,0,0:0:0:40:Tom2.wav
64,192,80794,1,0,0:0:0:40:Tom3.wav
448,192,80900,1,0,0:0:0:40:Tom3.wav
64,192,81059,128,2,81852:0:0:0:0:
192,192,81059,1,0,0:0:0:0:
320,192,81852,1,0,0:0:0:0:
448,192,81852,128,0,83122:0:0:0:0:
64,192,83122,1,0,0:0:0:0:
320,192,83122,1,0,0:0:0:0:
192,192,83440,1,0,0:0:0:0:
320,192,83598,1,0,0:0:0:0:
64,192,83757,1,0,0:0:0:0:
448,192,83757,1,0,0:0:0:0:
192,192,84075,1,0,0:0:0:0:
320,192,84392,128,0,84709:0:0:0:0:
448,192,84392,1,0,0:0:0:0:
64,192,84709,1,0,0:0:0:0:
192,192,84868,1,0,0:0:0:0:
448,192,85027,128,0,85344:0:0:0:0:
192,192,85344,1,0,0:0:0:0:
64,192,85583,1,0,0:0:0:0:
192,192,85622,1,0,0:0:0:0:
320,192,85662,128,0,86872:0:0:0:0:
448,192,85662,128,0,86872:0:0:0:0:
192,192,86872,1,0,0:0:0:0:
320,192,86952,1,0,0:0:0:0:
64,192,87031,128,0,88202:0:0:0:0:
448,192,87031,128,0,88202:0:0:0:0:
