osu file format v14

[General]
AudioFilename: audio.mp3
AudioLeadIn: 0
PreviewTime: 39560
Countdown: 0
SampleSet: Soft
StackLeniency: 0.7
Mode: 0
LetterboxInBreaks: 0
WidescreenStoryboard: 1

[Editor]
Bookmarks: 7266,8501,39031
DistanceSpacing: 3
BeatDivisor: 4
GridSize: 4
TimelineZoom: 2

[Metadata]
Title:Cobalt TV SIZE
TitleUnicode:Cobalt TV SIZE
Artist:TrySail
ArtistUnicode:TrySail
Creator:HappyStreet
Version:Insane
Source:Classroom☆Crisis
Tags:Classroom crisis anime jpop クラスルーム☆クライシス
BeatmapID:995386
BeatmapSetID:464940

[Difficulty]
HPDrainRate:6
CircleSize:4
OverallDifficulty:8
ApproachRate:9.1
SliderMultiplier:1.7
SliderTickRate:1

[Events]
//Background and Video events
0,0,"Sera_mizuki_shirasaki_iris_02.jpg",0,0
//Break Periods
//Storyboard Layer 0 (Background)
//Storyboard Layer 1 (Fail)
//Storyboard Layer 2 (Pass)
//Storyboard Layer 3 (Foreground)
//Storyboard Sound Samples

[TimingPoints]
384,352.941176470588,4,2,0,100,1,0
490,-100,4,2,0,70,0,0
4531,-100,4,2,0,30,0,0
5766,-100,4,2,0,75,0,0
7178,-200,4,2,0,100,0,0
8589,-100,4,2,0,100,0,0
14325,-100,4,2,0,71,0,0
25001,-100,4,2,0,85,0,0
39648,-100,4,2,0,95,0,0
62236,-100,4,2,0,100,0,1
72383,-166.666666666667,4,2,0,100,0,0
73178,-100,4,2,0,100,0,0
85972,-200,4,2,0,100,0,0
86501,-100,4,2,0,100,0,0
87383,-200,4,2,0,100,0,0
87736,-100,4,2,0,100,0,0

[HitObjects]
148,116,384,6,0,P|230:94|311:136,1,170
216,212,913,1,0,0:0:0:0:
268,92,1442,1,0,0:0:0:0:
192,264,1795,2,0,B|108:220|108:220|92:136,1,170
192,76,2325,5,0,0:0:0:0:
408,140,2678,2,0,P|408:200|396:236,1,85
236,64,3207,1,0,0:0:0:0:
216,248,3560,2,0,P|148:228|128:184,1,85
208,140,4089,1,0,0:0:0:0:
372,60,4266,1,0,0:0:0:0:
240,192,4619,6,0,P|316:192|312:192,12,42.5
384,84,5854,2,0,P|416:170|370:255,1,170,8|0,0:0|0:0,0:0:0:0:
104,240,6383,2,0,P|94:142|130:78,1,170,8|0,0:0|0:0,0:0:0:0:
220,76,6913,1,2,0:0:0:0:
214,232,7266,6,0,L|226:251,1,21.25
301,277,7442,1,0,0:0:0:0:
315,261,7530,1,0,0:0:0:0:
326,243,7618,1,0,0:0:0:0:
334,223,7706,1,0,0:0:0:0:
337,202,7794,1,0,0:0:0:0:
349,190,7883,1,0,0:0:0:0:
368,180,7971,1,0,0:0:0:0:
383,166,8059,1,0,0:0:0:0:
392,147,8147,1,0,0:0:0:0:
395,126,8236,1,0,0:0:0:0:
393,105,8324,1,0,0:0:0:0:
386,84,8412,1,0,0:0:0:0:
375,66,8500,1,0,0:0:0:0:
292,52,8678,6,0,P|240:68|184:96,1,85
110,209,9031,1,8,0:0:0:0:
110,209,9207,2,0,P|98:248|117:297,1,85
292,334,9560,1,8,0:0:0:0:
411,190,9736,1,8,0:0:0:0:
199,88,10089,6,0,P|236:69|271:93,1,85
407,217,10442,1,8,0:0:0:0:
151,217,10619,1,8,0:0:0:0:
303,275,10972,1,8,0:0:0:0:
391,36,11148,1,8,0:0:0:0:
100,130,11501,2,0,P|94:193|116:234,1,85
256,43,11854,5,8,0:0:0:0:
259,298,12031,1,8,0:0:0:0:
87,176,12383,1,8,0:0:0:0:
344,176,12560,1,8,0:0:0:0:
423,270,12913,2,0,P|395:316|335:320,1,85
112,304,13266,1,8,0:0:0:0:
112,44,13442,1,8,0:0:0:0:
308,41,13795,1,8,0:1:0:0:
308,296,13972,1,8,0:1:0:0:
145,80,14501,6,0,P|98:157|98:184,1,85
338,282,14854,2,0,P|316:240|272:188,1,85
148,93,15207,1,0,0:0:0:0:
88,209,15383,2,0,P|96:252|135:284,1,85
272,148,15736,1,0,0:0:0:0:
188,266,15913,2,0,P|255:293|284:268,1,85
259,101,16266,1,0,0:0:0:0:
176,196,16442,1,0,0:0:0:0:
227,122,16619,6,2,L|272:212,1,85
296,96,16972,2,2,L|341:186,1,85
372,68,17325,2,2,L|417:158,1,85
433,233,17678,6,0,B|480:317|462:354|426:366|393:342,1,170
340,235,18207,1,0,0:0:0:0:
261,156,18383,1,0,0:0:0:0:
340,78,18560,1,0,0:0:0:0:
418,156,18736,2,0,P|382:246|319:275,1,170
217,64,19266,6,0,P|170:100|166:152,1,85
152,299,19619,1,2,0:0:0:0:
152,197,19795,1,2,0:0:0:0:
240,248,19972,2,0,P|283:226|326:173,2,85
55,162,20501,2,0,P|85:126|124:111,1,85
225,245,20854,5,0,0:0:0:0:
225,138,21030,1,0,0:0:0:0:
317,192,21207,1,0,0:0:0:0:
409,235,21383,2,0,P|391:280|330:292,1,85
96,104,21736,2,0,B|132:64|132:64|176:64,1,85
116,288,22089,2,0,P|151:317|197:316,1,85
364,168,22442,2,0,P|330:116|280:96,1,85
148,104,22795,1,0,0:0:0:0:
104,40,22972,6,0,P|73:80|72:119,1,85
115,194,23325,2,0,B|132:232|136:232|172:240|188:232,1,85
320,84,23678,2,0,P|341:137|306:131,1,85
199,286,24031,5,0,0:0:0:0:
160,134,24207,1,0,0:0:0:0:
313,97,24383,2,0,P|344:131|355:173,1,85
100,122,24736,2,0,P|83:175|105:218,1,85
415,186,25089,5,8,0:0:0:0:
106,191,25266,1,8,0:0:0:0:
175,89,25619,6,4,P|237:72|344:87,1,170,4|0,0:0|0:0,0:0:0:0:
399,148,26148,1,0,0:0:0:0:
399,250,26325,1,0,0:0:0:0:
310,198,26501,1,0,0:0:0:0:
321,79,26678,6,0,P|267:67|219:62,1,85
109,133,27031,2,0,P|97:182|104:222,1,85
331,266,27383,2,0,P|361:221|350:213,1,85,4|0,0:0|0:0,0:0:0:0:
176,91,27913,5,8,0:0:0:0:
423,113,28089,1,8,0:0:0:0:
175,166,28266,1,8,0:0:0:0:
428,183,28442,1,8,0:0:0:0:
126,217,28619,2,4,P|106:173|126:117,1,85
64,40,28972,5,0,0:0:0:0:
155,56,29148,1,0,0:0:0:0:
158,59,29325,2,0,P|197:75|221:147,1,85
411,308,29678,2,0,L|299:308,1,85
98,254,30031,2,0,B|110:174|110:174|146:174|146:174|190:142,1,170
210,30,30560,1,8,0:0:0:0:
213,33,30736,2,0,B|239:104|290:110|239:147|306:188,1,170,4|0,0:0|0:0,0:0:0:0:
363,209,31266,5,8,0:0:0:0:
362,332,31442,1,0,0:0:0:0:
256,270,31619,1,8,0:0:0:0:
108,287,31795,2,0,L|135:179,1,85
278,42,32148,2,0,P|334:46|341:77,1,85
363,180,32501,5,0,0:0:0:0:
366,183,32678,2,0,L|325:100,1,85
397,252,33031,1,0,0:0:0:0:
298,317,33207,1,0,0:0:0:0:
211,235,33383,1,0,0:0:0:0:
189,352,33560,2,0,P|108:356|48:288,1,170
52,176,34089,1,0,0:0:0:0:
112,72,34266,2,0,L|180:236,1,170,12|0,0:0|0:0,0:0:0:0:
252,136,34795,6,0,L|292:224,1,85
369,173,35148,1,8,0:0:0:0:
430,238,35325,1,8,0:0:0:0:
387,316,35501,1,8,0:0:0:0:
299,299,35678,2,2,P|216:258|184:171,1,170,10|10,0:0|0:0,0:0:0:0:
178,80,36207,5,8,0:0:0:0:
280,38,36383,1,8,0:0:0:0:
351,123,36560,1,8,0:0:0:0:
292,216,36736,1,8,0:0:0:0:
185,190,36913,1,8,0:0:0:0:
185,190,37089,2,4,L|374:191,2,170
159,273,37972,2,0,P|74:186|101:129,1,170
179,74,38501,5,0,0:0:0:0:
212,100,38589,1,0,0:0:0:0:
237,134,38677,1,0,0:0:0:0:
262,168,38765,1,0,0:0:0:0:
270,207,38853,1,0,0:0:0:0:
232,223,38942,1,0,0:0:0:0:
189,222,39030,1,0,0:0:0:0:
100,204,39206,1,14,0:0:0:0:
61,92,39383,1,10,0:0:0:0:
292,61,39736,6,0,P|319:105|313:139,1,85,8|0,0:0|0:0,0:0:0:0:
269,232,40089,1,2,0:0:0:0:
242,365,40266,1,4,0:0:0:0:
115,316,40442,1,2,0:0:0:0:
148,183,40619,1,4,0:0:0:0:
281,159,40795,2,0,P|326:177|344:220,1,85
216,258,41148,2,0,P|180:234|228:218,2,85,4|0|4,0:0|0:0|0:0,0:0:0:0:
285,312,41678,5,8,0:0:0:0:
377,207,41854,1,8,0:0:0:0:
388,83,42031,2,0,P|346:69|273:81,1,85
189,139,42383,1,8,0:0:0:0:
77,213,42560,2,0,P|84:254|112:287,1,85
269,249,42912,5,8,0:0:0:0:
152,144,43089,1,8,0:0:0:0:
237,41,43266,1,8,0:0:0:0:
210,199,43442,1,8,0:0:0:0:
352,122,43619,1,8,0:0:0:0:
437,247,43795,5,2,0:0:0:0:
440,250,43972,2,0,P|400:271|347:256,1,85
101,164,44325,2,0,P|135:133|180:116,1,85
175,305,44678,2,0,P|246:280|267:305,1,85
314,281,44942,1,2,0:0:0:0:
317,284,45031,2,0,P|347:238|344:197,1,85
213,86,45383,1,8,0:0:0:0:
68,217,45560,2,0,P|121:257|156:246,1,85
339,247,45913,1,8,0:0:0:0:
200,287,46442,5,8,0:0:0:0:
200,96,46619,1,8,0:0:0:0:
366,192,46795,1,8,0:0:0:0:
128,192,47148,5,8,0:0:0:0:
319,81,47325,1,8,0:0:0:0:
319,302,47501,1,8,0:0:0:0:
140,120,47854,5,8,0:0:0:0:
403,192,48031,1,8,0:0:0:0:
182,320,48207,2,4,P|150:288|138:240,1,85,4|0,0:0|0:0,0:0:0:0:
125,119,48560,5,4,0:0:0:0:
125,119,48736,2,2,P|165:103|213:107,1,85
376,120,49089,1,8,0:0:0:0:
232,211,49266,1,8,0:0:0:0:
321,67,49442,1,8,0:0:0:0:
308,204,49619,2,0,P|301:245|262:283,1,85,8|0,0:0|0:0,0:0:0:0:
111,283,49972,6,0,L|111:183,1,85,8|8,0:0|0:0,0:0:0:0:
268,32,50325,2,0,P|268:136|268:144,1,85,8|8,0:0|0:0,0:0:0:0:
424,296,50678,2,0,L|420:204,1,85,8|0,0:0|0:0,0:0:0:0:
324,303,51031,2,0,L|232:304,1,85,8|8,0:0|0:0,0:0:0:0:
124,271,51383,5,0,0:0:0:0:
263,105,51560,2,0,L|203:181,1,85
320,272,51913,2,0,L|440:272,1,85,8|0,0:0|0:0,0:0:0:0:
208,272,52266,1,0,0:0:0:0:
84,84,52442,2,0,P|128:56|168:52,1,85,8|0,0:0|0:0,0:0:0:0:
190,288,52795,5,0,0:0:0:0:
408,240,52972,1,0,0:0:0:0:
188,208,53148,1,0,0:0:0:0:
112,96,53325,2,0,P|88:148|67:205,1,85,8|0,0:0|0:0,0:0:0:0:
53,308,53678,1,8,0:0:0:0:
152,296,53854,2,0,L|268:284,1,85
342,281,54207,5,0,0:0:0:0:
444,178,54383,1,0,0:0:0:0:
342,76,54560,1,0,0:0:0:0:
239,178,54736,1,0,0:0:0:0:
100,272,54913,2,2,P|140:308|172:332,1,85
267,190,55266,1,8,0:0:0:0:
337,35,55442,1,8,0:0:0:0:
394,195,55619,1,8,0:0:0:0:
467,46,55795,1,8,0:0:0:0:
468,216,55972,6,2,P|428:260|384:280,1,85
238,304,56325,2,0,B|194:320|194:320|178:268,1,85
168,113,56678,1,14,0:0:0:0:
323,46,56854,2,0,P|363:74|395:102,1,85
397,233,57207,5,8,0:0:0:0:
268,189,57383,1,0,0:0:0:0:
131,194,57560,1,8,0:0:0:0:
214,300,57736,1,0,0:0:0:0:
189,77,57913,1,8,0:0:0:0:
189,77,58089,2,2,P|246:68|291:94,1,85
380,164,58442,5,8,0:0:0:0:
104,160,58619,1,8,0:0:0:0:
252,252,58795,1,2,0:0:0:0:
317,72,59148,1,8,0:0:0:0:
134,253,59325,1,8,0:0:0:0:
83,87,59501,2,0,P|119:127|155:159,1,85,10|0,0:0|0:0,0:0:0:0:
143,297,59854,1,0,0:0:0:0:
146,300,60031,2,0,L|214:242,1,85
295,99,60383,5,8,0:0:0:0:
316,272,60560,1,8,0:0:0:0:
156,204,60736,1,8,0:0:0:0:
348,202,60913,2,0,L|231:202,2,85,2|0|0,0:0|0:0|0:0,0:0:0:0:
241,275,61442,2,0,L|341:274,2,85,2|0|0,0:0|0:0|0:0,0:0:0:0:
104,201,61972,2,0,P|141:159|186:157,1,85
380,134,62325,5,10,0:0:0:0:
335,332,62501,1,10,0:0:0:0:
262,140,62678,1,10,0:0:0:0:
168,320,62854,1,10,0:0:0:0:
117,121,63031,1,10,0:0:0:0:
253,271,63207,1,10,0:0:0:0:
387,118,63383,1,10,0:0:0:0:
188,168,63560,1,10,0:0:0:0:
342,35,63736,1,10,0:0:0:0:
317,238,63913,1,10,0:0:0:0:
118,195,64089,6,0,L|190:136,1,85,4|0,0:0|0:0,0:0:0:0:
354,28,64442,1,10,0:0:0:0:
260,209,64619,1,10,0:0:0:0:
137,46,64795,1,10,0:0:0:0:
327,121,64972,1,10,0:0:0:0:
125,96,65148,1,10,0:0:0:0:
261,248,65325,2,0,P|203:246|100:186,1,170
86,45,65854,2,0,L|206:59,1,85
316,134,66207,5,8,0:0:0:0:
319,137,66383,2,0,P|271:117|210:103,1,85,8|4,0:0|0:0,0:0:0:0:
84,170,66736,1,8,0:0:0:0:
240,293,66913,2,0,P|306:306|334:287,1,85
363,134,67266,1,8,0:0:0:0:
366,137,67442,2,0,P|330:102|285:93,1,85,8|0,0:0|0:0,0:0:0:0:
148,55,67795,5,8,0:0:0:0:
300,164,67972,1,8,0:0:0:0:
171,226,68148,2,0,P|135:201|114:155,1,85
202,68,68501,2,0,P|261:68|293:93,1,85
407,182,68854,1,8,0:0:0:0:
254,235,69031,1,2,0:0:0:0:
337,97,69207,1,8,0:0:0:0:
410,257,69383,2,0,L|292:256,1,85,2|0,0:0|0:0,0:0:0:0:
164,278,69736,5,8,0:0:0:0:
271,113,69913,1,4,0:0:0:0:
251,307,70089,1,8,0:0:0:0:
165,130,70266,1,4,0:0:0:0:
31,263,70442,1,8,0:0:0:0:
189,340,70619,2,0,P|242:340|272:323,1,85
283,191,70972,2,0,B|189:149|244:82|351:75|424:215|362:314|330:330,1,340
264,321,71854,5,8,0:0:0:0:
176,320,72031,1,8,0:0:0:0:
88,320,72207,1,8,0:0:0:0:
93,200,72383,5,0,0:0:0:0:
103,176,72471,1,0,0:0:0:0:
118,155,72559,1,0,0:0:0:0:
135,137,72647,1,0,0:0:0:0:
156,122,72735,1,0,0:0:0:0:
178,110,72824,1,0,0:0:0:0:
203,103,72912,1,0,0:0:0:0:
228,99,73000,1,0,0:0:0:0:
253,100,73088,1,0,0:0:0:0:
348,128,73266,5,10,0:0:0:0:
389,308,73619,2,0,P|341:308|290:279,1,85
111,301,73972,1,8,0:0:0:0:
192,123,74148,1,2,0:0:0:0:
29,232,74325,1,8,0:0:0:0:
222,207,74501,1,2,0:0:0:0:
219,319,74678,1,8,0:0:0:0:
198,125,74854,1,2,0:0:0:0:
92,168,75031,6,0,P|93:217|117:255,1,85,2|0,0:0|0:0,0:0:0:0:
233,298,75383,1,8,0:0:0:0:
242,76,75560,1,2,0:0:0:0:
115,187,75736,1,8,0:0:0:0:
373,185,75913,2,0,P|366:234|331:265,1,85,2|0,0:0|0:0,0:0:0:0:
218,306,76266,1,8,0:0:0:0:
97,137,76442,2,0,P|120:102|160:88,1,85,2|0,0:0|0:0,0:0:0:0:
288,109,76795,1,2,0:0:0:0:
102,268,76972,5,8,0:0:0:0:
337,149,77148,1,2,0:0:0:0:
218,273,77325,1,8,0:0:0:0:
78,170,77501,1,2,0:0:0:0:
287,275,77678,1,8,0:0:0:0:
149,174,77854,2,0,P|202:162|266:162,1,85
336,216,78207,2,0,L|388:136,1,85
308,52,78560,2,0,P|249:47|203:51,1,85
108,80,78913,5,8,0:0:0:0:
124,196,79089,1,2,0:0:0:0:
124,316,79266,1,8,0:0:0:0:
240,336,79442,1,2,0:0:0:0:
360,328,79619,1,8,0:0:0:0:
256,344,79795,1,8,0:0:0:0:
256,344,79883,2,4,L|260:296,1,42.5
365,274,80148,1,8,0:0:0:0:
200,268,80325,5,8,0:0:0:0:
200,100,80501,1,8,0:0:0:0:
365,172,80678,1,8,0:0:0:0:
116,148,81031,5,8,0:0:0:0:
323,75,81207,1,8,0:0:0:0:
280,284,81383,2,0,P|232:260|212:232,1,85,8|0,0:0|0:0,0:0:0:0:
180,144,81736,1,8,0:0:0:0:
332,208,81913,1,8,0:0:0:0:
335,211,82089,2,0,P|299:150|263:138,1,85,8|0,0:0|0:0,0:0:0:0:
145,76,82442,5,0,0:0:0:0:
378,76,82619,1,0,0:0:0:0:
261,278,82795,1,8,0:0:0:0:
131,172,82972,1,2,0:0:0:0:
409,177,83148,1,8,0:0:0:0:
137,175,83325,1,2,0:0:0:0:
185,78,83501,6,8,P|231:64|278:77,1,85,8|0,0:0|0:0,0:0:0:0:
184,220,83854,2,8,P|246:227|297:216,1,85,8|0,0:0|0:0,0:0:0:0:
190,78,84207,2,8,P|247:73|281:89,1,85,8|0,0:0|0:0,0:0:0:0:
226,147,84560,5,8,0:0:0:0:
229,150,84648,1,8,0:0:0:0:
232,153,84736,1,4,0:0:0:0:
149,216,84913,2,0,P|221:243|264:236,1,85
341,241,85266,1,8,0:0:0:0:
377,106,85442,2,0,P|257:75|180:84,1,170
126,81,85972,5,0,0:0:0:0:
106,89,86060,1,0,0:0:0:0:
95,106,86148,1,0,0:0:0:0:
97,127,86236,1,0,0:0:0:0:
112,143,86325,2,0,L|150:180,1,42.5,12|0,0:0|0:0,0:0:0:0:
139,282,86678,2,0,L|233:282,1,85,8|0,0:0|0:0,0:0:0:0:
136,207,87031,2,0,L|244:206,1,85,8|0,0:0|0:0,0:0:0:0:
123,131,87383,5,0,0:0:0:0:
139,117,87471,1,0,0:0:0:0:
158,108,87559,1,0,0:0:0:0:
179,105,87647,1,0,0:0:0:0:
201,109,87736,2,0,P|285:134|372:280,1,255,12|0,0:0|0:0,0:0:0:0:
