osu file format v14

[General]
AudioFilename: audio.mp3
AudioLeadIn: 0
PreviewTime: -1
Countdown: 1
SampleSet: Soft
StackLeniency: 0.7
Mode: 0
LetterboxInBreaks: 0
WidescreenStoryboard: 1

[Editor]
DistanceSpacing: 0.8
BeatDivisor: 2
GridSize: 32
TimelineZoom: 1

[Metadata]
Title:Adrenaline
TitleUnicode:Adrenaline
Artist:TrySail
ArtistUnicode:TrySail
Creator:SkyBloo
Version:Easy
Source:Eromanga-Sensei
Tags:Anime,Japanese
BeatmapID:1312663
BeatmapSetID:622604

[Difficulty]
HPDrainRate:1
CircleSize:2
OverallDifficulty:0
ApproachRate:3
SliderMultiplier:0.9
SliderTickRate:1

[Events]
//Background and Video events
Video,0,"Eromanga Sensei Ending HD.mp4"
0,0,"eromanga-sensei-izumi-sagiri-izumi-masamune-yamada-elf-jinno-megumi.png",0,0
//Break Periods
//Storyboard Layer 0 (Background)
//Storyboard Layer 1 (Fail)
//Storyboard Layer 2 (Pass)
//Storyboard Layer 3 (Foreground)
//Storyboard Sound Samples

[TimingPoints]
17426,434.082688832671,4,2,0,100,1,0

[Colours]
Combo1 : 58,171,239
Combo2 : 254,218,122
Combo3 : 252,135,165
Combo4 : 28,179,125

[HitObjects]
171,86,6143,5,0,0:0:0:0:
365,87,6790,2,0,L|365:222,1,135
260,234,7876,1,0,0:0:0:0:
260,104,8310,1,0,0:0:0:0:
147,103,8744,6,0,L|2:103,1,135
20,200,9829,1,0,0:0:0:0:
163,198,10263,1,0,0:0:0:0:
295,195,10697,2,0,L|295:116,1,45
391,146,11348,6,0,L|391:208,1,45
392,299,11999,1,0,0:0:0:0:
273,298,12434,2,0,L|126:299,1,135
185,161,13519,1,0,0:0:0:0:
191,44,13953,6,0,P|239:43|271:74,1,90
290,124,14821,2,0,P|313:167|373:180,1,90
65,73,17426,1,0,0:0:0:0:
193,70,17860,1,0,0:0:0:0:
323,65,18294,6,0,L|475:65,2,135
469,163,20030,1,0,0:0:0:0:
356,164,20464,2,0,L|267:164,1,90
171,162,21332,1,0,0:0:0:0:
274,261,21766,6,0,L|126:261,2,135
373,240,23503,1,0,0:0:0:0:
372,123,23937,1,0,0:0:0:0:
499,116,24371,2,0,L|498:263,1,135
358,237,25456,5,0,0:0:0:0:
250,239,25890,2,0,L|253:107,1,90
260,37,26758,1,0,0:0:0:0:
153,38,27192,2,0,L|151:116,1,45
146,201,27843,5,0,0:0:0:0:
272,203,28278,2,0,L|276:18,1,180
383,42,29580,2,0,L|381:137,1,90
504,48,30448,2,0,L|503:236,1,180
473,305,31750,5,0,0:0:0:0:
354,308,32184,1,0,0:0:0:0:
353,203,32618,2,0,P|352:154|253:130,1,135
256,205,33704,1,0,0:0:0:0:
307,291,34138,6,0,P|235:299|164:176,1,225
237,113,35657,2,0,L|128:113,2,90
337,116,36959,1,0,0:0:0:0:
463,114,37393,1,0,0:0:0:0:
470,221,37827,6,0,L|395:223,2,45
417,312,38696,2,0,L|480:310,2,45
336,296,39564,1,0,0:0:0:0:
335,194,39998,2,0,L|337:65,1,90
257,91,40866,5,0,0:0:0:0:
164,156,41300,1,0,0:0:0:0:
233,222,41734,2,0,P|162:250|126:72,1,315
247,47,43688,1,0,0:0:0:0:
361,40,44122,6,0,L|360:179,1,135
367,281,45207,1,0,0:0:0:0:
242,282,45641,1,0,0:0:0:0:
256,192,46075,12,0,48462,0:0:0:0:
286,108,48896,5,0,0:0:0:0:
379,167,49331,1,0,0:0:0:0:
356,250,49765,2,0,L|172:252,1,180
139,332,51067,2,0,P|42:287|70:194,1,180
62,141,52369,5,0,0:0:0:0:
67,58,52803,2,0,P|120:79|149:165,1,135
176,244,53888,1,0,0:0:0:0:
275,186,54323,2,0,L|275:254,2,45
270,74,55191,5,0,0:0:0:0:
373,101,55625,2,0,L|374:26,2,45
367,196,56493,1,0,0:0:0:0:
500,184,56927,2,0,P|503:237|402:294,1,180
311,286,58229,5,0,0:0:0:0:
202,246,58663,1,0,0:0:0:0:
119,172,59097,2,0,L|213:122,1,90
153,38,59966,2,0,L|49:97,1,90
6,169,60834,6,0,L|130:320,1,180
225,232,62136,1,0,0:0:0:0:
337,230,62570,1,0,0:0:0:0:
456,232,63004,2,0,P|454:159|346:123,1,180
160,60,64306,6,0,L|157:125,2,45
257,53,65175,2,0,L|254:132,2,45
250,202,66043,1,0,0:0:0:0:
146,258,66477,2,0,P|188:290|316:288,1,180
388,192,67779,5,0,0:0:0:0:
292,128,68213,1,0,0:0:0:0:
180,126,68647,2,0,L|79:125,1,90
21,208,69515,1,0,0:0:0:0:
103,303,69950,5,0,0:0:0:0:
110,190,70384,2,0,P|112:134|192:95,1,135
271,97,71469,1,0,0:0:0:0:
373,99,71903,2,0,L|374:239,1,135
243,118,72988,6,0,L|243:239,1,90
160,87,73856,2,0,L|160:282,1,180
235,314,75158,1,0,0:0:0:0:
360,313,75593,1,0,0:0:0:0:
471,313,76027,6,0,P|469:256|367:199,1,180
211,163,77329,1,0,0:0:0:0:
94,161,77763,1,0,0:0:0:0:
100,45,78197,2,0,L|282:45,1,180
382,63,79499,5,0,0:0:0:0:
502,70,79933,1,0,0:0:0:0:
509,188,80367,2,0,L|338:188,1,135
221,252,81453,2,0,L|55:254,1,135
67,145,82538,5,0,0:0:0:0:
207,144,82972,2,0,L|442:145,1,225
451,240,84491,2,0,L|336:240,1,90
267,240,85359,2,0,L|192:239,2,45
