osu file format v14

[General]
AudioFilename: audio.mp3
AudioLeadIn: 0
PreviewTime: 48197
Countdown: 0
SampleSet: Normal
StackLeniency: 0.7
Mode: 0
LetterboxInBreaks: 0
WidescreenStoryboard: 1

[Editor]
Bookmarks: 15063,16854,28496,29615,31182,38346,49093,51220,58496,63421,65548,77749,83123,84914
DistanceSpacing: 1.2
BeatDivisor: 4
GridSize: 4
TimelineZoom: 1.2

[Metadata]
Title:Adrenaline!!!
TitleUnicode:Adrenaline!!!
Artist:TrySail
ArtistUnicode:TrySail
Creator:kintyan
Version:Hard
Source:エロマンガ先生
Tags:eromanga sensei Asakura Momo Amamiya Sora Natsukawa Shiina 麻倉もも 雨宮天 夏川椎菜 anime ed ending short
BeatmapID:1270081
BeatmapSetID:601018

[Difficulty]
HPDrainRate:5
CircleSize:4
OverallDifficulty:7
ApproachRate:8.3
SliderMultiplier:1.8
SliderTickRate:1

[Events]
//Background and Video events
0,0,"CzQwsHLVQAA5VQe.jpg",0,0
//Break Periods
//Storyboard Layer 0 (Background)
//Storyboard Layer 1 (Fail)
//Storyboard Layer 2 (Pass)
//Storyboard Layer 3 (Foreground)
//Storyboard Sound Samples

[TimingPoints]
735,447.761194029851,4,1,0,100,1,0
6108,-100,4,1,0,50,0,0
7899,-100,4,1,0,60,0,0
16854,-100,4,1,0,50,0,0
47302,-100,4,1,0,60,0,0
49093,-100,4,1,0,70,0,1
77749,-100,4,1,0,60,0,1
83123,-100,4,1,0,50,0,0
83235,-100,4,1,0,40,0,0

[Colours]
Combo1 : 65,252,158
Combo2 : 255,140,198
Combo3 : 128,255,255

[HitObjects]
32,160,6108,6,0,P|56:208|100:236,1,90
136,236,6443,2,0,P|188:228|232:240,1,90
256,280,6779,2,0,P|288:320|336:340,1,90
432,340,7227,1,0,0:0:0:0:
472,208,7451,2,0,P|476:168|468:108,1,90
352,164,7899,6,0,P|288:176|252:172,1,90
184,100,8346,2,0,L|152:56,1,45
124,48,8570,1,0,0:0:0:0:
88,48,8682,2,0,P|24:88|0:160,1,135
48,240,9242,1,0,0:0:0:0:
140,296,9466,1,0,0:0:0:0:
212,184,9690,6,0,P|264:176|308:188,1,90
368,100,10137,2,0,L|400:52,1,45
428,48,10361,1,0,0:0:0:0:
464,48,10473,2,0,P|492:88|508:180,1,135
408,212,11033,2,0,P|360:236|336:276,1,90
248,344,11481,2,0,P|220:296|224:256,1,90
272,168,11929,6,0,L|272:120,1,45
260,88,12152,1,0,0:0:0:0:
236,60,12264,2,0,P|188:56|96:88,1,135
40,168,12824,1,0,0:0:0:0:
148,180,13048,1,0,0:0:0:0:
40,264,13272,6,0,P|36:312|52:356,1,90
140,292,13720,2,0,L|200:260,1,45
216,264,13943,1,0,0:0:0:0:
252,272,14055,2,0,P|316:280|388:248,1,135
452,172,14615,5,0,0:0:0:0:
452,172,14727,1,0,0:0:0:0:
452,172,14839,1,0,0:0:0:0:
452,172,14951,1,0,0:0:0:0:
452,172,15063,6,0,L|456:60,1,90
356,40,15511,2,0,L|352:129,1,90
316,124,15846,1,0,0:0:0:0:
284,112,15958,2,0,P|248:104|224:108,3,45
208,120,16406,2,0,P|152:128|96:116,1,90
40,52,16854,5,0,0:0:0:0:
32,160,17078,2,0,L|32:212,1,45
36,240,17302,2,0,P|72:268|128:280,1,90
148,264,17637,2,0,P|208:268|284:308,1,135
372,352,18197,1,0,0:0:0:0:
368,244,18421,1,0,0:0:0:0:
320,148,18645,6,0,P|276:136|224:144,1,90
140,200,19093,1,0,0:0:0:0:
140,92,19317,2,0,L|172:40,1,45
192,32,19540,2,0,P|240:28|304:44,1,90
368,100,19988,2,0,P|412:107|456:103,2,90
284,172,20660,6,0,L|300:228,1,45
300,252,20884,2,0,P|256:264|196:260,1,90
180,244,21220,2,0,P|112:244|52:288,1,135
144,344,21779,1,0,0:0:0:0:
180,244,22003,1,0,0:0:0:0:
144,144,22227,2,0,P|144:88|156:48,1,90
288,60,22675,6,0,P|352:60|384:48,1,90
496,124,23123,2,0,P|451:120|407:132,1,90
464,288,23570,2,0,L|456:192,1,90
360,248,24018,1,0,0:0:0:0:
252,312,24242,2,0,L|208:320,1,45
172,324,24466,2,0,P|124:320|76:296,1,90
60,280,24802,2,0,P|40:220|56:140,1,135
136,84,25361,1,0,0:0:0:0:
236,128,25585,1,0,0:0:0:0:
220,236,25809,6,0,P|216:284|232:332,1,90
324,272,26257,1,0,0:0:0:0:
416,216,26481,2,0,L|460:188,1,45
484,176,26705,2,0,P|488:120|480:80,1,90
384,44,27152,1,0,0:0:0:0:
280,76,27376,1,0,0:0:0:0:
156,56,27600,6,0,P|100:56|56:72,1,90
48,96,27936,1,0,0:0:0:0:
32,128,28048,2,0,L|36:228,2,90
148,176,28720,1,0,0:0:0:0:
244,220,28943,2,0,P|296:228|332:220,2,90
292,92,29615,5,0,0:0:0:0:
400,92,29839,2,0,L|388:32,2,45
428,116,30175,2,0,P|464:156|476:244,1,135
392,300,30735,2,0,P|332:300|292:312,1,90
184,352,31182,5,0,0:0:0:0:
236,256,31406,1,0,0:0:0:0:
164,176,31630,2,0,P|152:132|164:84,1,90
260,40,32078,2,0,P|272:84|260:132,1,90
164,176,32526,1,0,0:0:0:0:
112,272,32749,1,0,0:0:0:0:
240,224,32973,2,0,P|292:216|332:220,2,90
292,320,33645,5,0,0:0:0:0:
396,292,33869,2,0,P|424:232|420:192,1,90
424,100,34317,2,0,L|372:16,1,90
312,112,34764,5,0,0:0:0:0:
212,68,34988,1,0,0:0:0:0:
128,136,35212,2,0,P|64:140|28:152,1,90
96,240,35660,2,0,P|139:229|184:228,1,90
276,284,36108,1,0,0:0:0:0:
372,332,36332,1,0,0:0:0:0:
368,224,36555,2,0,L|372:124,1,90
472,96,37003,2,0,L|468:196,1,90
476,296,37451,2,0,L|476:352,2,45
372,324,37899,2,0,P|320:320|276:324,1,90
176,304,38346,6,0,L|128:256,1,45
120,244,38570,2,0,L|132:192,1,45
136,164,38794,2,0,P|116:120|88:88,1,90
192,52,39242,2,0,L|256:80,1,45
268,80,39466,2,0,L|320:56|320:56,1,45
340,44,39690,2,0,P|392:56|432:88,1,90
344,152,40137,2,0,L|332:196,1,45
324,232,40361,2,0,L|344:272,1,45
348,308,40585,2,0,P|305:322|260:321,1,90
160,284,41033,6,0,P|92:268|16:284,2,135
128,160,41929,2,0,P|112:96|112:64,1,90
216,96,42376,2,0,P|288:100|320:88,1,90
332,76,42712,1,0,0:0:0:0:
360,52,42824,2,0,P|404:43|448:51,1,90
400,160,43272,2,0,L|352:248,1,90
320,236,43608,1,0,0:0:0:0:
288,220,43720,2,0,P|236:212|184:224,1,90
144,312,44167,6,0,P|196:320|248:308,1,90
268,304,44503,1,0,0:0:0:0:
304,312,44615,2,0,L|408:344,1,90
476,268,45063,2,0,P|484:224|476:164,1,90
392,84,45511,6,0,B|356:44|356:44|304:104|236:76,1,180
140,48,46182,1,0,0:0:0:0:
48,104,46406,2,0,P|100:144|140:148,1,90
224,184,46854,2,0,P|192:224|160:248,1,90
264,280,47302,2,0,P|324:280|404:248,2,135
161,247,48197,6,0,L|100:172,1,90
80,148,48533,1,0,0:0:0:0:
60,120,48645,2,0,P|52:76|64:24,1,90
