osu file format v14

[General]
AudioFilename: audio.mp3
AudioLeadIn: 0
PreviewTime: -1
Countdown: 0
SampleSet: None
StackLeniency: 0
Mode: 0
LetterboxInBreaks: 0
WidescreenStoryboard: 1

[Editor]
Bookmarks: 350,8350,16350,24350,32350,40350,48350,56350,64350,72350,80350,88350,96350,104350,112350,120350,128350,136350,143850,144350,144850,152350,160350,168350,176350,184350,192350,200350,208350,216350
DistanceSpacing: 0.7
BeatDivisor: 4
GridSize: 4
TimelineZoom: 4.199998

[Metadata]
Title:Revenge
TitleUnicode:Revenge
Artist:TryHardNinja ft. CaptainSparklez
ArtistUnicode:TryHardNinja ft. CaptainSparklez
Creator:WillCookie
Version:cs10
Source:
Tags:
BeatmapID:2126583
BeatmapSetID:1013083

[Difficulty]
HPDrainRate:5
CircleSize:10
OverallDifficulty:9.5
ApproachRate:9.6
SliderMultiplier:2.4
SliderTickRate:1

[Events]
//Background and Video events
0,0,"creeper.png",0,0
//Break Periods
2,136550,151841
2,208550,213841
//Storyboard Layer 0 (Background)
//Storyboard Layer 1 (Fail)
//Storyboard Layer 2 (Pass)
//Storyboard Layer 3 (Foreground)
//Storyboard Sound Samples

[TimingPoints]
350,500,4,2,0,100,1,0
24350,-66.6666666666667,4,2,0,100,0,0
40350,-33.3333333333333,4,2,0,100,0,1
56350,-50,4,2,0,100,0,1
64350,-33.3333333333333,4,2,0,100,0,1
72350,-100,4,2,0,100,0,0
88350,-66.6666666666667,4,2,0,100,0,0
104350,-25,4,2,0,100,0,1
120350,-33.3333333333333,4,2,0,100,0,1
128350,-25,4,2,0,100,0,1
136350,-66.6666666666667,4,2,0,100,0,0
152350,-200,4,2,0,100,0,0
160350,-133.333333333333,4,2,0,100,0,0
176350,-28.5714285714286,4,2,0,100,0,1
184350,-20,4,2,0,100,0,1
192350,-12.5,4,2,0,100,0,1
200350,-16.6666666666667,4,2,0,100,0,1
208350,-50,4,2,0,100,0,0
216350,62.5,4,2,0,100,1,0
216350,-12.5,4,2,0,100,0,0

[HitObjects]
117,122,350,5,0,0:0:0:0:
343,258,850,5,0,0:0:0:0:
345,62,1350,5,0,0:0:0:0:
184,121,1725,1,0,0:0:0:0:
117,280,2100,1,0,0:0:0:0:
215,220,2350,5,0,0:0:0:0:
404,332,2850,5,0,0:0:0:0:
370,54,3350,5,0,0:0:0:0:
342,242,3725,1,0,0:0:0:0:
158,324,4100,1,0,0:0:0:0:
190,184,4350,5,0,0:0:0:0:
414,105,4850,5,0,0:0:0:0:
95,52,5350,5,0,0:0:0:0:
110,277,5725,1,0,0:0:0:0:
201,26,6100,1,0,0:0:0:0:
337,105,6350,5,0,0:0:0:0:
92,238,6850,5,0,0:0:0:0:
396,289,7350,5,0,0:0:0:0:
129,213,7725,1,0,0:0:0:0:
465,173,8100,1,0,0:0:0:0:
350,80,8350,5,0,0:0:0:0:
240,206,8600,2,0,P|186:145|169:90,1,120
374,260,9100,1,0,0:0:0:0:
272,21,9350,6,0,P|244:99|235:158,1,120
301,283,9725,2,0,P|276:357|243:407,1,120
155,251,10100,1,0,0:0:0:0:
384,211,10350,5,0,0:0:0:0:
32,104,10600,1,0,0:0:0:0:
296,102,10850,5,0,0:0:0:0:
85,186,11100,1,0,0:0:0:0:
226,298,11350,5,0,0:0:0:0:
147,26,11600,2,0,L|215:58,1,60
287,158,11850,2,0,L|435:231,1,120
305,266,12225,1,0,0:0:0:0:
390,106,12350,6,0,P|359:42|303:4,1,120
99,309,12850,2,0,P|43:257|9:192,1,120
437,95,13350,2,0,P|404:37|365:-4,1,120
77,331,13850,1,0,0:0:0:0:
314,120,14100,6,0,P|273:68|250:12,1,120
218,348,14600,1,0,0:0:0:0:
184,164,14725,1,0,0:0:0:0:
81,266,14850,2,0,P|42:197|31:147,1,120
474,175,15350,6,0,P|414:244|334:304,1,180
306,159,15850,2,0,P|212:159|152:185,1,120
131,252,16225,1,0,0:0:0:0:
99,75,16350,6,0,P|196:70|243:76,1,120
367,208,16850,1,0,0:0:0:0:
126,164,17100,1,0,0:0:0:0:
470,154,17350,1,0,0:0:0:0:
131,261,17600,6,0,L|185:218,1,60
419,63,17850,1,0,0:0:0:0:
318,228,18100,1,0,0:0:0:0:
262,20,18350,6,0,P|276:85|261:149,1,120
407,367,18850,2,0,P|390:306|393:233,1,120
172,347,19350,5,0,0:0:0:0:
428,75,19600,1,0,0:0:0:0:
293,113,19725,1,0,0:0:0:0:
470,177,19850,1,0,0:0:0:0:
38,113,20100,1,0,0:0:0:0:
115,209,20225,1,0,0:0:0:0:
50,319,20350,6,0,P|129:321|185:309,1,120
307,28,20850,2,0,P|388:23|441:33,1,120
16,368,21350,2,0,P|88:369|154:355,1,120
360,28,21850,1,0,0:0:0:0:
265,365,22100,6,0,P|334:360|395:369,1,120
143,23,22600,1,0,0:0:0:0:
268,77,22725,1,0,0:0:0:0:
20,75,22850,2,0,P|97:88|158:80,1,120
410,91,23350,6,0,P|330:213|271:249,1,180
190,29,23850,1,0,0:0:0:0:
481,362,24100,1,0,0:0:0:0:
338,308,24225,1,0,0:0:0:0:
157,359,24350,6,0,P|88:278|51:198,1,180.000006866455
343,169,24850,2,0,P|330:69|288:-6,1,180.000006866455
172,307,25350,6,0,L|201:108,1,180.000006866455
277,382,25725,2,0,L|306:183,1,180.000006866455
403,340,26100,1,0,0:0:0:0:
380,24,26350,5,0,0:0:0:0:
177,344,26600,1,0,0:0:0:0:
251,20,26850,5,0,0:0:0:0:
233,357,27100,1,0,0:0:0:0:
204,24,27350,5,0,0:0:0:0:
79,350,27600,2,0,L|139:273,1,90.0000034332277
310,20,27850,5,0,0:0:0:0:
413,349,28100,1,0,0:0:0:0:
444,209,28225,1,0,0:0:0:0:
265,236,28350,6,0,P|168:199|102:137,1,180.000006866455
445,41,28850,2,0,P|357:89|264:99,1,180.000006866455
301,349,29350,6,0,L|113:298,1,180.000006866455
221,231,29725,2,0,L|33:180,1,180.000006866455
315,155,30100,2,0,L|484:201,1,90.0000034332277
312,289,30350,5,0,0:0:0:0:
225,36,30600,1,0,0:0:0:0:
208,329,30850,5,0,0:0:0:0:
317,18,31100,1,0,0:0:0:0:
97,178,31350,6,0,L|112:279,1,90.0000034332277
338,351,31600,2,0,L|317:263,1,90.0000034332277
57,324,31850,5,0,0:0:0:0:
389,205,32100,1,0,0:0:0:0:
441,107,32225,1,0,0:0:0:0:
302,178,32350,6,0,P|229:110|185:35,1,180.000006866455
437,150,32850,1,0,0:0:0:0:
127,283,33100,1,0,0:0:0:0:
320,24,33350,1,0,0:0:0:0:
295,349,33600,1,0,0:0:0:0:
104,73,33850,2,0,P|53:166|37:253,1,180.000006866455
243,160,34350,5,0,0:0:0:0:
83,322,34600,1,0,0:0:0:0:
191,23,34850,1,0,0:0:0:0:
219,362,35100,1,0,0:0:0:0:
454,80,35350,1,0,0:0:0:0:
112,214,35600,1,0,0:0:0:0:
481,337,35850,2,0,P|393:277|345:207,1,180.000006866455
392,106,36225,1,0,0:0:0:0:
297,20,36350,6,0,P|240:115|168:170,1,180.000006866455
479,154,36850,2,0,P|403:232|372:318,1,180.000006866455
98,64,37350,2,0,P|12:115|-78:132,1,180.000006866455
477,354,37850,2,0,P|424:378|401:407,1,90.0000034332277
446,22,38100,6,0,L|238:69,1,180.000006866455
260,326,38600,6,0,L|144:320,1,90.0000034332277
164,18,38850,6,0,L|-29:124,1,180.000006866455
202,109,39350,5,0,0:0:0:0:
225,348,39600,5,0,0:0:0:0:
18,138,39850,5,0,0:0:0:0:
379,262,40100,5,0,0:0:0:0:
80,67,40350,5,0,0:0:0:0:
143,222,40475,1,0,0:0:0:0:
156,41,40600,1,0,0:0:0:0:
67,246,40725,1,0,0:0:0:0:
235,103,40850,6,0,L|443:60,1,180.000006866455
292,338,41100,1,0,0:0:0:0:
294,33,41225,2,0,L|439:-73,1,180.000006866455
370,364,41475,1,0,0:0:0:0:
208,73,41600,2,0,L|301:-87,1,180.000006866455
266,351,41850,1,0,0:0:0:0:
497,97,41975,1,0,0:0:0:0:
28,309,42100,1,0,0:0:0:0:
364,257,42225,1,0,0:0:0:0:
73,186,42350,6,0,L|324:235,1,180.000006866455
250,80,42600,2,0,L|509:16,1,180.000006866455
45,335,42850,2,0,L|284:362,1,180.000006866455
460,236,43100,2,0,L|692:193,1,180.000006866455
431,41,43350,5,0,0:0:0:0:
370,348,43475,1,0,0:0:0:0:
345,13,43600,5,0,0:0:0:0:
207,328,43725,1,0,0:0:0:0:
183,11,43850,5,0,0:0:0:0:
120,353,43975,1,0,0:0:0:0:
39,57,44100,5,0,0:0:0:0:
305,345,44225,1,0,0:0:0:0:
468,79,44350,6,0,P|361:47|255:55,1,180.000006866455
11,185,44600,2,0,P|132:132|212:128,1,180.000006866455
486,248,44850,5,0,0:0:0:0:
115,335,44975,1,0,0:0:0:0:
352,208,45100,2,0,P|237:170|116:172,1,180.000006866455
372,109,45350,5,0,0:0:0:0:
106,235,45475,1,0,0:0:0:0:
495,346,45600,2,0,L|275:361,1,180.000006866455
339,15,45850,2,0,L|90:88,1,180.000006866455
492,288,46100,2,0,L|301:382,1,180.000006866455
75,12,46350,2,0,L|-67:135,1,180.000006866455
108,113,46600,6,0,L|323:61,1,180.000006866455
166,298,46850,1,0,0:0:0:0:
132,8,46975,1,0,0:0:0:0:
406,168,47100,2,0,P|372:292|287:357,1,180.000006866455
350,89,47350,5,0,0:0:0:0:
274,337,47475,1,0,0:0:0:0:
277,42,47600,1,0,0:0:0:0:
378,352,47725,1,0,0:0:0:0:
447,37,47850,5,0,0:0:0:0:
199,354,47975,1,0,0:0:0:0:
421,174,48100,1,0,0:0:0:0:
11,282,48225,1,0,0:0:0:0:
362,24,48350,6,0,L|477:223,1,180.000006866455
90,158,48600,2,0,L|168:349,1,180.000006866455
460,265,48850,5,0,0:0:0:0:
232,70,48975,1,0,0:0:0:0:
323,275,49100,1,0,0:0:0:0:
41,26,49225,1,0,0:0:0:0:
310,17,49350,5,0,0:0:0:0:
90,274,49475,1,0,0:0:0:0:
425,96,49600,1,0,0:0:0:0:
419,379,49725,1,0,0:0:0:0:
195,86,49850,6,0,P|168:209|167:316,1,180.000006866455
383,14,50100,1,0,0:0:0:0:
19,306,50225,1,0,0:0:0:0:
493,122,50350,6,0,P|460:222|401:315,1,180.000006866455
319,62,50600,1,0,0:0:0:0:
101,170,50725,1,0,0:0:0:0:
335,203,50850,6,0,P|275:282|231:367,1,180.000006866455
209,21,51100,2,0,P|183:118|179:217,1,180.000006866455
319,41,51350,5,0,0:0:0:0:
216,345,51475,1,0,0:0:0:0:
361,44,51600,1,0,0:0:0:0:
143,340,51725,1,0,0:0:0:0:
350,22,51850,1,0,0:0:0:0:
305,367,51975,1,0,0:0:0:0:
415,18,52100,1,0,0:0:0:0:
14,268,52225,1,0,0:0:0:0:
423,120,52350,6,0,P|441:246|430:329,2,180.000006866455
190,300,52725,1,0,0:0:0:0:
144,4,52850,2,0,P|81:77|30:179,2,180.000006866455
245,275,53225,1,0,0:0:0:0:
467,22,53350,6,0,P|508:155|506:225,1,180.000006866455
130,354,53600,2,0,P|94:240|92:135,1,180.000006866455
396,300,53850,5,0,0:0:0:0:
143,87,53975,1,0,0:0:0:0:
465,126,54100,1,0,0:0:0:0:
56,225,54225,1,0,0:0:0:0:
331,11,54350,6,0,L|417:200,1,180.000006866455
161,341,54600,2,0,L|76:103,1,180.000006866455
403,292,54850,5,0,0:0:0:0:
214,52,54975,1,0,0:0:0:0:
403,292,55100,5,0,0:0:0:0:
214,52,55225,1,0,0:0:0:0:
403,292,55350,5,0,0:0:0:0:
214,52,55475,1,0,0:0:0:0:
403,292,55600,5,0,0:0:0:0:
214,52,55725,1,0,0:0:0:0:
403,292,55850,6,0,L|437:258,7,45.0000017166138
372,158,56100,2,0,L|395:93,7,45.0000017166138
307,33,56350,5,0,0:0:0:0:
265,190,56475,1,0,0:0:0:0:
119,121,56600,2,0,P|97:180|39:251,1,120
231,285,56850,5,0,0:0:0:0:
199,66,56975,1,0,0:0:0:0:
321,181,57100,2,0,P|383:138|425:93,1,120
427,304,57350,6,0,P|330:286|268:259,1,120
116,160,57600,1,0,0:0:0:0:
427,304,57725,6,0,P|351:239|311:185,1,120
229,23,57975,1,0,0:0:0:0:
75,68,58100,1,0,0:0:0:0:
372,102,58225,1,0,0:0:0:0:
139,146,58350,6,0,L|277:157,1,120
479,289,58600,2,0,L|326:277,1,120
90,97,58850,2,0,L|215:88,1,120
506,341,59100,2,0,L|353:355,1,120
400,124,59350,5,0,0:0:0:0:
276,302,59475,1,0,0:0:0:0:
297,28,59600,1,0,0:0:0:0:
364,337,59725,5,0,0:0:0:0:
269,59,59850,1,0,0:0:0:0:
234,250,59975,2,0,P|152:226|63:165,2,120
386,233,60350,5,0,0:0:0:0:
186,131,60475,1,0,0:0:0:0:
383,130,60600,1,0,0:0:0:0:
81,236,60725,1,0,0:0:0:0:
435,204,60850,5,0,0:0:0:0:
76,95,60975,1,0,0:0:0:0:
484,149,61100,5,0,0:0:0:0:
37,281,61225,1,0,0:0:0:0:
423,302,61350,6,0,P|446:233|448:140,1,120
35,191,61600,2,0,P|35:95|53:19,1,120
494,13,61850,2,0,P|505:89|503:150,1,120
79,364,62100,2,0,P|68:299|69:226,1,120
310,303,62350,6,0,P|368:240|395:189,1,120
121,59,62600,1,0,0:0:0:0:
121,59,62725,1,0,0:0:0:0:
463,251,62850,6,0,P|481:165|471:91,1,120
82,249,63100,1,0,0:0:0:0:
82,249,63225,1,0,0:0:0:0:
308,178,63350,5,0,0:0:0:0:
79,328,63475,1,0,0:0:0:0:
221,57,63600,5,0,0:0:0:0:
110,355,63725,1,0,0:0:0:0:
473,233,63850,5,0,0:0:0:0:
55,342,63975,1,0,0:0:0:0:
363,9,64100,5,0,0:0:0:0:
55,370,64225,1,0,0:0:0:0:
491,52,64350,6,0,P|439:149|328:238,1,180.000006866455
36,187,64600,2,0,P|115:91|201:30,1,180.000006866455
485,180,64850,5,0,0:0:0:0:
309,338,64975,1,0,0:0:0:0:
262,8,65100,2,0,L|45:15,1,180.000006866455
327,116,65350,2,0,L|590:92,1,180.000006866455
100,215,65600,2,0,L|-152:338,1,180.000006866455
262,321,65850,1,0,0:0:0:0:
42,37,65975,1,0,0:0:0:0:
457,286,66100,2,0,P|453:178|423:81,1,180.000006866455
319,351,66350,5,0,0:0:0:0:
363,20,66475,1,0,0:0:0:0:
218,349,66600,5,0,0:0:0:0:
261,28,66725,1,0,0:0:0:0:
117,344,66850,5,0,0:0:0:0:
159,57,66975,1,0,0:0:0:0:
15,330,67100,5,0,0:0:0:0:
467,14,67225,1,0,0:0:0:0:
270,297,67350,5,0,0:0:0:0:
78,75,67475,1,0,0:0:0:0:
462,260,67600,2,0,P|443:156|385:71,1,180.000006866455
335,343,67850,5,0,0:0:0:0:
293,19,67975,1,0,0:0:0:0:
157,314,68100,2,0,P|161:186|188:71,1,180.000006866455
368,236,68350,5,0,0:0:0:0:
112,183,68475,1,0,0:0:0:0:
426,193,68600,1,0,0:0:0:0:
87,243,68725,1,0,0:0:0:0:
432,275,68850,5,0,0:0:0:0:
68,197,68975,1,0,0:0:0:0:
457,160,69100,5,0,0:0:0:0:
45,274,69225,1,0,0:0:0:0:
476,315,69350,5,0,0:0:0:0:
52,155,69475,1,0,0:0:0:0:
383,348,69600,5,0,0:0:0:0:
103,61,69725,1,0,0:0:0:0:
272,366,69850,5,0,0:0:0:0:
206,2,69975,1,0,0:0:0:0:
148,362,70100,5,0,0:0:0:0:
343,0,70225,1,0,0:0:0:0:
28,319,70350,5,0,0:0:0:0:
464,31,70475,1,0,0:0:0:0:
315,260,70600,1,0,0:0:0:0:
208,63,70725,1,0,0:0:0:0:
251,353,70850,5,0,0:0:0:0:
316,3,70975,1,0,0:0:0:0:
251,353,71100,5,0,0:0:0:0:
316,3,71225,1,0,0:0:0:0:
251,353,71350,5,0,0:0:0:0:
316,3,71475,1,0,0:0:0:0:
251,353,71600,5,0,0:0:0:0:
316,3,71725,1,0,0:0:0:0:
73,217,71850,6,0,L|125:231,15,45.0000017166138
110,173,72350,5,0,0:0:0:0:
419,315,72600,1,0,0:0:0:0:
187,202,72850,5,0,0:0:0:0:
494,199,73100,1,0,0:0:0:0:
120,308,73350,6,0,L|255:264,1,120
255,170,73725,2,0,L|390:126,1,120
475,180,74100,1,0,0:0:0:0:
361,317,74350,5,0,0:0:0:0:
429,46,74600,1,0,0:0:0:0:
267,198,74850,2,0,P|208:136|189:86,1,120
391,146,75350,5,0,0:0:0:0:
85,318,75600,1,0,0:0:0:0:
204,366,75725,1,0,0:0:0:0:
121,210,75850,2,0,L|203:220,1,60
300,316,76100,2,0,L|381:298,1,60
478,209,76350,6,0,L|374:135,1,120
171,300,76850,2,0,L|109:186,1,120
437,66,77350,2,0,L|292:25,1,120
70,291,77850,5,0,0:0:0:0:
362,352,78100,2,0,L|392:226,1,120
131,202,78600,2,0,L|112:126,1,60
419,140,78850,2,0,L|449:14,1,120
302,214,79350,6,0,P|240:275|108:293,1,180
208,181,79850,1,0,0:0:0:0:
425,354,80100,5,0,0:0:0:0:
358,237,80225,1,0,0:0:0:0:
447,108,80350,6,0,P|399:64|333:36,1,120
284,247,80850,1,0,0:0:0:0:
157,28,81100,2,0,L|116:93,1,60
143,186,81350,2,0,P|101:233|41:267,1,120
242,383,81850,1,0,0:0:0:0:
217,113,82100,1,0,0:0:0:0:
437,222,82350,6,0,P|381:267|323:289,1,120
225,80,82850,2,0,P|157:109|103:152,1,120
379,43,83350,6,0,P|369:126|343:188,1,120
237,112,83725,1,0,0:0:0:0:
205,268,83850,2,0,P|119:231|72:192,1,120
252,168,84225,1,0,0:0:0:0:
122,83,84350,6,0,P|137:152|171:207,1,120
365,128,84850,2,0,P|386:210|385:261,1,120
74,301,85350,2,0,P|133:345|194:362,1,120
481,146,85850,2,0,P|485:218|475:238,1,60
451,304,86100,6,0,P|383:273|345:237,1,120
55,150,86600,2,0,L|106:212,1,60
245,318,86850,2,0,P|228:241|203:190,1,120
403,28,87350,2,0,P|325:29|208:67,1,180
354,131,87850,1,0,0:0:0:0:
95,333,88100,5,0,0:0:0:0:
72,150,88225,1,0,0:0:0:0:
195,269,88350,2,0,P|251:189|276:97,1,180.000006866455
455,346,88850,2,0,P|443:240|408:155,1,180.000006866455
169,370,89350,6,0,L|250:192,1,180.000006866455
392,141,89725,2,0,L|311:324,1,180.000006866455
237,105,90100,2,0,L|277:222,1,90.0000034332277
397,293,90350,5,0,0:0:0:0:
74,193,90600,1,0,0:0:0:0:
471,151,90850,5,0,0:0:0:0:
115,287,91100,1,0,0:0:0:0:
372,11,91350,5,0,0:0:0:0:
220,357,91600,1,0,0:0:0:0:
119,50,91850,1,0,0:0:0:0:
410,227,92100,2,0,L|394:111,1,90.0000034332277
317,268,92350,6,0,P|286:152|225:71,2,180.000006866455
65,38,93100,5,0,0:0:0:0:
465,78,93350,2,0,L|300:178,1,180.000006866455
189,144,93725,2,0,L|24:244,1,180.000006866455
317,249,94100,2,0,L|166:341,1,90.0000034332277
415,333,94350,5,0,0:0:0:0:
332,26,94600,1,0,0:0:0:0:
280,300,94850,1,0,0:0:0:0:
240,80,95100,1,0,0:0:0:0:
157,359,95350,6,0,L|109:284,1,90.0000034332277
330,293,95600,2,0,L|385:193,1,90.0000034332277
135,128,95850,5,0,0:0:0:0:
477,363,96100,2,0,L|383:294,1,90.0000034332277
67,62,96350,5,0,0:0:0:0:
435,152,96600,1,0,0:0:0:0:
37,164,96850,1,0,0:0:0:0:
363,82,97100,1,0,0:0:0:0:
127,202,97350,1,0,0:0:0:0:
468,258,97600,2,0,L|347:278,1,90.0000034332277
200,299,97850,2,0,P|319:152|342:59,1,270.000010299683
221,43,98350,5,0,0:0:0:0:
300,336,98600,1,0,0:0:0:0:
332,8,98850,1,0,0:0:0:0:
235,271,99100,1,0,0:0:0:0:
135,22,99350,1,0,0:0:0:0:
383,313,99600,1,0,0:0:0:0:
78,164,99850,2,0,P|137:173|209:168,1,90.0000034332277
484,212,100100,2,0,P|428:221|379:220,1,90.0000034332277
142,268,100350,6,0,L|194:70,1,180.000006866455
419,345,100850,6,0,L|362:139,1,180.000006866455
41,152,101350,6,0,L|106:-50,1,180.000006866455
452,37,101850,6,0,L|424:137,1,90.0000034332277
292,266,102100,6,0,L|341:64,1,180.000006866455
35,315,102600,6,0,L|74:209,1,90.0000034332277
218,174,102850,6,0,L|266:-11,1,180.000006866455
309,318,103350,5,0,0:0:0:0:
112,174,103600,5,0,0:0:0:0:
480,356,103850,5,0,0:0:0:0:
17,17,104100,5,0,0:0:0:0:
480,149,104350,6,0,P|395:277|299:348,1,240
379,2,104600,2,0,P|255:97|112:122,1,240
432,122,104850,5,0,0:0:0:0:
100,266,104975,1,0,0:0:0:0:
368,238,105100,5,0,0:0:0:0:
44,153,105225,1,0,0:0:0:0:
486,282,105350,6,0,L|269:398,1,240
411,9,105600,1,0,0:0:0:0:
265,293,105725,2,0,L|-58:202,1,240
497,62,105975,1,0,0:0:0:0:
119,142,106100,1,0,0:0:0:0:
423,145,106225,1,0,0:0:0:0:
191,28,106350,6,0,P|160:184|161:324,1,240
485,160,106600,2,0,P|481:310|457:407,1,240
42,60,106850,6,0,P|81:217|144:329,1,240
386,26,107100,1,0,0:0:0:0:
273,369,107225,1,0,0:0:0:0:
186,58,107350,6,0,P|332:131|436:153,2,240
361,318,107725,1,0,0:0:0:0:
18,176,107850,5,0,0:0:0:0:
488,253,107975,1,0,0:0:0:0:
140,275,108100,2,0,P|274:224|365:132,1,240
226,57,108350,5,0,0:0:0:0:
267,363,108475,1,0,0:0:0:0:
119,65,108600,5,0,0:0:0:0:
380,361,108725,1,0,0:0:0:0:
27,136,108850,5,0,0:0:0:0:
473,314,108975,1,0,0:0:0:0:
2,262,109100,5,0,0:0:0:0:
510,200,109225,1,0,0:0:0:0:
90,369,109350,6,0,L|165:95,1,240
480,226,109600,2,0,L|421:-39,1,240
92,52,109850,5,0,0:0:0:0:
361,345,109975,1,0,0:0:0:0:
283,105,110100,2,0,P|228:222|206:353,1,240
428,175,110350,5,0,0:0:0:0:
83,289,110475,1,0,0:0:0:0:
345,120,110600,1,0,0:0:0:0:
162,338,110725,1,0,0:0:0:0:
342,229,110850,5,0,0:0:0:0:
118,216,110975,1,0,0:0:0:0:
426,344,111100,1,0,0:0:0:0:
55,85,111225,1,0,0:0:0:0:
425,169,111350,5,0,0:0:0:0:
123,319,111475,1,0,0:0:0:0:
425,169,111600,5,0,0:0:0:0:
17,261,111725,1,0,0:0:0:0:
425,169,111850,6,0,P|519:275|549:382,1,240
59,173,112100,2,0,P|-46:66|-78:-29,1,240
168,292,112350,5,0,0:0:0:0:
405,20,112475,1,0,0:0:0:0:
302,354,112600,1,0,0:0:0:0:
245,68,112725,1,0,0:0:0:0:
399,273,112850,6,0,P|461:169|501:38,1,240
263,369,113100,2,0,P|204:221|190:104,1,240
394,335,113350,5,0,0:0:0:0:
92,222,113475,1,0,0:0:0:0:
316,226,113600,1,0,0:0:0:0:
50,126,113725,5,0,0:0:0:0:
432,156,113850,1,0,0:0:0:0:
226,58,113975,1,0,0:0:0:0:
306,349,114100,2,0,P|188:233|139:148,1,240
383,58,114350,6,0,L|99:26,1,240
271,128,114600,2,0,L|-64:142,1,240
332,219,114850,2,0,L|12:275,1,240
466,357,115100,2,0,L|130:309,1,240
433,211,115350,5,0,0:0:0:0:
150,357,115475,1,0,0:0:0:0:
283,93,115600,1,0,0:0:0:0:
267,342,115725,1,0,0:0:0:0:
146,50,115850,1,0,0:0:0:0:
395,322,115975,1,0,0:0:0:0:
326,17,116100,1,0,0:0:0:0:
82,308,116225,1,0,0:0:0:0:
399,113,116350,6,0,P|320:219|194:297,3,240
163,51,116850,2,0,P|76:134|-36:302,1,240
459,311,117100,2,0,P|325:348|148:356,1,240
24,4,117350,2,0,P|-76:166|-92:279,3,240
368,44,117850,2,0,P|412:186|403:325,1,240
34,175,118100,2,0,P|-29:299|-49:407,1,240
321,334,118350,5,0,0:0:0:0:
39,108,118475,1,0,0:0:0:0:
395,117,118600,1,0,0:0:0:0:
34,318,118725,1,0,0:0:0:0:
282,9,118850,5,0,0:0:0:0:
153,310,118975,1,0,0:0:0:0:
282,9,119100,5,0,0:0:0:0:
153,310,119225,1,0,0:0:0:0:
282,9,119350,5,0,0:0:0:0:
153,310,119475,1,0,0:0:0:0:
282,9,119600,5,0,0:0:0:0:
153,310,119725,1,0,0:0:0:0:
94,96,119850,6,0,L|196:0,1,120
206,117,119975,2,0,L|334:61,1,120
293,182,120100,2,0,L|432:174,1,120
361,272,120225,2,0,L|495:312,1,120
414,377,120350,5,0,0:0:0:0:
137,203,120475,1,0,0:0:0:0:
429,251,120600,2,0,P|414:111|382:38,1,180.000006866455
295,289,120850,5,0,0:0:0:0:
29,330,120975,1,0,0:0:0:0:
392,231,121100,1,0,0:0:0:0:
23,149,121225,1,0,0:0:0:0:
260,13,121350,6,0,P|370:68|434:122,1,180.000006866455
205,311,121600,1,0,0:0:0:0:
64,43,121725,2,0,P|186:46|294:88,1,180.000006866455
95,355,121975,1,0,0:0:0:0:
174,6,122100,1,0,0:0:0:0:
326,375,122225,1,0,0:0:0:0:
406,38,122350,6,0,P|432:137|425:256,1,180.000006866455
177,111,122600,2,0,P|101:223|42:268,1,180.000006866455
330,288,122850,5,0,0:0:0:0:
85,75,122975,1,0,0:0:0:0:
373,102,123100,1,0,0:0:0:0:
39,315,123225,1,0,0:0:0:0:
307,29,123350,5,0,0:0:0:0:
197,353,123475,1,0,0:0:0:0:
328,106,123600,1,0,0:0:0:0:
128,302,123725,5,0,0:0:0:0:
397,17,123850,1,0,0:0:0:0:
261,361,123975,1,0,0:0:0:0:
150,48,124100,5,0,0:0:0:0:
461,288,124225,1,0,0:0:0:0:
46,244,124350,6,0,P|185:243|280:216,1,180.000006866455
311,49,124600,2,0,P|400:135|437:231,1,180.000006866455
239,324,124850,5,0,0:0:0:0:
412,28,124975,1,0,0:0:0:0:
366,269,125100,1,0,0:0:0:0:
137,34,125225,1,0,0:0:0:0:
502,180,125350,6,0,P|445:305|361:360,1,180.000006866455
152,112,125600,2,0,P|232:18|308:-45,1,180.000006866455
307,337,125850,5,0,0:0:0:0:
78,65,125975,1,0,0:0:0:0:
252,294,126100,5,0,0:0:0:0:
452,13,126225,1,0,0:0:0:0:
170,168,126350,6,0,P|141:285|143:375,3,180.000006866455
326,222,126850,2,0,P|345:105|334:29,1,180.000006866455
36,185,127100,2,0,P|35:303|55:381,1,180.000006866455
381,315,127350,5,0,0:0:0:0:
48,46,127475,1,0,0:0:0:0:
431,244,127600,5,0,0:0:0:0:
11,236,127725,1,0,0:0:0:0:
412,353,127850,5,0,0:0:0:0:
188,14,127975,1,0,0:0:0:0:
510,185,128100,5,0,0:0:0:0:
17,317,128225,1,0,0:0:0:0:
429,17,128350,6,0,P|374:182|276:282,2,240
396,351,128725,1,0,0:0:0:0:
219,26,128850,2,0,P|229:218|202:328,2,240
491,328,129225,1,0,0:0:0:0:
106,135,129350,5,0,0:0:0:0:
476,238,129475,1,0,0:0:0:0:
147,235,129600,1,0,0:0:0:0:
510,145,129725,1,0,0:0:0:0:
84,308,129850,5,0,0:0:0:0:
471,88,129975,1,0,0:0:0:0:
40,243,130100,1,0,0:0:0:0:
500,195,130225,1,0,0:0:0:0:
149,9,130350,6,0,L|130:311,1,240
416,43,130600,2,0,L|461:407,1,240
63,82,130850,2,0,L|31:378,1,240
510,120,131100,2,0,L|543:407,1,240
39,17,131350,5,0,0:0:0:0:
424,351,131475,1,0,0:0:0:0:
199,333,131600,2,0,P|265:223|375:138,1,240
387,364,131850,5,0,0:0:0:0:
503,60,131975,1,0,0:0:0:0:
133,298,132100,2,0,P|141:185|194:60,1,240
346,260,132350,5,0,0:0:0:0:
86,26,132475,1,0,0:0:0:0:
418,199,132600,1,0,0:0:0:0:
21,160,132725,1,0,0:0:0:0:
354,353,132850,5,0,0:0:0:0:
179,4,132975,1,0,0:0:0:0:
461,371,133100,1,0,0:0:0:0:
121,11,133225,1,0,0:0:0:0:
460,48,133350,6,0,L|499:303,1,240
97,352,133600,2,0,L|63:34,1,240
437,290,133850,5,0,0:0:0:0:
158,106,133975,1,0,0:0:0:0:
501,207,134100,1,0,0:0:0:0:
49,188,134225,1,0,0:0:0:0:
454,44,134350,6,0,L|385:30,15,60
356,98,134850,2,0,L|287:84,15,60
225,172,135350,2,0,L|156:158,15,60
76,272,135850,2,0,L|7:258,15,60
130,373,136350,1,0,0:0:0:0:
75,81,152350,6,0,L|450:88,1,360
19,375,154350,6,0,P|241:310|332:215,1,360
165,77,156350,6,0,B|186:175|291:184|308:158|315:82|269:85|208:63|189:220,1,360
256,192,158350,12,0,160100,0:0:0:0:
300,304,160350,5,0,0:0:0:0:
143,290,160850,5,0,0:0:0:0:
472,40,161350,5,0,0:0:0:0:
310,57,161725,5,0,0:0:0:0:
124,40,162100,5,0,0:0:0:0:
246,229,162350,5,0,0:0:0:0:
425,269,162850,5,0,0:0:0:0:
75,37,163350,5,0,0:0:0:0:
263,59,163725,5,0,0:0:0:0:
470,29,164100,5,0,0:0:0:0:
139,330,164350,5,0,0:0:0:0:
363,351,164850,5,0,0:0:0:0:
439,34,165350,5,0,0:0:0:0:
240,62,165725,5,0,0:0:0:0:
49,21,166100,5,0,0:0:0:0:
362,309,166350,5,0,0:0:0:0:
65,306,166850,5,0,0:0:0:0:
463,328,167350,5,0,0:0:0:0:
495,18,167725,5,0,0:0:0:0:
140,41,168100,5,0,0:0:0:0:
441,201,168350,6,0,L|259:192,1,180.000006866455
61,42,169350,6,0,L|142:45,1,45.0000017166138
232,353,169725,6,0,L|304:351,1,45.0000017166138
369,16,170100,6,0,L|418:15,1,45.0000017166138
395,258,170350,6,0,L|194:255,1,180.000006866455
126,26,171350,6,0,L|201:28,1,45.0000017166138
394,358,171725,6,0,L|459:357,1,45.0000017166138
265,22,172100,6,0,L|314:25,1,45.0000017166138
241,280,172350,6,0,L|48:278,1,180.000006866455
491,18,173350,6,0,L|428:19,1,45.0000017166138
339,375,173725,6,0,L|253:375,1,45.0000017166138
123,4,174100,6,0,L|59:5,1,45.0000017166138
256,192,174350,5,0,0:0:0:0:
256,192,174850,5,0,0:0:0:0:
256,192,175350,5,0,0:0:0:0:
256,192,175725,5,0,0:0:0:0:
256,192,176100,5,0,0:0:0:0:
74,326,176350,6,0,P|73:195|103:93,1,210.000002002716
342,326,176600,1,0,0:0:0:0:
74,29,176725,1,0,0:0:0:0:
308,248,176850,2,0,P|365:136|386:29,1,210.000002002716
81,86,177100,2,0,P|20:222|-5:322,1,210.000002002716
438,226,177350,5,0,0:0:0:0:
65,343,177475,1,0,0:0:0:0:
231,285,177600,1,0,0:0:0:0:
491,351,177725,5,0,0:0:0:0:
50,177,177850,1,0,0:0:0:0:
222,130,177975,1,0,0:0:0:0:
447,257,178100,6,0,P|478:137|466:27,1,210.000002002716
325,160,178350,5,0,0:0:0:0:
181,350,178475,1,0,0:0:0:0:
138,6,178600,2,0,P|165:135|220:224,1,210.000002002716
359,28,178850,5,0,0:0:0:0:
40,167,178975,1,0,0:0:0:0:
465,258,179100,1,0,0:0:0:0:
132,325,179225,1,0,0:0:0:0:
491,89,179350,6,0,L|305:97,1,105.000001001358
22,44,179475,2,0,L|149:38,1,105.000001001358
458,180,179600,2,0,L|307:186,1,105.000001001358
94,115,179725,2,0,L|212:109,1,105.000001001358
442,23,179850,5,0,0:0:0:0:
281,341,179975,1,0,0:0:0:0:
222,13,180100,5,0,0:0:0:0:
213,378,180225,1,0,0:0:0:0:
77,8,180350,6,0,P|1:137|-16:249,1,210.000002002716
448,353,180600,1,0,0:0:0:0:
171,162,180725,1,0,0:0:0:0:
442,23,180850,6,0,P|486:142|483:258,1,210.000002002716
114,342,181100,2,0,P|83:217|81:102,1,210.000002002716
388,256,181350,5,0,0:0:0:0:
133,66,181475,1,0,0:0:0:0:
499,190,181600,1,0,0:0:0:0:
166,197,181725,1,0,0:0:0:0:
386,25,181850,5,0,0:0:0:0:
173,325,181975,1,0,0:0:0:0:
453,138,182100,1,0,0:0:0:0:
59,221,182225,1,0,0:0:0:0:
316,82,182350,6,0,L|46:51,1,210.000002002716
341,222,182600,2,0,L|609:177,1,210.000002002716
180,10,182850,2,0,L|-82:73,1,210.000002002716
503,282,183100,2,0,L|696:201,1,210.000002002716
48,118,183350,5,0,0:0:0:0:
493,211,183475,1,0,0:0:0:0:
11,198,183600,5,0,0:0:0:0:
490,139,183725,1,0,0:0:0:0:
12,75,183850,5,0,0:0:0:0:
463,255,183975,1,0,0:0:0:0:
5,291,184100,5,0,0:0:0:0:
504,77,184225,1,0,0:0:0:0:
191,13,184350,6,0,L|174:373,1,300
379,77,184600,2,0,L|415:407,1,300
63,104,184850,5,0,0:0:0:0:
496,182,184975,1,0,0:0:0:0:
233,344,185100,1,0,0:0:0:0:
405,6,185225,1,0,0:0:0:0:
66,269,185350,6,0,P|241:275|419:254,1,300
85,22,185600,1,0,0:0:0:0:
490,160,185725,2,0,P|328:240|181:271,1,300
398,6,185975,1,0,0:0:0:0:
401,359,186100,1,0,0:0:0:0:
8,160,186225,1,0,0:0:0:0:
453,277,186350,6,0,P|476:220|478:-53,1,300
195,195,186600,2,0,P|266:302|483:407,1,300
295,20,186850,1,0,0:0:0:0:
48,323,186975,1,0,0:0:0:0:
77,39,187100,1,0,0:0:0:0:
334,353,187225,1,0,0:0:0:0:
192,87,187350,6,0,L|634:24,1,300
303,242,187600,2,0,L|665:303,1,300
125,339,187850,1,0,0:0:0:0:
259,6,187975,1,0,0:0:0:0:
386,368,188100,1,0,0:0:0:0:
216,46,188225,1,0,0:0:0:0:
384,266,188350,6,0,L|631:-22,1,300
178,169,188600,2,0,L|-38:-50,1,300
414,362,188850,2,0,L|696:250,1,300
112,329,189100,2,0,L|-179:239,1,300
314,10,189350,5,0,0:0:0:0:
437,250,189475,1,0,0:0:0:0:
197,373,189600,1,0,0:0:0:0:
74,133,189725,1,0,0:0:0:0:
443,275,189850,5,0,0:0:0:0:
65,86,189975,1,0,0:0:0:0:
509,264,190100,5,0,0:0:0:0:
8,122,190225,1,0,0:0:0:0:
440,70,190350,6,0,L|616:63,1,150
399,142,190475,2,0,L|596:180,1,150
330,191,190600,2,0,L|484:327,1,150
237,213,190725,2,0,L|339:407,1,150
136,220,190850,6,0,L|100:9,1,150
204,131,190975,2,0,L|231:-53,1,150
312,78,191100,2,0,L|417:-59,1,150
450,54,191225,2,0,L|626:-41,1,150
496,170,191350,6,0,L|229:153,1,150
351,231,191475,2,0,L|84:214,1,150
208,291,191600,2,0,L|-59:274,1,150
64,351,191725,2,0,L|-118:337,1,150
6,226,191850,5,0,0:0:0:0:
68,91,191912,1,0,0:0:0:0:
239,36,191975,1,0,0:0:0:0:
428,71,192037,1,0,0:0:0:0:
478,282,192100,5,0,0:0:0:0:
289,242,192162,1,0,0:0:0:0:
472,164,192225,5,0,0:0:0:0:
228,129,192287,1,0,0:0:0:0:
501,23,192350,6,0,L|131:369,1,480
59,85,192600,2,0,L|696:407,1,480
6,267,192850,5,0,0:0:0:0:
486,371,192975,1,0,0:0:0:0:
26,10,193100,5,0,0:0:0:0:
508,185,193225,1,0,0:0:0:0:
43,360,193350,6,0,P|127:115|321:8,2,480
474,10,193725,1,0,0:0:0:0:
263,341,193850,6,0,L|-184:152,1,480
506,210,194100,2,0,L|114:-71,1,480
322,375,194350,5,0,0:0:0:0:
181,11,194475,1,0,0:0:0:0:
503,325,194600,1,0,0:0:0:0:
21,96,194725,1,0,0:0:0:0:
456,8,194850,5,0,0:0:0:0:
77,363,194975,1,0,0:0:0:0:
505,172,195100,6,0,L|216:278,1,240
8,54,195225,2,0,L|274:-34,1,240
445,372,195350,6,0,P|371:89|204:-20,1,480
207,231,195600,2,0,P|474:21|696:42,1,480
9,109,195850,1,0,0:0:0:0:
499,204,195975,1,0,0:0:0:0:
84,229,196100,2,0,L|544:-59,1,480
337,322,196350,6,0,P|87:368|-170:300,3,480
508,72,196850,2,0,P|329:-57|61:-61,1,480
254,87,197100,2,0,P|1:70|-184:-50,1,480
330,372,197350,6,0,L|550:-62,1,480
14,175,197600,1,0,0:0:0:0:
495,300,197725,6,0,L|179:-68,1,480
141,335,197975,1,0,0:0:0:0:
508,7,198100,1,0,0:0:0:0:
15,319,198225,1,0,0:0:0:0:
512,384,198350,5,0,0:0:0:0:
0,0,198475,1,0,0:0:0:0:
512,0,198600,5,0,0:0:0:0:
0,384,198725,1,0,0:0:0:0:
512,384,198850,5,0,0:0:0:0:
0,0,198975,1,0,0:0:0:0:
512,384,199100,5,0,0:0:0:0:
0,0,199225,1,0,0:0:0:0:
512,384,199350,5,0,0:0:0:0:
0,0,199475,1,0,0:0:0:0:
512,384,199600,5,0,0:0:0:0:
0,0,199725,1,0,0:0:0:0:
426,158,199850,6,0,L|546:246,1,120
388,191,199912,2,0,L|393:362,1,120
338,167,199975,2,0,L|376:11,1,120
271,178,200037,2,0,L|163:49,1,120
203,208,200100,2,0,L|-3:184,1,120
163,276,200162,2,0,L|51:406,1,120
91,312,200225,2,0,L|-127:322,1,120
3,295,200287,2,0,L|-130:198,1,120
52,146,200350,6,0,P|34:254|126:129,1,360.000013732911
403,249,200600,1,0,0:0:0:0:
64,28,200725,1,0,0:0:0:0:
470,371,200850,2,0,P|581:175|586:-9,1,360.000013732911
70,267,201100,1,0,0:0:0:0:
369,15,201225,1,0,0:0:0:0:
183,358,201350,6,0,L|-184:285,1,360.000013732911
488,222,201600,1,0,0:0:0:0:
65,255,201725,2,0,L|-184:-29,1,360.000013732911
443,364,201975,1,0,0:0:0:0:
50,8,202100,1,0,0:0:0:0:
505,370,202225,1,0,0:0:0:0:
19,24,202350,6,0,L|347:395,1,360.000013732911
188,13,202600,2,0,L|696:202,1,360.000013732911
0,103,202850,2,0,L|188:407,1,360.000013732911
230,160,203100,2,0,L|643:202,1,360.000013732911
46,288,203350,5,0,0:0:0:0:
473,339,203475,1,0,0:0:0:0:
10,321,203600,1,0,0:0:0:0:
475,303,203725,1,0,0:0:0:0:
14,271,203850,1,0,0:0:0:0:
489,340,203975,1,0,0:0:0:0:
3,359,204100,1,0,0:0:0:0:
506,265,204225,1,0,0:0:0:0:
8,237,204350,5,0,0:0:0:0:
291,17,204475,1,0,0:0:0:0:
142,362,204600,1,0,0:0:0:0:
507,57,204725,1,0,0:0:0:0:
337,366,204850,1,0,0:0:0:0:
203,9,204975,1,0,0:0:0:0:
28,360,205100,1,0,0:0:0:0:
403,9,205225,1,0,0:0:0:0:
157,338,205350,6,0,L|-184:202,1,360.000013732911
386,283,205600,2,0,L|696:97,1,360.000013732911
30,12,205850,2,0,L|-62:384,1,360.000013732911
509,2,206100,2,0,L|592:407,1,360.000013732911
0,384,206350,5,0,0:0:0:0:
0,0,206475,1,0,0:0:0:0:
512,0,206600,1,0,0:0:0:0:
512,384,206725,1,0,0:0:0:0:
0,384,206850,5,0,0:0:0:0:
379,17,206975,1,0,0:0:0:0:
0,384,207100,5,0,0:0:0:0:
423,128,207225,1,0,0:0:0:0:
0,384,207350,5,0,0:0:0:0:
228,102,207475,1,0,0:0:0:0:
0,384,207600,5,0,0:0:0:0:
317,260,207725,1,0,0:0:0:0:
0,384,207850,5,0,0:0:0:0:
118,205,207975,1,0,0:0:0:0:
0,384,208100,5,0,0:0:0:0:
78,374,208131,1,0,0:0:0:0:
154,353,208162,1,0,0:0:0:0:
226,322,208193,1,0,0:0:0:0:
293,282,208225,1,0,0:0:0:0:
355,232,208256,1,0,0:0:0:0:
409,175,208287,1,0,0:0:0:0:
454,111,208318,1,0,0:0:0:0:
490,41,208350,1,0,0:0:0:0:
292,128,214350,6,0,L|321:146,7,30
201,223,214600,6,0,L|172:205,7,30
345,101,214850,6,0,L|374:119,7,30
154,238,215100,6,0,L|125:220,7,30
391,77,215350,6,0,L|420:95,7,30
106,251,215600,6,0,L|77:233,7,30
444,64,215850,6,0,L|473:82,7,30
54,256,216100,6,0,L|25:238,7,30
505,17,216350,6,0,L|-78:366,23,640
12,231,216850,6,0,L|539:300,1,480
487,293,216881,6,0,L|-40:224,1,480
12,231,216912,6,0,L|539:300,1,480
487,293,216943,6,0,L|-40:224,1,480
12,231,216975,6,0,L|539:300,1,480
487,293,217006,6,0,L|-40:224,1,480
12,231,217037,6,0,L|539:300,1,480
487,293,217068,6,0,L|-40:224,1,480
256,0,217100,5,0,0:0:0:0:
