osu file format v14

[General]
AudioFilename: audio.mp3
AudioLeadIn: 0
PreviewTime: 131046
Countdown: 0
SampleSet: Normal
StackLeniency: 0.3
Mode: 3
LetterboxInBreaks: 0
SpecialStyle: 0
WidescreenStoryboard: 1

[Editor]
DistanceSpacing: 1.6
BeatDivisor: 8
GridSize: 4
TimelineZoom: 2.4

[Metadata]
Title:Revenge (feat. CaptainSparklez) (ReeK's "Dude, What's A Genre?" Remix)
TitleUnicode:Revenge (feat. CaptainSparklez) (ReeK's "Dude, What's A Genre?" Remix)
Artist:TryHardNinja
ArtistUnicode:TryHardNinja
Creator:-mint-
Version:Insane
Source:
Tags:qqqant usher pitbull dj got us fallin' in love minecraft song mine dig creeper aw man live parody remix pop j-core jcore dubstep chiptune speedcore hardcore trap bass house psystyle psytrance electronic english
BeatmapID:2709106
BeatmapSetID:1205236

[Difficulty]
HPDrainRate:7.7
CircleSize:4
OverallDifficulty:8
ApproachRate:10
SliderMultiplier:2
SliderTickRate:1

[Events]
//Background and Video events
0,0,"bg.jpg",0,0
//Break Periods
2,155246,160050
2,224135,229178
//Storyboard Layer 0 (Background)
//Storyboard Layer 1 (Fail)
//Storyboard Layer 2 (Pass)
//Storyboard Layer 3 (Foreground)
//Storyboard Layer 4 (Overlay)
//Storyboard Sound Samples

[TimingPoints]
3410,363.636363636364,4,1,1,40,1,0
49955,-100,4,1,1,40,0,1
58682,-100,4,1,1,40,0,0
61591,-100,4,1,1,40,0,1
73228,-100,4,1,1,40,0,0
84864,-100,4,1,1,40,0,1
93591,-100,4,1,1,40,0,0
96500,-100,4,1,1,40,0,1
108137,-100,4,1,1,40,0,0
131410,-100,4,1,1,40,0,1
142682,-100,4,1,1,40,0,0
143046,-100,4,1,1,40,0,1
154682,-100,4,1,1,40,0,0
166319,361.44578313253,4,1,1,40,1,0
166319,-101.010101010101,4,1,1,40,0,0
167764,357.142857142857,4,1,1,40,1,0
167764,-102.040816326531,4,1,1,40,0,0
169192,348.837209302326,4,1,1,40,1,0
169192,-104.166666666667,4,1,1,40,0,0
170587,340.909090909091,4,1,1,40,1,0
170587,-106.382978723404,4,1,1,40,0,0
171950,338.983050847458,4,1,1,40,1,0
171950,-107.52688172043,4,1,1,40,0,0
173305,333.333333333333,4,1,1,40,1,0
173305,-108.695652173913,4,1,1,40,0,0
174638,324.324324324324,4,1,1,40,1,0
174638,-112.359550561798,4,1,1,40,0,0
182421,-112.359550561798,4,1,1,40,0,1
187286,-112.359550561798,4,1,1,40,0,0
187610,-112.359550561798,4,1,1,40,0,1
192800,-112.359550561798,4,1,1,40,0,0
195394,-112.359550561798,4,1,1,40,0,1
200583,-112.359550561798,4,1,1,40,0,0
203178,-112.359550561798,4,1,1,40,0,1
203421,-112.359550561798,4,1,1,40,0,0
203502,-112.359550561798,4,1,1,40,0,1
208043,-112.359550561798,4,1,1,40,0,0
208367,-112.359550561798,4,1,1,40,0,1
213556,-112.359550561798,4,1,1,40,0,0
216151,-112.359550561798,4,1,1,40,0,1
221665,-112.359550561798,4,1,1,40,0,0
221827,-112.359550561798,4,1,1,40,0,1
222313,-112.359550561798,4,1,1,40,0,0
222475,-112.359550561798,4,1,1,40,0,1
223935,-112.359550561798,4,1,1,40,0,0
229628,405.405405405405,4,1,1,40,1,0
229628,-90.0900900900901,4,1,1,40,0,0
231249,425.531914893617,4,1,1,40,1,0
231249,-85.4700854700855,4,1,1,40,0,0
232951,454.545454545455,4,1,1,40,1,0
232951,-80,4,1,1,40,0,0
234769,468.75,4,1,1,40,1,0
234769,-77.5193798449612,4,1,1,40,0,0
237112,-77.5193798449612,4,1,1,40,0,1
244144,-77.5193798449612,4,1,1,40,0,0
244612,-77.5193798449612,4,1,1,40,0,1
249769,-77.5193798449612,4,1,1,40,0,0
252112,-77.5193798449612,4,1,1,40,0,1
258206,-77.5193798449612,4,1,1,40,0,0
259612,-77.5193798449612,4,1,1,40,0,1
266058,-77.5193798449612,3,1,1,40,0,0
266409,-77.5193798449612,3,1,1,40,0,1
266761,-77.5193798449612,3,1,1,40,0,0
267112,-77.5193798449612,3,1,1,40,0,1
267464,-77.5193798449612,3,1,1,40,0,0
267815,-77.5193798449612,3,1,1,40,0,1
268167,-77.5193798449612,3,1,1,40,0,0
268519,-77.5193798449612,3,1,1,40,0,1
268870,-77.5193798449612,3,1,1,40,0,0
269222,468.75,3,1,1,40,1,1
269222,-77.5193798449612,3,1,1,40,0,1
271097,-77.5193798449612,3,1,1,40,0,0
272972,-77.5193798449612,3,1,1,40,0,1
274378,-77.5193798449612,3,1,1,40,0,0

[HitObjects]
192,192,500,5,0,0:0:0:0:
448,192,682,128,0,2682:0:0:0:0:
64,192,773,128,0,3410:0:0:0:0:
320,192,3410,1,0,0:0:0:0:
448,192,3410,1,0,0:0:0:0:
320,192,4319,1,0,0:0:0:0:
448,192,4591,1,0,0:0:0:0:
64,192,4864,1,0,0:0:0:0:
192,192,4864,1,0,0:0:0:0:
192,192,6046,1,0,0:0:0:0:
320,192,6319,1,0,0:0:0:0:
64,192,6319,1,0,0:0:0:0:
320,192,7228,1,0,0:0:0:0:
192,192,7500,1,0,0:0:0:0:
320,192,7773,1,0,0:0:0:0:
64,192,7773,1,0,0:0:0:0:
320,192,8319,1,0,0:0:0:0:
192,192,8319,1,0,0:0:0:0:
192,192,8864,1,0,0:0:0:0:
448,192,8864,1,0,0:0:0:0:
448,192,9228,1,0,0:0:0:0:
320,192,9228,1,0,0:0:0:0:
320,192,10137,1,0,0:0:0:0:
448,192,10410,1,0,0:0:0:0:
64,192,10682,1,0,0:0:0:0:
192,192,10682,1,0,0:0:0:0:
192,192,11864,1,0,0:0:0:0:
320,192,12137,1,0,0:0:0:0:
64,192,12137,1,0,0:0:0:0:
320,192,13046,1,0,0:0:0:0:
192,192,13319,1,0,0:0:0:0:
320,192,13591,1,0,0:0:0:0:
64,192,13591,1,0,0:0:0:0:
448,192,14137,1,0,0:0:0:0:
64,192,14137,1,0,0:0:0:0:
320,192,14682,1,0,0:0:0:0:
192,192,14682,1,0,0:0:0:0:
448,192,15046,1,0,0:0:0:0:
320,192,15046,1,0,0:0:0:0:
64,192,15228,1,0,0:0:0:0:
448,192,15410,1,0,0:0:0:0:
64,192,15591,1,0,0:0:0:0:
448,192,15773,1,0,0:0:0:0:
192,192,15864,1,0,0:0:0:0:
320,192,15955,1,0,0:0:0:0:
64,192,16137,1,0,0:0:0:0:
448,192,16228,1,0,0:0:0:0:
320,192,16319,1,0,0:0:0:0:
192,192,16500,1,0,0:0:0:0:
64,192,16500,1,0,0:0:0:0:
320,192,16682,1,0,0:0:0:0:
192,192,16864,1,0,0:0:0:0:
64,192,17046,1,0,0:0:0:0:
320,192,17137,1,0,0:0:0:0:
192,192,17228,1,0,0:0:0:0:
448,192,17319,1,0,0:0:0:0:
320,192,17410,1,0,0:0:0:0:
64,192,17591,1,0,0:0:0:0:
192,192,17682,1,0,0:0:0:0:
448,192,17773,1,0,0:0:0:0:
64,192,17955,1,0,0:0:0:0:
320,192,17955,1,0,0:0:0:0:
448,192,18137,1,0,0:0:0:0:
192,192,18319,1,0,0:0:0:0:
448,192,18500,1,0,0:0:0:0:
64,192,18682,1,0,0:0:0:0:
448,192,18773,1,0,0:0:0:0:
320,192,18864,1,0,0:0:0:0:
64,192,19046,1,0,0:0:0:0:
192,192,19137,1,0,0:0:0:0:
448,192,19228,1,0,0:0:0:0:
320,192,19410,1,0,0:0:0:0:
64,192,19410,1,0,0:0:0:0:
448,192,19591,1,0,0:0:0:0:
64,192,19773,1,0,0:0:0:0:
192,192,19955,1,0,0:0:0:0:
320,192,19955,1,0,0:0:0:0:
64,192,20137,1,0,0:0:0:0:
448,192,20228,1,0,0:0:0:0:
320,192,20319,1,0,0:0:0:0:
448,192,20500,1,0,0:0:0:0:
192,192,20500,1,0,0:0:0:0:
64,192,20682,1,0,0:0:0:0:
320,192,20864,1,0,0:0:0:0:
448,192,20864,1,0,0:0:0:0:
192,192,21046,1,0,0:0:0:0:
320,192,21228,1,0,0:0:0:0:
192,192,21410,1,0,0:0:0:0:
320,192,21500,1,0,0:0:0:0:
448,192,21591,1,0,0:0:0:0:
64,192,21682,1,0,0:0:0:0:
320,192,21773,1,0,0:0:0:0:
192,192,21955,1,0,0:0:0:0:
448,192,22046,1,0,0:0:0:0:
64,192,22137,1,0,0:0:0:0:
320,192,22228,1,0,0:0:0:0:
64,192,22319,1,0,0:0:0:0:
192,192,22319,1,0,0:0:0:0:
448,192,22500,1,0,0:0:0:0:
64,192,22682,1,0,0:0:0:0:
448,192,22864,1,0,0:0:0:0:
192,192,22955,1,0,0:0:0:0:
64,192,23046,1,0,0:0:0:0:
320,192,23137,1,0,0:0:0:0:
192,192,23228,1,0,0:0:0:0:
320,192,23410,1,0,0:0:0:0:
448,192,23591,1,0,0:0:0:0:
192,192,23682,1,0,0:0:0:0:
320,192,23773,1,0,0:0:0:0:
64,192,23773,1,0,0:0:0:0:
448,192,23955,1,0,0:0:0:0:
192,192,24137,1,0,0:0:0:0:
448,192,24319,1,0,0:0:0:0:
64,192,24319,1,0,0:0:0:0:
192,192,24410,1,0,0:0:0:0:
320,192,24500,1,0,0:0:0:0:
448,192,24591,1,0,0:0:0:0:
64,192,24682,1,0,0:0:0:0:
320,192,24864,1,0,0:0:0:0:
192,192,24864,1,0,0:0:0:0:
64,192,25046,1,0,0:0:0:0:
320,192,25228,1,0,0:0:0:0:
64,192,25319,1,0,0:0:0:0:
448,192,25410,1,0,0:0:0:0:
192,192,25410,1,0,0:0:0:0:
448,192,25591,1,0,0:0:0:0:
64,192,25773,1,0,0:0:0:0:
448,192,25955,1,0,0:0:0:0:
320,192,25955,1,0,0:0:0:0:
192,192,26137,1,0,0:0:0:0:
192,192,26319,128,0,26500:0:0:0:0:
64,192,26682,1,0,0:0:0:0:
448,192,26682,128,0,27228:0:0:0:0:
320,192,26682,128,0,27228:0:0:0:0:
64,192,27228,128,0,27319:0:0:0:0:
192,192,27319,128,0,27410:0:0:0:0:
448,192,27410,128,0,27500:0:0:0:0:
64,192,27500,128,0,27591:0:0:0:0:
320,192,27591,128,0,27682:0:0:0:0:
192,192,27682,128,0,27773:0:0:0:0:
320,192,27773,1,0,0:0:0:0:
64,192,27773,128,0,27864:0:0:0:0:
448,192,27773,128,0,27864:0:0:0:0:
64,192,27955,128,0,28319:0:0:0:0:
192,192,27955,128,0,28319:0:0:0:0:
448,192,27955,1,0,0:0:0:0:
320,192,28319,128,0,28410:0:0:0:0:
192,192,28410,128,0,28500:0:0:0:0:
448,192,28500,128,0,28591:0:0:0:0:
192,192,28591,128,0,28682:0:0:0:0:
448,192,28682,128,0,29046:0:0:0:0:
320,192,28682,128,0,29046:0:0:0:0:
64,192,28682,1,0,0:0:0:0:
64,192,29046,128,0,29137:0:0:0:0:
320,192,29137,128,0,29228:0:0:0:0:
192,192,29228,128,0,29319:0:0:0:0:
448,192,29319,128,0,29410:0:0:0:0:
64,192,29410,128,0,30955:0:0:0:0:
192,192,29410,128,0,30955:0:0:0:0:
320,192,29410,1,0,0:0:0:0:
448,192,31046,128,0,31500:0:0:0:0:
320,192,31046,128,0,31500:0:0:0:0:
64,192,31046,1,0,0:0:0:0:
192,192,31591,128,0,32137:0:0:0:0:
320,192,31591,128,0,32319:0:0:0:0:
64,192,31591,1,0,0:0:0:0:
64,192,32137,128,0,32319:0:0:0:0:
192,192,32319,128,0,32500:0:0:0:0:
448,192,32500,128,0,33046:0:0:0:0:
320,192,32500,128,0,33046:0:0:0:0:
64,192,32500,1,0,0:0:0:0:
64,192,33046,128,0,33137:0:0:0:0:
192,192,33137,128,0,33228:0:0:0:0:
448,192,33228,128,0,33319:0:0:0:0:
64,192,33319,128,0,33410:0:0:0:0:
320,192,33410,128,0,33500:0:0:0:0:
192,192,33500,128,0,33591:0:0:0:0:
448,192,33591,128,0,33682:0:0:0:0:
320,192,33591,1,0,0:0:0:0:
64,192,33591,128,0,33682:0:0:0:0:
448,192,33773,128,0,34046:0:0:0:0:
320,192,33773,128,0,34046:0:0:0:0:
192,192,33773,1,0,0:0:0:0:
192,192,34137,1,0,0:0:0:0:
64,192,34137,128,0,34410:0:0:0:0:
448,192,34137,128,0,34410:0:0:0:0:
448,192,34500,1,0,0:0:0:0:
320,192,34500,128,0,34773:0:0:0:0:
64,192,34500,128,0,34773:0:0:0:0:
320,192,34864,1,0,0:0:0:0:
192,192,34864,128,0,35137:0:0:0:0:
448,192,34864,128,0,35137:0:0:0:0:
320,192,35228,128,0,36319:0:0:0:0:
192,192,35228,128,0,37591:0:0:0:0:
64,192,35228,1,0,0:0:0:0:
448,192,36319,128,0,36500:0:0:0:0:
64,192,36500,128,0,36682:0:0:0:0:
448,192,36682,128,0,38319:0:0:0:0:
64,192,37591,1,0,0:0:0:0:
320,192,37773,1,0,0:0:0:0:
64,192,37955,1,0,0:0:0:0:
320,192,38137,1,0,0:0:0:0:
192,192,38319,1,0,0:0:0:0:
64,192,38319,1,0,0:0:0:0:
192,192,38500,1,0,0:0:0:0:
448,192,38682,1,0,0:0:0:0:
64,192,38682,1,0,0:0:0:0:
192,192,38864,1,0,0:0:0:0:
64,192,38955,1,0,0:0:0:0:
320,192,39046,1,0,0:0:0:0:
448,192,39137,1,0,0:0:0:0:
192,192,39228,1,0,0:0:0:0:
320,192,39319,1,0,0:0:0:0:
448,192,39410,1,0,0:0:0:0:
64,192,39410,1,0,0:0:0:0:
192,192,39591,1,0,0:0:0:0:
448,192,39682,1,0,0:0:0:0:
320,192,39773,1,0,0:0:0:0:
320,192,39955,1,0,0:0:0:0:
64,192,40137,1,0,0:0:0:0:
448,192,40137,1,0,0:0:0:0:
320,192,40319,1,0,0:0:0:0:
448,192,40410,1,0,0:0:0:0:
192,192,40500,1,0,0:0:0:0:
64,192,40591,1,0,0:0:0:0:
320,192,40682,1,0,0:0:0:0:
192,192,40773,1,0,0:0:0:0:
64,192,40864,1,0,0:0:0:0:
448,192,40864,1,0,0:0:0:0:
320,192,41046,1,0,0:0:0:0:
64,192,41137,1,0,0:0:0:0:
192,192,41228,1,0,0:0:0:0:
192,192,41410,1,0,0:0:0:0:
448,192,41591,1,0,0:0:0:0:
64,192,41591,1,0,0:0:0:0:
192,192,41773,1,0,0:0:0:0:
64,192,41864,1,0,0:0:0:0:
320,192,41955,1,0,0:0:0:0:
448,192,42046,1,0,0:0:0:0:
192,192,42137,1,0,0:0:0:0:
320,192,42228,1,0,0:0:0:0:
448,192,42319,1,0,0:0:0:0:
64,192,42319,1,0,0:0:0:0:
192,192,42500,1,0,0:0:0:0:
448,192,42591,1,0,0:0:0:0:
320,192,42682,1,0,0:0:0:0:
320,192,42864,1,0,0:0:0:0:
64,192,43046,1,0,0:0:0:0:
448,192,43046,1,0,0:0:0:0:
320,192,43228,1,0,0:0:0:0:
448,192,43319,1,0,0:0:0:0:
192,192,43410,1,0,0:0:0:0:
64,192,43500,1,0,0:0:0:0:
320,192,43591,1,0,0:0:0:0:
192,192,43682,1,0,0:0:0:0:
64,192,43773,1,0,0:0:0:0:
448,192,43773,1,0,0:0:0:0:
320,192,43955,1,0,0:0:0:0:
64,192,44046,1,0,0:0:0:0:
192,192,44137,1,0,0:0:0:0:
448,192,44137,1,0,0:0:0:0:
320,192,44137,1,0,0:0:0:0:
320,192,44228,1,0,0:0:0:0:
192,192,44319,1,0,0:0:0:0:
64,192,44319,1,0,0:0:0:0:
64,192,44410,1,0,0:0:0:0:
448,192,44500,1,0,0:0:0:0:
320,192,44500,1,0,0:0:0:0:
448,192,44591,1,0,0:0:0:0:
192,192,44682,1,0,0:0:0:0:
64,192,44682,1,0,0:0:0:0:
192,192,44773,1,0,0:0:0:0:
320,192,44864,1,0,0:0:0:0:
448,192,44864,1,0,0:0:0:0:
320,192,44955,1,0,0:0:0:0:
64,192,45046,1,0,0:0:0:0:
192,192,45046,1,0,0:0:0:0:
64,192,45137,1,0,0:0:0:0:
448,192,45228,1,0,0:0:0:0:
320,192,45228,1,0,0:0:0:0:
448,192,45319,1,0,0:0:0:0:
192,192,45410,1,0,0:0:0:0:
64,192,45410,1,0,0:0:0:0:
192,192,45500,1,0,0:0:0:0:
448,192,45591,1,0,0:0:0:0:
320,192,45591,1,0,0:0:0:0:
320,192,45682,1,0,0:0:0:0:
192,192,45773,1,0,0:0:0:0:
64,192,45773,1,0,0:0:0:0:
64,192,45864,1,0,0:0:0:0:
320,192,45955,1,0,0:0:0:0:
448,192,45955,1,0,0:0:0:0:
448,192,46046,1,0,0:0:0:0:
64,192,46137,1,0,0:0:0:0:
192,192,46137,1,0,0:0:0:0:
192,192,46228,1,0,0:0:0:0:
448,192,46319,1,0,0:0:0:0:
320,192,46319,1,0,0:0:0:0:
320,192,46410,1,0,0:0:0:0:
448,192,46410,1,0,0:0:0:0:
64,192,46500,1,0,0:0:0:0:
192,192,46500,1,0,0:0:0:0:
320,192,46682,1,0,0:0:0:0:
448,192,46682,1,0,0:0:0:0:
64,192,46728,1,0,0:0:0:0:
448,192,46773,1,0,0:0:0:0:
64,192,46819,1,0,0:0:0:0:
320,192,46864,1,0,0:0:0:0:
320,192,46955,1,0,0:0:0:0:
64,192,47046,5,0,0:0:0:0:
192,192,47046,1,0,0:0:0:0:
320,192,47091,1,0,0:0:0:0:
448,192,47137,1,0,0:0:0:0:
192,192,47182,1,0,0:0:0:0:
64,192,47228,1,0,0:0:0:0:
320,192,47273,1,0,0:0:0:0:
192,192,47319,1,0,0:0:0:0:
448,192,47364,1,0,0:0:0:0:
320,192,47410,1,0,0:0:0:0:
64,192,47455,1,0,0:0:0:0:
192,192,47500,1,0,0:0:0:0:
448,192,47546,1,0,0:0:0:0:
64,192,47591,1,0,0:0:0:0:
320,192,47637,1,0,0:0:0:0:
448,192,47682,1,0,0:0:0:0:
192,192,47728,1,0,0:0:0:0:
64,192,47773,1,0,0:0:0:0:
320,192,47819,1,0,0:0:0:0:
192,192,47864,1,0,0:0:0:0:
448,192,47910,1,0,0:0:0:0:
320,192,47955,1,0,0:0:0:0:
64,192,48000,1,0,0:0:0:0:
192,192,48046,1,0,0:0:0:0:
448,192,48091,1,0,0:0:0:0:
64,192,48137,1,0,0:0:0:0:
320,192,48182,1,0,0:0:0:0:
192,192,48228,1,0,0:0:0:0:
448,192,48273,1,0,0:0:0:0:
64,192,48319,1,0,0:0:0:0:
192,192,48364,1,0,0:0:0:0:
320,192,48410,1,0,0:0:0:0:
448,192,48455,1,0,0:0:0:0:
64,192,48500,1,0,0:0:0:0:
192,192,48500,1,0,0:0:0:0:
64,192,48682,128,0,48910:0:0:0:0:
320,192,48910,128,0,49046:0:0:0:0:
192,192,49046,1,0,0:0:0:0:
448,192,49228,128,0,49410:0:0:0:0:
64,192,49228,1,0,0:0:0:0:
192,192,49319,1,0,0:0:0:0:
320,192,49410,128,0,49591:0:0:0:0:
64,192,49410,1,0,0:0:0:0:
448,192,49591,1,0,0:0:0:0:
64,192,49591,128,0,49955:0:0:0:0:
192,192,49591,1,0,0:0:0:0:
448,192,49955,1,0,0:0:0:0:
320,192,49955,1,0,0:0:0:0:
192,192,50000,1,0,0:0:0:0:
64,192,50046,1,0,0:0:0:0:
320,192,50091,1,0,0:0:0:0:
448,192,50137,1,0,0:0:0:0:
192,192,50182,1,0,0:0:0:0:
320,192,50228,1,0,0:0:0:0:
448,192,50273,1,0,0:0:0:0:
64,192,50319,128,0,50410:0:0:0:0:
192,192,50319,1,0,0:0:0:0:
320,192,50500,1,0,0:0:0:0:
192,192,50561,1,0,0:0:0:0:
320,192,50622,1,0,0:0:0:0:
64,192,50682,1,0,0:0:0:0:
192,192,50682,1,0,0:0:0:0:
192,192,50864,1,0,0:0:0:0:
192,192,50955,1,0,0:0:0:0:
64,192,51000,1,0,0:0:0:0:
448,192,51046,1,0,0:0:0:0:
320,192,51046,1,0,0:0:0:0:
192,192,51137,1,0,0:0:0:0:
192,192,51228,1,0,0:0:0:0:
64,192,51273,1,0,0:0:0:0:
320,192,51319,1,0,0:0:0:0:
448,192,51364,1,0,0:0:0:0:
192,192,51410,1,0,0:0:0:0:
64,192,51410,1,0,0:0:0:0:
320,192,51500,1,0,0:0:0:0:
64,192,51546,1,0,0:0:0:0:
192,192,51591,1,0,0:0:0:0:
320,192,51637,1,0,0:0:0:0:
448,192,51682,128,0,51773:0:0:0:0:
64,192,51773,1,0,0:0:0:0:
192,192,51773,1,0,0:0:0:0:
448,192,51955,128,0,52046:0:0:0:0:
320,192,52000,128,0,52137:0:0:0:0:
64,192,52137,1,0,0:0:0:0:
192,192,52137,1,0,0:0:0:0:
448,192,52228,128,0,52319:0:0:0:0:
320,192,52273,128,0,52410:0:0:0:0:
64,192,52410,128,0,52500:0:0:0:0:
448,192,52500,1,0,0:0:0:0:
320,192,52500,1,0,0:0:0:0:
192,192,52591,128,0,52682:0:0:0:0:
448,192,52682,128,0,52773:0:0:0:0:
320,192,52728,128,0,52864:0:0:0:0:
64,192,52864,1,0,0:0:0:0:
192,192,52864,1,0,0:0:0:0:
448,192,52955,128,0,53046:0:0:0:0:
320,192,53000,128,0,53091:0:0:0:0:
192,192,53046,128,0,53137:0:0:0:0:
64,192,53137,1,0,0:0:0:0:
320,192,53228,1,0,0:0:0:0:
448,192,53228,128,0,53319:0:0:0:0:
192,192,53410,1,0,0:0:0:0:
320,192,53470,1,0,0:0:0:0:
192,192,53531,1,0,0:0:0:0:
448,192,53591,1,0,0:0:0:0:
320,192,53591,1,0,0:0:0:0:
320,192,53773,1,0,0:0:0:0:
320,192,53864,1,0,0:0:0:0:
448,192,53910,1,0,0:0:0:0:
192,192,53955,1,0,0:0:0:0:
64,192,53955,1,0,0:0:0:0:
320,192,54046,1,0,0:0:0:0:
320,192,54137,1,0,0:0:0:0:
448,192,54182,1,0,0:0:0:0:
192,192,54228,1,0,0:0:0:0:
64,192,54273,1,0,0:0:0:0:
448,192,54319,1,0,0:0:0:0:
320,192,54319,1,0,0:0:0:0:
192,192,54410,1,0,0:0:0:0:
64,192,54455,1,0,0:0:0:0:
320,192,54500,1,0,0:0:0:0:
192,192,54546,1,0,0:0:0:0:
448,192,54591,1,0,0:0:0:0:
320,192,54637,1,0,0:0:0:0:
192,192,54682,128,0,54743:0:0:0:0:
64,192,54682,1,0,0:0:0:0:
448,192,54743,128,0,54803:0:0:0:0:
320,192,54803,128,0,54864:0:0:0:0:
64,192,54864,128,0,54925:0:0:0:0:
448,192,54925,128,0,54985:0:0:0:0:
192,192,54985,128,0,55046:0:0:0:0:
448,192,55046,128,0,55410:0:0:0:0:
320,192,55046,1,0,0:0:0:0:
64,192,55410,128,0,55773:0:0:0:0:
192,192,55410,1,0,0:0:0:0:
320,192,55773,1,0,0:0:0:0:
448,192,55773,1,0,0:0:0:0:
192,192,55819,1,0,0:0:0:0:
64,192,55864,1,0,0:0:0:0:
320,192,55910,1,0,0:0:0:0:
448,192,55955,1,0,0:0:0:0:
192,192,56000,1,0,0:0:0:0:
320,192,56046,1,0,0:0:0:0:
448,192,56091,1,0,0:0:0:0:
64,192,56137,128,0,56228:0:0:0:0:
192,192,56137,1,0,0:0:0:0:
320,192,56319,1,0,0:0:0:0:
192,192,56379,1,0,0:0:0:0:
320,192,56440,1,0,0:0:0:0:
192,192,56500,1,0,0:0:0:0:
64,192,56500,1,0,0:0:0:0:
192,192,56682,1,0,0:0:0:0:
192,192,56773,1,0,0:0:0:0:
64,192,56819,1,0,0:0:0:0:
320,192,56864,1,0,0:0:0:0:
448,192,56864,1,0,0:0:0:0:
192,192,56955,1,0,0:0:0:0:
192,192,57046,1,0,0:0:0:0:
64,192,57091,1,0,0:0:0:0:
320,192,57137,1,0,0:0:0:0:
448,192,57182,1,0,0:0:0:0:
192,192,57228,1,0,0:0:0:0:
64,192,57228,1,0,0:0:0:0:
320,192,57319,1,0,0:0:0:0:
64,192,57364,1,0,0:0:0:0:
192,192,57410,1,0,0:0:0:0:
320,192,57455,1,0,0:0:0:0:
448,192,57500,128,0,57591:0:0:0:0:
192,192,57591,1,0,0:0:0:0:
64,192,57591,1,0,0:0:0:0:
448,192,57773,128,0,57864:0:0:0:0:
320,192,57819,128,0,57955:0:0:0:0:
192,192,57955,1,0,0:0:0:0:
64,192,57955,1,0,0:0:0:0:
448,192,58046,128,0,58137:0:0:0:0:
320,192,58091,128,0,58228:0:0:0:0:
64,192,58228,128,0,58319:0:0:0:0:
320,192,58319,1,0,0:0:0:0:
448,192,58319,1,0,0:0:0:0:
192,192,58410,128,0,58500:0:0:0:0:
64,192,58500,128,0,58591:0:0:0:0:
320,192,58591,1,0,0:0:0:0:
192,192,58682,128,0,59046:0:0:0:0:
448,192,58682,1,0,0:0:0:0:
64,192,58682,1,0,0:0:0:0:
448,192,59046,1,0,0:0:0:0:
64,192,59046,1,0,0:0:0:0:
448,192,59228,1,0,0:0:0:0:
320,192,59228,128,0,59773:0:0:0:0:
64,192,59228,1,0,0:0:0:0:
448,192,59773,1,0,0:0:0:0:
64,192,59773,1,0,0:0:0:0:
64,192,59955,128,0,60500:0:0:0:0:
448,192,59955,1,0,0:0:0:0:
192,192,59955,1,0,0:0:0:0:
192,192,60500,1,0,0:0:0:0:
320,192,60500,1,0,0:0:0:0:
192,192,60773,1,0,0:0:0:0:
320,192,60773,1,0,0:0:0:0:
192,192,61046,1,0,0:0:0:0:
320,192,61046,1,0,0:0:0:0:
448,192,61228,1,0,0:0:0:0:
192,192,61228,1,0,0:0:0:0:
64,192,61228,1,0,0:0:0:0:
448,192,61591,1,0,0:0:0:0:
320,192,61591,1,0,0:0:0:0:
64,192,61637,1,0,0:0:0:0:
192,192,61682,1,0,0:0:0:0:
320,192,61728,1,0,0:0:0:0:
448,192,61773,1,0,0:0:0:0:
64,192,61819,1,0,0:0:0:0:
320,192,61864,1,0,0:0:0:0:
192,192,61910,1,0,0:0:0:0:
448,192,61955,1,0,0:0:0:0:
64,192,61955,128,0,62046:0:0:0:0:
448,192,62137,1,0,0:0:0:0:
64,192,62197,1,0,0:0:0:0:
448,192,62258,1,0,0:0:0:0:
64,192,62319,1,0,0:0:0:0:
192,192,62319,1,0,0:0:0:0:
64,192,62500,1,0,0:0:0:0:
64,192,62591,1,0,0:0:0:0:
320,192,62637,1,0,0:0:0:0:
448,192,62682,1,0,0:0:0:0:
192,192,62682,1,0,0:0:0:0:
64,192,62773,1,0,0:0:0:0:
64,192,62864,1,0,0:0:0:0:
192,192,62910,1,0,0:0:0:0:
320,192,62955,1,0,0:0:0:0:
448,192,63000,1,0,0:0:0:0:
64,192,63046,1,0,0:0:0:0:
192,192,63046,1,0,0:0:0:0:
448,192,63137,1,0,0:0:0:0:
64,192,63182,1,0,0:0:0:0:
320,192,63228,1,0,0:0:0:0:
448,192,63273,1,0,0:0:0:0:
192,192,63319,128,0,63410:0:0:0:0:
320,192,63410,1,0,0:0:0:0:
64,192,63410,1,0,0:0:0:0:
448,192,63500,1,0,0:0:0:0:
448,192,63591,1,0,0:0:0:0:
192,192,63682,128,0,63773:0:0:0:0:
448,192,63773,1,0,0:0:0:0:
320,192,63773,1,0,0:0:0:0:
64,192,63864,128,0,63955:0:0:0:0:
448,192,63955,1,0,0:0:0:0:
192,192,64016,1,0,0:0:0:0:
320,192,64076,1,0,0:0:0:0:
448,192,64137,1,0,0:0:0:0:
64,192,64137,1,0,0:0:0:0:
320,192,64228,128,0,64319:0:0:0:0:
192,192,64319,1,0,0:0:0:0:
64,192,64364,1,0,0:0:0:0:
448,192,64410,1,0,0:0:0:0:
320,192,64455,1,0,0:0:0:0:
64,192,64500,1,0,0:0:0:0:
192,192,64500,1,0,0:0:0:0:
448,192,64591,128,0,64682:0:0:0:0:
320,192,64637,128,0,64728:0:0:0:0:
192,192,64682,128,0,64773:0:0:0:0:
64,192,64773,1,0,0:0:0:0:
448,192,64864,128,0,64955:0:0:0:0:
192,192,64864,1,0,0:0:0:0:
64,192,65046,1,0,0:0:0:0:
448,192,65106,1,0,0:0:0:0:
64,192,65167,1,0,0:0:0:0:
320,192,65228,1,0,0:0:0:0:
448,192,65228,1,0,0:0:0:0:
448,192,65410,1,0,0:0:0:0:
448,192,65500,1,0,0:0:0:0:
192,192,65546,1,0,0:0:0:0:
320,192,65591,1,0,0:0:0:0:
64,192,65591,1,0,0:0:0:0:
448,192,65682,1,0,0:0:0:0:
448,192,65773,1,0,0:0:0:0:
320,192,65819,1,0,0:0:0:0:
192,192,65864,1,0,0:0:0:0:
64,192,65910,1,0,0:0:0:0:
320,192,65955,128,0,66137:0:0:0:0:
448,192,65955,1,0,0:0:0:0:
192,192,66137,1,0,0:0:0:0:
448,192,66228,128,0,66319:0:0:0:0:
320,192,66319,1,0,0:0:0:0:
64,192,66319,1,0,0:0:0:0:
192,192,66410,1,0,0:0:0:0:
320,192,66500,1,0,0:0:0:0:
64,192,66500,128,0,66682:0:0:0:0:
448,192,66500,1,0,0:0:0:0:
320,192,66773,1,0,0:0:0:0:
64,192,66773,128,0,66955:0:0:0:0:
448,192,66773,1,0,0:0:0:0:
448,192,67046,1,0,0:0:0:0:
320,192,67046,1,0,0:0:0:0:
64,192,67046,1,0,0:0:0:0:
192,192,67228,128,0,67319:0:0:0:0:
448,192,67410,1,0,0:0:0:0:
320,192,67410,1,0,0:0:0:0:
64,192,67455,1,0,0:0:0:0:
192,192,67500,1,0,0:0:0:0:
320,192,67546,1,0,0:0:0:0:
448,192,67591,1,0,0:0:0:0:
64,192,67637,1,0,0:0:0:0:
320,192,67682,1,0,0:0:0:0:
192,192,67728,1,0,0:0:0:0:
448,192,67773,1,0,0:0:0:0:
64,192,67773,128,0,67864:0:0:0:0:
320,192,67864,1,0,0:0:0:0:
448,192,67955,1,0,0:0:0:0:
64,192,68016,1,0,0:0:0:0:
448,192,68076,1,0,0:0:0:0:
64,192,68137,1,0,0:0:0:0:
192,192,68137,1,0,0:0:0:0:
320,192,68228,1,0,0:0:0:0:
64,192,68319,1,0,0:0:0:0:
64,192,68410,1,0,0:0:0:0:
320,192,68455,1,0,0:0:0:0:
448,192,68500,1,0,0:0:0:0:
192,192,68500,1,0,0:0:0:0:
64,192,68591,1,0,0:0:0:0:
64,192,68682,1,0,0:0:0:0:
192,192,68728,1,0,0:0:0:0:
320,192,68773,1,0,0:0:0:0:
448,192,68819,1,0,0:0:0:0:
64,192,68864,1,0,0:0:0:0:
192,192,68864,1,0,0:0:0:0:
448,192,68955,1,0,0:0:0:0:
64,192,69000,1,0,0:0:0:0:
320,192,69046,1,0,0:0:0:0:
448,192,69091,1,0,0:0:0:0:
192,192,69137,128,0,69228:0:0:0:0:
64,192,69228,128,0,69319:0:0:0:0:
320,192,69228,1,0,0:0:0:0:
448,192,69319,1,0,0:0:0:0:
192,192,69410,1,0,0:0:0:0:
320,192,69470,128,0,69591:0:0:0:0:
448,192,69500,1,0,0:0:0:0:
64,192,69591,1,0,0:0:0:0:
192,192,69591,1,0,0:0:0:0:
448,192,69682,1,0,0:0:0:0:
192,192,69773,1,0,0:0:0:0:
320,192,69864,1,0,0:0:0:0:
448,192,69955,1,0,0:0:0:0:
64,192,69955,1,0,0:0:0:0:
320,192,70046,128,0,70137:0:0:0:0:
192,192,70137,128,0,70228:0:0:0:0:
320,192,70228,1,0,0:0:0:0:
448,192,70319,1,0,0:0:0:0:
64,192,70319,1,0,0:0:0:0:
192,192,70319,1,0,0:0:0:0:
64,192,70410,1,0,0:0:0:0:
320,192,70500,1,0,0:0:0:0:
192,192,70591,1,0,0:0:0:0:
448,192,70682,1,0,0:0:0:0:
320,192,70682,1,0,0:0:0:0:
448,192,70773,1,0,0:0:0:0:
192,192,70864,1,0,0:0:0:0:
320,192,70955,1,0,0:0:0:0:
192,192,71046,1,0,0:0:0:0:
64,192,71046,1,0,0:0:0:0:
64,192,71137,1,0,0:0:0:0:
320,192,71228,1,0,0:0:0:0:
192,192,71319,1,0,0:0:0:0:
320,192,71410,1,0,0:0:0:0:
448,192,71410,1,0,0:0:0:0:
448,192,71500,1,0,0:0:0:0:
192,192,71591,1,0,0:0:0:0:
64,192,71637,1,0,0:0:0:0:
320,192,71682,1,0,0:0:0:0:
448,192,71728,1,0,0:0:0:0:
64,192,71773,1,0,0:0:0:0:
192,192,71773,1,0,0:0:0:0:
64,192,71864,1,0,0:0:0:0:
320,192,71955,1,0,0:0:0:0:
192,192,72046,1,0,0:0:0:0:
448,192,72137,1,0,0:0:0:0:
320,192,72137,1,0,0:0:0:0:
448,192,72228,1,0,0:0:0:0:
192,192,72319,1,0,0:0:0:0:
320,192,72410,1,0,0:0:0:0:
192,192,72500,1,0,0:0:0:0:
64,192,72500,1,0,0:0:0:0:
64,192,73046,1,0,0:0:0:0:
192,192,73091,1,0,0:0:0:0:
320,192,73137,1,0,0:0:0:0:
448,192,73182,1,0,0:0:0:0:
192,192,73228,128,0,73410:0:0:0:0:
64,192,73228,1,0,0:0:0:0:
320,192,73410,1,0,0:0:0:0:
192,192,73500,1,0,0:0:0:0:
448,192,73591,1,0,0:0:0:0:
320,192,73591,1,0,0:0:0:0:
64,192,73682,1,0,0:0:0:0:
192,192,73773,128,0,73864:0:0:0:0:
320,192,73864,128,0,73955:0:0:0:0:
64,192,73955,1,0,0:0:0:0:
192,192,73955,1,0,0:0:0:0:
448,192,74046,1,0,0:0:0:0:
64,192,74137,1,0,0:0:0:0:
192,192,74228,1,0,0:0:0:0:
448,192,74319,1,0,0:0:0:0:
320,192,74319,1,0,0:0:0:0:
192,192,74410,1,0,0:0:0:0:
320,192,74500,1,0,0:0:0:0:
448,192,74591,1,0,0:0:0:0:
192,192,74682,128,0,74864:0:0:0:0:
64,192,74682,1,0,0:0:0:0:
320,192,74864,1,0,0:0:0:0:
192,192,74955,1,0,0:0:0:0:
448,192,75046,1,0,0:0:0:0:
320,192,75046,1,0,0:0:0:0:
64,192,75137,1,0,0:0:0:0:
192,192,75228,128,0,75319:0:0:0:0:
320,192,75319,128,0,75410:0:0:0:0:
64,192,75410,1,0,0:0:0:0:
192,192,75410,1,0,0:0:0:0:
448,192,75500,1,0,0:0:0:0:
64,192,75591,1,0,0:0:0:0:
192,192,75682,1,0,0:0:0:0:
448,192,75773,1,0,0:0:0:0:
320,192,75773,1,0,0:0:0:0:
192,192,75864,1,0,0:0:0:0:
448,192,75955,128,0,76046:0:0:0:0:
320,192,76046,128,0,76137:0:0:0:0:
64,192,76137,1,0,0:0:0:0:
192,192,76137,128,0,76319:0:0:0:0:
320,192,76319,1,0,0:0:0:0:
192,192,76410,1,0,0:0:0:0:
320,192,76500,1,0,0:0:0:0:
448,192,76500,1,0,0:0:0:0:
64,192,76591,1,0,0:0:0:0:
192,192,76682,128,0,76773:0:0:0:0:
320,192,76773,128,0,76864:0:0:0:0:
192,192,76864,1,0,0:0:0:0:
64,192,76864,1,0,0:0:0:0:
448,192,76955,1,0,0:0:0:0:
64,192,77046,1,0,0:0:0:0:
192,192,77137,1,0,0:0:0:0:
320,192,77228,1,0,0:0:0:0:
448,192,77228,1,0,0:0:0:0:
192,192,77319,1,0,0:0:0:0:
320,192,77410,1,0,0:0:0:0:
448,192,77500,1,0,0:0:0:0:
192,192,77591,128,0,77773:0:0:0:0:
64,192,77591,1,0,0:0:0:0:
320,192,77773,1,0,0:0:0:0:
192,192,77864,1,0,0:0:0:0:
448,192,77955,1,0,0:0:0:0:
320,192,77955,1,0,0:0:0:0:
64,192,78046,1,0,0:0:0:0:
192,192,78137,128,0,78228:0:0:0:0:
320,192,78228,128,0,78319:0:0:0:0:
64,192,78319,1,0,0:0:0:0:
192,192,78319,1,0,0:0:0:0:
448,192,78410,1,0,0:0:0:0:
192,192,78500,1,0,0:0:0:0:
320,192,78591,1,0,0:0:0:0:
448,192,78682,1,0,0:0:0:0:
64,192,78682,1,0,0:0:0:0:
448,192,79046,1,0,0:0:0:0:
64,192,79046,1,0,0:0:0:0:
192,192,79091,1,0,0:0:0:0:
320,192,79137,1,0,0:0:0:0:
320,192,79228,1,0,0:0:0:0:
64,192,79319,1,0,0:0:0:0:
448,192,79364,1,0,0:0:0:0:
192,192,79410,1,0,0:0:0:0:
192,192,79500,1,0,0:0:0:0:
320,192,79591,1,0,0:0:0:0:
64,192,79637,1,0,0:0:0:0:
448,192,79682,1,0,0:0:0:0:
448,192,79773,1,0,0:0:0:0:
192,192,79864,1,0,0:0:0:0:
320,192,79910,1,0,0:0:0:0:
64,192,79955,1,0,0:0:0:0:
64,192,80046,1,0,0:0:0:0:
448,192,80137,1,0,0:0:0:0:
320,192,80182,1,0,0:0:0:0:
192,192,80228,1,0,0:0:0:0:
64,192,80273,1,0,0:0:0:0:
320,192,80319,128,0,80500:0:0:0:0:
448,192,80500,1,0,0:0:0:0:
64,192,80500,1,0,0:0:0:0:
192,192,80546,1,0,0:0:0:0:
320,192,80591,1,0,0:0:0:0:
320,192,80682,1,0,0:0:0:0:
64,192,80773,1,0,0:0:0:0:
448,192,80819,1,0,0:0:0:0:
192,192,80864,1,0,0:0:0:0:
192,192,80955,1,0,0:0:0:0:
320,192,81046,1,0,0:0:0:0:
64,192,81091,1,0,0:0:0:0:
448,192,81137,1,0,0:0:0:0:
448,192,81228,1,0,0:0:0:0:
192,192,81319,1,0,0:0:0:0:
320,192,81364,1,0,0:0:0:0:
64,192,81410,1,0,0:0:0:0:
64,192,81500,1,0,0:0:0:0:
448,192,81591,1,0,0:0:0:0:
64,192,81955,5,0,0:0:0:0:
192,192,81955,1,0,0:0:0:0:
320,192,82000,1,0,0:0:0:0:
448,192,82046,1,0,0:0:0:0:
192,192,82091,1,0,0:0:0:0:
64,192,82137,1,0,0:0:0:0:
320,192,82182,1,0,0:0:0:0:
192,192,82228,1,0,0:0:0:0:
448,192,82273,1,0,0:0:0:0:
320,192,82319,1,0,0:0:0:0:
64,192,82364,1,0,0:0:0:0:
192,192,82410,1,0,0:0:0:0:
448,192,82455,1,0,0:0:0:0:
64,192,82500,1,0,0:0:0:0:
320,192,82546,1,0,0:0:0:0:
448,192,82591,1,0,0:0:0:0:
192,192,82637,1,0,0:0:0:0:
64,192,82682,1,0,0:0:0:0:
320,192,82728,1,0,0:0:0:0:
192,192,82773,1,0,0:0:0:0:
448,192,82819,1,0,0:0:0:0:
320,192,82864,1,0,0:0:0:0:
64,192,82910,1,0,0:0:0:0:
192,192,82955,1,0,0:0:0:0:
448,192,83000,1,0,0:0:0:0:
64,192,83046,1,0,0:0:0:0:
320,192,83091,1,0,0:0:0:0:
192,192,83137,1,0,0:0:0:0:
448,192,83182,1,0,0:0:0:0:
64,192,83228,1,0,0:0:0:0:
192,192,83273,1,0,0:0:0:0:
320,192,83319,1,0,0:0:0:0:
448,192,83364,1,0,0:0:0:0:
64,192,83410,1,0,0:0:0:0:
192,192,83410,1,0,0:0:0:0:
320,192,83500,1,0,0:0:0:0:
320,192,83591,128,0,83773:0:0:0:0:
64,192,83773,1,0,0:0:0:0:
192,192,83819,1,0,0:0:0:0:
448,192,83864,1,0,0:0:0:0:
320,192,83910,1,0,0:0:0:0:
192,192,83955,1,0,0:0:0:0:
192,192,84046,1,0,0:0:0:0:
448,192,84137,1,0,0:0:0:0:
320,192,84228,1,0,0:0:0:0:
192,192,84273,1,0,0:0:0:0:
64,192,84319,1,0,0:0:0:0:
64,192,84410,1,0,0:0:0:0:
320,192,84500,1,0,0:0:0:0:
448,192,84591,1,0,0:0:0:0:
448,192,84682,1,0,0:0:0:0:
192,192,84864,1,0,0:0:0:0:
64,192,84864,1,0,0:0:0:0:
320,192,84910,1,0,0:0:0:0:
448,192,84955,1,0,0:0:0:0:
192,192,85000,1,0,0:0:0:0:
64,192,85046,1,0,0:0:0:0:
320,192,85091,1,0,0:0:0:0:
192,192,85137,1,0,0:0:0:0:
64,192,85182,1,0,0:0:0:0:
448,192,85228,1,0,0:0:0:0:
320,192,85273,128,0,85410:0:0:0:0:
64,192,85410,1,0,0:0:0:0:
192,192,85455,128,0,85591:0:0:0:0:
64,192,85591,1,0,0:0:0:0:
448,192,85591,1,0,0:0:0:0:
192,192,85682,1,0,0:0:0:0:
448,192,85773,128,0,85955:0:0:0:0:
320,192,85834,128,0,85985:0:0:0:0:
192,192,85894,128,0,86016:0:0:0:0:
64,192,85955,128,0,86046:0:0:0:0:
448,192,86046,1,0,0:0:0:0:
320,192,86137,1,0,0:0:0:0:
320,192,86228,1,0,0:0:0:0:
64,192,86319,128,0,86500:0:0:0:0:
192,192,86379,128,0,86531:0:0:0:0:
320,192,86440,128,0,86561:0:0:0:0:
448,192,86500,128,0,86591:0:0:0:0:
64,192,86591,1,0,0:0:0:0:
320,192,86682,1,0,0:0:0:0:
448,192,86682,1,0,0:0:0:0:
192,192,86773,1,0,0:0:0:0:
448,192,86864,128,0,86985:0:0:0:0:
320,192,86925,128,0,87016:0:0:0:0:
192,192,86985,128,0,87046:0:0:0:0:
448,192,87046,1,0,0:0:0:0:
64,192,87046,1,0,0:0:0:0:
192,192,87137,1,0,0:0:0:0:
320,192,87228,128,0,87319:0:0:0:0:
64,192,87319,128,0,87410:0:0:0:0:
320,192,87410,128,0,87500:0:0:0:0:
192,192,87500,128,0,87591:0:0:0:0:
448,192,87591,128,0,87682:0:0:0:0:
192,192,87682,128,0,87773:0:0:0:0:
448,192,87773,1,0,0:0:0:0:
320,192,87773,1,0,0:0:0:0:
64,192,87819,1,0,0:0:0:0:
192,192,87864,1,0,0:0:0:0:
320,192,87910,1,0,0:0:0:0:
64,192,87955,1,0,0:0:0:0:
448,192,88000,1,0,0:0:0:0:
192,192,88046,1,0,0:0:0:0:
320,192,88091,1,0,0:0:0:0:
448,192,88137,1,0,0:0:0:0:
64,192,88182,1,0,0:0:0:0:
320,192,88228,1,0,0:0:0:0:
192,192,88273,1,0,0:0:0:0:
64,192,88319,1,0,0:0:0:0:
448,192,88364,1,0,0:0:0:0:
320,192,88410,1,0,0:0:0:0:
192,192,88455,1,0,0:0:0:0:
448,192,88500,1,0,0:0:0:0:
64,192,88500,1,0,0:0:0:0:
320,192,88591,128,0,88682:0:0:0:0:
192,192,88637,128,0,88728:0:0:0:0:
64,192,88682,128,0,88773:0:0:0:0:
448,192,88773,1,0,0:0:0:0:
64,192,88864,1,0,0:0:0:0:
320,192,88910,1,0,0:0:0:0:
192,192,88955,1,0,0:0:0:0:
448,192,89000,1,0,0:0:0:0:
64,192,89046,1,0,0:0:0:0:
320,192,89137,1,0,0:0:0:0:
192,192,89228,128,0,89319:0:0:0:0:
64,192,89228,1,0,0:0:0:0:
448,192,89258,128,0,89349:0:0:0:0:
192,192,89410,128,0,89500:0:0:0:0:
448,192,89440,128,0,89531:0:0:0:0:
64,192,89591,128,0,89682:0:0:0:0:
320,192,89622,128,0,89713:0:0:0:0:
64,192,89773,128,0,89864:0:0:0:0:
320,192,89803,128,0,89894:0:0:0:0:
448,192,89955,128,0,90319:0:0:0:0:
192,192,89955,1,0,0:0:0:0:
320,192,90137,1,0,0:0:0:0:
64,192,90319,128,0,90682:0:0:0:0:
192,192,90319,1,0,0:0:0:0:
320,192,90500,1,0,0:0:0:0:
320,192,90682,1,0,0:0:0:0:
448,192,90682,1,0,0:0:0:0:
192,192,90728,1,0,0:0:0:0:
64,192,90773,1,0,0:0:0:0:
320,192,90819,1,0,0:0:0:0:
448,192,90864,1,0,0:0:0:0:
192,192,90910,1,0,0:0:0:0:
320,192,90955,1,0,0:0:0:0:
448,192,91000,1,0,0:0:0:0:
64,192,91046,1,0,0:0:0:0:
192,192,91091,128,0,91228:0:0:0:0:
448,192,91228,1,0,0:0:0:0:
320,192,91273,128,0,91410:0:0:0:0:
448,192,91410,1,0,0:0:0:0:
64,192,91410,1,0,0:0:0:0:
320,192,91500,1,0,0:0:0:0:
64,192,91591,128,0,91773:0:0:0:0:
192,192,91652,128,0,91803:0:0:0:0:
320,192,91713,128,0,91834:0:0:0:0:
448,192,91773,128,0,91864:0:0:0:0:
64,192,91864,1,0,0:0:0:0:
192,192,91955,1,0,0:0:0:0:
192,192,92046,1,0,0:0:0:0:
448,192,92137,128,0,92319:0:0:0:0:
320,192,92197,128,0,92349:0:0:0:0:
192,192,92258,128,0,92379:0:0:0:0:
64,192,92319,128,0,92410:0:0:0:0:
448,192,92410,1,0,0:0:0:0:
192,192,92500,1,0,0:0:0:0:
64,192,92500,1,0,0:0:0:0:
320,192,92591,1,0,0:0:0:0:
64,192,92682,128,0,92803:0:0:0:0:
192,192,92743,128,0,92834:0:0:0:0:
320,192,92803,128,0,92864:0:0:0:0:
64,192,92864,1,0,0:0:0:0:
448,192,92864,1,0,0:0:0:0:
320,192,92955,1,0,0:0:0:0:
192,192,93046,1,0,0:0:0:0:
448,192,93091,1,0,0:0:0:0:
64,192,93137,1,0,0:0:0:0:
192,192,93228,1,0,0:0:0:0:
448,192,93273,1,0,0:0:0:0:
64,192,93319,1,0,0:0:0:0:
320,192,93364,1,0,0:0:0:0:
448,192,93410,1,0,0:0:0:0:
192,192,93455,1,0,0:0:0:0:
320,192,93500,1,0,0:0:0:0:
448,192,93546,1,0,0:0:0:0:
64,192,93591,1,0,0:0:0:0:
192,192,93591,1,0,0:0:0:0:
320,192,93632,1,0,0:0:0:0:
448,192,93672,1,0,0:0:0:0:
64,192,93713,1,0,0:0:0:0:
192,192,93753,1,0,0:0:0:0:
320,192,93807,1,0,0:0:0:0:
64,192,93861,1,0,0:0:0:0:
448,192,93915,1,0,0:0:0:0:
320,192,93995,1,0,0:0:0:0:
192,192,94076,1,0,0:0:0:0:
64,192,94182,1,0,0:0:0:0:
192,192,95046,1,0,0:0:0:0:
64,192,95046,1,0,0:0:0:0:
320,192,95137,1,0,0:0:0:0:
192,192,95182,1,0,0:0:0:0:
448,192,95228,1,0,0:0:0:0:
320,192,95273,1,0,0:0:0:0:
64,192,95319,1,0,0:0:0:0:
448,192,95410,1,0,0:0:0:0:
192,192,95455,1,0,0:0:0:0:
320,192,95500,1,0,0:0:0:0:
448,192,95546,1,0,0:0:0:0:
64,192,95591,1,0,0:0:0:0:
448,192,95682,128,0,95773:0:0:0:0:
192,192,95773,1,0,0:0:0:0:
320,192,95819,1,0,0:0:0:0:
64,192,95864,1,0,0:0:0:0:
192,192,95910,1,0,0:0:0:0:
448,192,95955,1,0,0:0:0:0:
320,192,96000,1,0,0:0:0:0:
64,192,96046,128,0,96137:0:0:0:0:
448,192,96137,1,0,0:0:0:0:
64,192,96228,1,0,0:0:0:0:
320,192,96273,1,0,0:0:0:0:
192,192,96319,1,0,0:0:0:0:
64,192,96364,1,0,0:0:0:0:
448,192,96410,1,0,0:0:0:0:
192,192,96500,1,0,0:0:0:0:
64,192,96500,1,0,0:0:0:0:
320,192,96546,1,0,0:0:0:0:
448,192,96591,1,0,0:0:0:0:
192,192,96637,1,0,0:0:0:0:
64,192,96682,1,0,0:0:0:0:
320,192,96728,1,0,0:0:0:0:
192,192,96773,1,0,0:0:0:0:
64,192,96819,1,0,0:0:0:0:
448,192,96864,1,0,0:0:0:0:
192,192,96955,1,0,0:0:0:0:
448,192,97000,1,0,0:0:0:0:
64,192,97046,1,0,0:0:0:0:
320,192,97091,1,0,0:0:0:0:
192,192,97137,1,0,0:0:0:0:
448,192,97228,1,0,0:0:0:0:
64,192,97228,1,0,0:0:0:0:
320,192,97319,1,0,0:0:0:0:
64,192,97410,1,0,0:0:0:0:
192,192,97410,1,0,0:0:0:0:
448,192,97500,1,0,0:0:0:0:
64,192,97546,1,0,0:0:0:0:
320,192,97591,1,0,0:0:0:0:
448,192,97637,1,0,0:0:0:0:
192,192,97682,1,0,0:0:0:0:
64,192,97728,1,0,0:0:0:0:
320,192,97773,1,0,0:0:0:0:
320,192,97864,1,0,0:0:0:0:
64,192,97955,1,0,0:0:0:0:
192,192,97955,1,0,0:0:0:0:
448,192,98000,1,0,0:0:0:0:
320,192,98046,1,0,0:0:0:0:
192,192,98091,1,0,0:0:0:0:
448,192,98137,1,0,0:0:0:0:
64,192,98182,1,0,0:0:0:0:
192,192,98228,1,0,0:0:0:0:
320,192,98273,1,0,0:0:0:0:
448,192,98319,1,0,0:0:0:0:
64,192,98364,1,0,0:0:0:0:
192,192,98410,1,0,0:0:0:0:
320,192,98455,1,0,0:0:0:0:
64,192,98500,1,0,0:0:0:0:
448,192,98546,1,0,0:0:0:0:
320,192,98591,1,0,0:0:0:0:
192,192,98637,1,0,0:0:0:0:
448,192,98682,1,0,0:0:0:0:
64,192,98682,1,0,0:0:0:0:
320,192,98773,1,0,0:0:0:0:
192,192,98864,128,0,99046:0:0:0:0:
320,192,99046,128,0,99410:0:0:0:0:
448,192,99228,1,0,0:0:0:0:
64,192,99410,1,0,0:0:0:0:
192,192,99410,1,0,0:0:0:0:
448,192,99531,1,0,0:0:0:0:
320,192,99591,1,0,0:0:0:0:
192,192,99652,1,0,0:0:0:0:
448,192,99713,1,0,0:0:0:0:
64,192,99773,1,0,0:0:0:0:
320,192,99864,1,0,0:0:0:0:
192,192,99955,1,0,0:0:0:0:
448,192,100046,1,0,0:0:0:0:
64,192,100137,1,0,0:0:0:0:
320,192,100137,1,0,0:0:0:0:
192,192,100228,1,0,0:0:0:0:
448,192,100319,1,0,0:0:0:0:
320,192,100319,1,0,0:0:0:0:
64,192,100364,1,0,0:0:0:0:
320,192,100410,1,0,0:0:0:0:
192,192,100455,1,0,0:0:0:0:
448,192,100500,1,0,0:0:0:0:
192,192,100591,1,0,0:0:0:0:
320,192,100682,1,0,0:0:0:0:
64,192,100773,1,0,0:0:0:0:
448,192,100864,1,0,0:0:0:0:
320,192,100864,1,0,0:0:0:0:
64,192,100955,128,0,101137:0:0:0:0:
192,192,101046,1,0,0:0:0:0:
448,192,101137,1,0,0:0:0:0:
320,192,101137,1,0,0:0:0:0:
64,192,101228,128,0,101410:0:0:0:0:
192,192,101319,1,0,0:0:0:0:
448,192,101410,1,0,0:0:0:0:
320,192,101410,1,0,0:0:0:0:
64,192,101500,1,0,0:0:0:0:
192,192,101591,1,0,0:0:0:0:
448,192,101591,128,0,101955:0:0:0:0:
320,192,101773,1,0,0:0:0:0:
64,192,101955,128,0,102319:0:0:0:0:
192,192,101955,1,0,0:0:0:0:
320,192,102137,1,0,0:0:0:0:
320,192,102319,1,0,0:0:0:0:
448,192,102319,1,0,0:0:0:0:
192,192,102364,1,0,0:0:0:0:
64,192,102410,1,0,0:0:0:0:
320,192,102455,1,0,0:0:0:0:
448,192,102500,1,0,0:0:0:0:
192,192,102546,1,0,0:0:0:0:
320,192,102591,1,0,0:0:0:0:
448,192,102637,1,0,0:0:0:0:
64,192,102682,1,0,0:0:0:0:
320,192,102773,1,0,0:0:0:0:
64,192,102819,1,0,0:0:0:0:
448,192,102864,1,0,0:0:0:0:
192,192,102910,1,0,0:0:0:0:
320,192,102955,1,0,0:0:0:0:
64,192,103046,1,0,0:0:0:0:
448,192,103046,1,0,0:0:0:0:
192,192,103137,1,0,0:0:0:0:
448,192,103228,1,0,0:0:0:0:
320,192,103228,1,0,0:0:0:0:
64,192,103319,1,0,0:0:0:0:
448,192,103364,1,0,0:0:0:0:
192,192,103410,1,0,0:0:0:0:
64,192,103455,1,0,0:0:0:0:
320,192,103500,1,0,0:0:0:0:
448,192,103546,1,0,0:0:0:0:
192,192,103591,1,0,0:0:0:0:
192,192,103682,1,0,0:0:0:0:
320,192,103773,1,0,0:0:0:0:
448,192,103773,1,0,0:0:0:0:
64,192,103864,1,0,0:0:0:0:
448,192,103910,1,0,0:0:0:0:
192,192,103955,1,0,0:0:0:0:
64,192,104000,1,0,0:0:0:0:
320,192,104046,1,0,0:0:0:0:
448,192,104091,1,0,0:0:0:0:
192,192,104137,1,0,0:0:0:0:
192,192,104228,1,0,0:0:0:0:
448,192,104319,1,0,0:0:0:0:
320,192,104319,1,0,0:0:0:0:
64,192,104379,1,0,0:0:0:0:
320,192,104440,1,0,0:0:0:0:
448,192,104500,1,0,0:0:0:0:
192,192,104500,1,0,0:0:0:0:
64,192,104591,1,0,0:0:0:0:
320,192,104682,1,0,0:0:0:0:
320,192,104773,1,0,0:0:0:0:
192,192,104864,1,0,0:0:0:0:
448,192,104955,1,0,0:0:0:0:
64,192,105046,1,0,0:0:0:0:
64,192,105137,1,0,0:0:0:0:
448,192,105228,1,0,0:0:0:0:
320,192,105228,1,0,0:0:0:0:
64,192,105319,1,0,0:0:0:0:
192,192,105364,1,0,0:0:0:0:
320,192,105410,1,0,0:0:0:0:
448,192,105455,1,0,0:0:0:0:
64,192,105500,1,0,0:0:0:0:
320,192,105546,1,0,0:0:0:0:
192,192,105591,128,0,105682:0:0:0:0:
448,192,105773,1,0,0:0:0:0:
320,192,105773,1,0,0:0:0:0:
64,192,105834,1,0,0:0:0:0:
320,192,105894,1,0,0:0:0:0:
448,192,105955,1,0,0:0:0:0:
192,192,105955,1,0,0:0:0:0:
192,192,106076,1,0,0:0:0:0:
192,192,106197,1,0,0:0:0:0:
320,192,106319,1,0,0:0:0:0:
320,192,106440,1,0,0:0:0:0:
320,192,106561,1,0,0:0:0:0:
64,192,106682,128,0,106773:0:0:0:0:
192,192,106682,1,0,0:0:0:0:
448,192,106773,1,0,0:0:0:0:
192,192,106819,1,0,0:0:0:0:
320,192,106864,1,0,0:0:0:0:
64,192,106910,1,0,0:0:0:0:
448,192,106955,1,0,0:0:0:0:
320,192,107000,1,0,0:0:0:0:
192,192,107046,1,0,0:0:0:0:
64,192,107046,128,0,107137:0:0:0:0:
448,192,107137,1,0,0:0:0:0:
192,192,107182,1,0,0:0:0:0:
320,192,107228,1,0,0:0:0:0:
64,192,107273,1,0,0:0:0:0:
448,192,107319,1,0,0:0:0:0:
320,192,107364,1,0,0:0:0:0:
192,192,107410,1,0,0:0:0:0:
64,192,107410,1,0,0:0:0:0:
448,192,107500,1,0,0:0:0:0:
64,192,107546,1,0,0:0:0:0:
192,192,107591,1,0,0:0:0:0:
320,192,107637,1,0,0:0:0:0:
64,192,107682,1,0,0:0:0:0:
192,192,107728,1,0,0:0:0:0:
448,192,107773,1,0,0:0:0:0:
64,192,107819,1,0,0:0:0:0:
320,192,107864,1,0,0:0:0:0:
448,192,107910,1,0,0:0:0:0:
192,192,107955,1,0,0:0:0:0:
320,192,108000,1,0,0:0:0:0:
64,192,108046,1,0,0:0:0:0:
192,192,108091,1,0,0:0:0:0:
320,192,108137,128,0,108319:0:0:0:0:
448,192,108137,1,0,0:0:0:0:
192,192,108319,1,0,0:0:0:0:
320,192,108500,128,0,108682:0:0:0:0:
64,192,108500,1,0,0:0:0:0:
192,192,108682,1,0,0:0:0:0:
320,192,108864,128,0,109046:0:0:0:0:
192,192,109046,1,0,0:0:0:0:
448,192,109137,128,0,109319:0:0:0:0:
64,192,109228,1,0,0:0:0:0:
320,192,109228,1,0,0:0:0:0:
448,192,109410,128,0,109500:0:0:0:0:
192,192,109591,128,0,109773:0:0:0:0:
320,192,109682,1,0,0:0:0:0:
320,192,109864,1,0,0:0:0:0:
448,192,109955,1,0,0:0:0:0:
192,192,109955,128,0,110137:0:0:0:0:
64,192,110137,1,0,0:0:0:0:
192,192,110319,128,0,110591:0:0:0:0:
320,192,110500,1,0,0:0:0:0:
448,192,110591,128,0,110682:0:0:0:0:
64,192,110682,1,0,0:0:0:0:
320,192,110682,1,0,0:0:0:0:
448,192,110864,128,0,110955:0:0:0:0:
64,192,111046,128,0,111228:0:0:0:0:
192,192,111319,1,0,0:0:0:0:
448,192,111410,1,0,0:0:0:0:
64,192,111410,128,0,111591:0:0:0:0:
320,192,111591,1,0,0:0:0:0:
64,192,111773,128,0,111955:0:0:0:0:
192,192,111955,1,0,0:0:0:0:
448,192,112046,128,0,112228:0:0:0:0:
320,192,112137,1,0,0:0:0:0:
64,192,112137,1,0,0:0:0:0:
448,192,112319,128,0,112410:0:0:0:0:
64,192,112500,128,0,112682:0:0:0:0:
320,192,112591,1,0,0:0:0:0:
320,192,112773,1,0,0:0:0:0:
448,192,112864,1,0,0:0:0:0:
64,192,112864,128,0,113046:0:0:0:0:
192,192,113046,1,0,0:0:0:0:
64,192,113228,128,0,113410:0:0:0:0:
320,192,113410,1,0,0:0:0:0:
448,192,113500,128,0,113682:0:0:0:0:
64,192,113591,1,0,0:0:0:0:
320,192,113591,1,0,0:0:0:0:
448,192,113773,128,0,113955:0:0:0:0:
320,192,113955,128,0,114137:0:0:0:0:
192,192,114137,1,0,0:0:0:0:
448,192,114273,1,0,0:0:0:0:
320,192,114319,128,0,114500:0:0:0:0:
64,192,114319,1,0,0:0:0:0:
192,192,114500,1,0,0:0:0:0:
320,192,114682,128,0,114864:0:0:0:0:
192,192,114864,1,0,0:0:0:0:
448,192,114955,128,0,115137:0:0:0:0:
64,192,115046,1,0,0:0:0:0:
320,192,115046,1,0,0:0:0:0:
448,192,115228,128,0,115319:0:0:0:0:
192,192,115410,128,0,115591:0:0:0:0:
320,192,115500,1,0,0:0:0:0:
320,192,115682,1,0,0:0:0:0:
448,192,115773,1,0,0:0:0:0:
192,192,115773,128,0,115955:0:0:0:0:
64,192,115955,1,0,0:0:0:0:
192,192,116137,128,0,116410:0:0:0:0:
320,192,116319,1,0,0:0:0:0:
448,192,116410,128,0,116500:0:0:0:0:
64,192,116500,1,0,0:0:0:0:
320,192,116500,1,0,0:0:0:0:
448,192,116682,128,0,116864:0:0:0:0:
64,192,116864,128,0,117046:0:0:0:0:
192,192,117137,1,0,0:0:0:0:
448,192,117228,1,0,0:0:0:0:
64,192,117228,128,0,117410:0:0:0:0:
320,192,117410,1,0,0:0:0:0:
64,192,117591,128,0,117773:0:0:0:0:
192,192,117773,1,0,0:0:0:0:
448,192,117864,128,0,118046:0:0:0:0:
64,192,117955,1,0,0:0:0:0:
320,192,117955,1,0,0:0:0:0:
448,192,118137,128,0,118228:0:0:0:0:
64,192,118319,128,0,118500:0:0:0:0:
320,192,118500,1,0,0:0:0:0:
64,192,118682,128,0,118864:0:0:0:0:
64,192,119046,128,0,119228:0:0:0:0:
448,192,119319,128,0,119500:0:0:0:0:
448,192,119591,128,0,119682:0:0:0:0:
448,192,119773,1,0,0:0:0:0:
320,192,119773,1,0,0:0:0:0:
64,192,119773,1,0,0:0:0:0:
192,192,119864,1,0,0:0:0:0:
320,192,119955,1,0,0:0:0:0:
64,192,120046,1,0,0:0:0:0:
448,192,120137,1,0,0:0:0:0:
192,192,120137,1,0,0:0:0:0:
320,192,120228,1,0,0:0:0:0:
64,192,120319,1,0,0:0:0:0:
192,192,120319,1,0,0:0:0:0:
448,192,120410,1,0,0:0:0:0:
64,192,120500,1,0,0:0:0:0:
192,192,120591,1,0,0:0:0:0:
448,192,120682,1,0,0:0:0:0:
320,192,120682,1,0,0:0:0:0:
64,192,120773,1,0,0:0:0:0:
448,192,120864,1,0,0:0:0:0:
192,192,120864,1,0,0:0:0:0:
320,192,120955,1,0,0:0:0:0:
192,192,121046,1,0,0:0:0:0:
64,192,121137,1,0,0:0:0:0:
448,192,121228,1,0,0:0:0:0:
320,192,121228,1,0,0:0:0:0:
64,192,121319,1,0,0:0:0:0:
192,192,121319,1,0,0:0:0:0:
320,192,121410,1,0,0:0:0:0:
192,192,121500,1,0,0:0:0:0:
448,192,121591,1,0,0:0:0:0:
64,192,121591,1,0,0:0:0:0:
320,192,121682,1,0,0:0:0:0:
64,192,121773,1,0,0:0:0:0:
192,192,121773,1,0,0:0:0:0:
448,192,121864,1,0,0:0:0:0:
320,192,121955,1,0,0:0:0:0:
192,192,122046,1,0,0:0:0:0:
448,192,122137,1,0,0:0:0:0:
320,192,122137,1,0,0:0:0:0:
64,192,122228,1,0,0:0:0:0:
448,192,122319,1,0,0:0:0:0:
192,192,122319,1,0,0:0:0:0:
64,192,122410,1,0,0:0:0:0:
320,192,122500,1,0,0:0:0:0:
448,192,122591,1,0,0:0:0:0:
64,192,122682,1,0,0:0:0:0:
192,192,122682,1,0,0:0:0:0:
320,192,122773,1,0,0:0:0:0:
192,192,122864,1,0,0:0:0:0:
448,192,122955,1,0,0:0:0:0:
64,192,123046,1,0,0:0:0:0:
320,192,123046,1,0,0:0:0:0:
192,192,123137,1,0,0:0:0:0:
448,192,123228,1,0,0:0:0:0:
320,192,123228,1,0,0:0:0:0:
64,192,123319,1,0,0:0:0:0:
192,192,123410,1,0,0:0:0:0:
320,192,123500,1,0,0:0:0:0:
64,192,123591,1,0,0:0:0:0:
192,192,123591,1,0,0:0:0:0:
448,192,123682,1,0,0:0:0:0:
320,192,123773,1,0,0:0:0:0:
64,192,123773,1,0,0:0:0:0:
192,192,123864,1,0,0:0:0:0:
320,192,123955,1,0,0:0:0:0:
64,192,123955,1,0,0:0:0:0:
448,192,124046,1,0,0:0:0:0:
64,192,124137,1,0,0:0:0:0:
192,192,124137,1,0,0:0:0:0:
320,192,124228,1,0,0:0:0:0:
448,192,124228,1,0,0:0:0:0:
192,192,124319,1,0,0:0:0:0:
320,192,124410,1,0,0:0:0:0:
448,192,124500,1,0,0:0:0:0:
64,192,124500,1,0,0:0:0:0:
192,192,124591,1,0,0:0:0:0:
448,192,124682,1,0,0:0:0:0:
320,192,124682,1,0,0:0:0:0:
64,192,124773,1,0,0:0:0:0:
192,192,124864,1,0,0:0:0:0:
320,192,124955,1,0,0:0:0:0:
64,192,125046,1,0,0:0:0:0:
192,192,125046,1,0,0:0:0:0:
320,192,125137,1,0,0:0:0:0:
448,192,125228,1,0,0:0:0:0:
64,192,125228,1,0,0:0:0:0:
192,192,125319,1,0,0:0:0:0:
448,192,125410,1,0,0:0:0:0:
64,192,125410,1,0,0:0:0:0:
320,192,125500,1,0,0:0:0:0:
448,192,125591,1,0,0:0:0:0:
192,192,125591,1,0,0:0:0:0:
64,192,125591,1,0,0:0:0:0:
192,192,125682,1,0,0:0:0:0:
448,192,125773,1,0,0:0:0:0:
320,192,125864,1,0,0:0:0:0:
320,192,125955,1,0,0:0:0:0:
192,192,126046,1,0,0:0:0:0:
64,192,126137,1,0,0:0:0:0:
64,192,126228,1,0,0:0:0:0:
448,192,126319,1,0,0:0:0:0:
320,192,126410,1,0,0:0:0:0:
320,192,126500,1,0,0:0:0:0:
64,192,126591,1,0,0:0:0:0:
192,192,126682,1,0,0:0:0:0:
192,192,126773,1,0,0:0:0:0:
448,192,126864,1,0,0:0:0:0:
448,192,126955,1,0,0:0:0:0:
320,192,127046,1,0,0:0:0:0:
320,192,127137,1,0,0:0:0:0:
64,192,127228,1,0,0:0:0:0:
192,192,127319,1,0,0:0:0:0:
192,192,127410,1,0,0:0:0:0:
320,192,127500,1,0,0:0:0:0:
448,192,127591,1,0,0:0:0:0:
448,192,127682,1,0,0:0:0:0:
64,192,127773,1,0,0:0:0:0:
192,192,127864,1,0,0:0:0:0:
192,192,127955,1,0,0:0:0:0:
448,192,128046,1,0,0:0:0:0:
320,192,128137,1,0,0:0:0:0:
320,192,128228,1,0,0:0:0:0:
64,192,128319,1,0,0:0:0:0:
64,192,128410,1,0,0:0:0:0:
448,192,128500,1,0,0:0:0:0:
320,192,128546,1,0,0:0:0:0:
192,192,128591,1,0,0:0:0:0:
64,192,128637,1,0,0:0:0:0:
448,192,128682,1,0,0:0:0:0:
192,192,128728,1,0,0:0:0:0:
320,192,128773,1,0,0:0:0:0:
64,192,128864,1,0,0:0:0:0:
192,192,128910,1,0,0:0:0:0:
320,192,128955,1,0,0:0:0:0:
448,192,129000,1,0,0:0:0:0:
64,192,129046,1,0,0:0:0:0:
320,192,129091,1,0,0:0:0:0:
192,192,129137,1,0,0:0:0:0:
448,192,129228,1,0,0:0:0:0:
320,192,129273,1,0,0:0:0:0:
192,192,129319,1,0,0:0:0:0:
64,192,129364,1,0,0:0:0:0:
448,192,129410,1,0,0:0:0:0:
192,192,129455,1,0,0:0:0:0:
320,192,129500,1,0,0:0:0:0:
64,192,129591,1,0,0:0:0:0:
192,192,129637,1,0,0:0:0:0:
320,192,129682,1,0,0:0:0:0:
448,192,129728,1,0,0:0:0:0:
64,192,129773,1,0,0:0:0:0:
320,192,129819,1,0,0:0:0:0:
192,192,129864,1,0,0:0:0:0:
64,192,129955,1,0,0:0:0:0:
448,192,129955,1,0,0:0:0:0:
320,192,130000,1,0,0:0:0:0:
192,192,130046,1,0,0:0:0:0:
64,192,130091,1,0,0:0:0:0:
448,192,130137,1,0,0:0:0:0:
320,192,130182,1,0,0:0:0:0:
192,192,130228,1,0,0:0:0:0:
64,192,130319,1,0,0:0:0:0:
192,192,130364,1,0,0:0:0:0:
320,192,130410,1,0,0:0:0:0:
448,192,130455,1,0,0:0:0:0:
64,192,130500,1,0,0:0:0:0:
192,192,130546,1,0,0:0:0:0:
320,192,130591,1,0,0:0:0:0:
448,192,130682,128,0,131046:0:0:0:0:
64,192,131046,1,0,0:0:0:0:
192,192,131076,1,0,0:0:0:0:
320,192,131106,1,0,0:0:0:0:
448,192,131137,1,0,0:0:0:0:
64,192,131167,1,0,0:0:0:0:
192,192,131197,1,0,0:0:0:0:
320,192,131228,1,0,0:0:0:0:
448,192,131258,1,0,0:0:0:0:
64,192,131288,1,0,0:0:0:0:
192,192,131319,1,0,0:0:0:0:
320,192,131349,1,0,0:0:0:0:
448,192,131379,1,0,0:0:0:0:
192,192,131410,1,0,0:0:0:0:
64,192,131410,1,0,0:0:0:0:
448,192,131500,1,0,0:0:0:0:
192,192,131500,1,0,0:0:0:0:
64,192,131591,1,0,0:0:0:0:
448,192,131682,1,0,0:0:0:0:
320,192,131682,1,0,0:0:0:0:
192,192,131773,1,0,0:0:0:0:
320,192,131773,1,0,0:0:0:0:
448,192,131864,1,0,0:0:0:0:
192,192,131955,1,0,0:0:0:0:
64,192,131955,1,0,0:0:0:0:
320,192,132046,1,0,0:0:0:0:
64,192,132046,1,0,0:0:0:0:
192,192,132137,1,0,0:0:0:0:
448,192,132228,1,0,0:0:0:0:
320,192,132228,1,0,0:0:0:0:
64,192,132319,1,0,0:0:0:0:
320,192,132319,1,0,0:0:0:0:
448,192,132410,1,0,0:0:0:0:
64,192,132500,1,0,0:0:0:0:
192,192,132500,1,0,0:0:0:0:
192,192,132591,1,0,0:0:0:0:
64,192,132682,1,0,0:0:0:0:
448,192,132682,1,0,0:0:0:0:
320,192,132728,1,0,0:0:0:0:
192,192,132773,1,0,0:0:0:0:
64,192,132819,1,0,0:0:0:0:
448,192,132864,1,0,0:0:0:0:
320,192,132864,1,0,0:0:0:0:
192,192,132955,1,0,0:0:0:0:
320,192,132955,1,0,0:0:0:0:
448,192,133046,1,0,0:0:0:0:
64,192,133137,1,0,0:0:0:0:
192,192,133137,1,0,0:0:0:0:
320,192,133228,1,0,0:0:0:0:
192,192,133228,1,0,0:0:0:0:
64,192,133319,1,0,0:0:0:0:
320,192,133410,1,0,0:0:0:0:
448,192,133410,1,0,0:0:0:0:
192,192,133500,1,0,0:0:0:0:
448,192,133500,1,0,0:0:0:0:
320,192,133591,1,0,0:0:0:0:
64,192,133682,1,0,0:0:0:0:
192,192,133682,1,0,0:0:0:0:
192,192,133773,1,0,0:0:0:0:
64,192,133803,1,0,0:0:0:0:
320,192,133834,1,0,0:0:0:0:
448,192,133864,1,0,0:0:0:0:
192,192,133894,1,0,0:0:0:0:
64,192,133925,1,0,0:0:0:0:
448,192,133955,1,0,0:0:0:0:
320,192,133955,1,0,0:0:0:0:
320,192,134046,1,0,0:0:0:0:
448,192,134137,1,0,0:0:0:0:
64,192,134137,1,0,0:0:0:0:
192,192,134228,1,0,0:0:0:0:
64,192,134228,1,0,0:0:0:0:
448,192,134319,1,0,0:0:0:0:
320,192,134319,1,0,0:0:0:0:
192,192,134410,1,0,0:0:0:0:
448,192,134410,1,0,0:0:0:0:
320,192,134500,1,0,0:0:0:0:
192,192,134591,1,0,0:0:0:0:
64,192,134591,1,0,0:0:0:0:
448,192,134682,1,0,0:0:0:0:
64,192,134682,1,0,0:0:0:0:
192,192,134773,1,0,0:0:0:0:
448,192,134864,1,0,0:0:0:0:
320,192,134864,1,0,0:0:0:0:
64,192,134955,1,0,0:0:0:0:
320,192,134955,1,0,0:0:0:0:
448,192,135046,1,0,0:0:0:0:
192,192,135137,1,0,0:0:0:0:
64,192,135137,1,0,0:0:0:0:
320,192,135228,1,0,0:0:0:0:
64,192,135228,1,0,0:0:0:0:
192,192,135319,1,0,0:0:0:0:
448,192,135410,1,0,0:0:0:0:
320,192,135410,1,0,0:0:0:0:
448,192,135500,1,0,0:0:0:0:
320,192,135591,1,0,0:0:0:0:
64,192,135591,1,0,0:0:0:0:
448,192,135637,1,0,0:0:0:0:
192,192,135682,1,0,0:0:0:0:
64,192,135728,1,0,0:0:0:0:
320,192,135773,1,0,0:0:0:0:
448,192,135773,1,0,0:0:0:0:
320,192,135864,1,0,0:0:0:0:
448,192,136046,1,0,0:0:0:0:
192,192,136046,1,0,0:0:0:0:
448,192,136137,1,0,0:0:0:0:
64,192,136319,1,0,0:0:0:0:
192,192,136319,1,0,0:0:0:0:
64,192,136410,1,0,0:0:0:0:
192,192,136591,1,0,0:0:0:0:
320,192,136591,1,0,0:0:0:0:
320,192,136682,1,0,0:0:0:0:
64,192,136864,1,0,0:0:0:0:
192,192,136864,1,0,0:0:0:0:
192,192,136955,1,0,0:0:0:0:
448,192,137046,1,0,0:0:0:0:
64,192,137046,1,0,0:0:0:0:
448,192,137137,1,0,0:0:0:0:
192,192,137228,1,0,0:0:0:0:
64,192,137228,1,0,0:0:0:0:
448,192,137319,1,0,0:0:0:0:
192,192,137319,1,0,0:0:0:0:
64,192,137410,1,0,0:0:0:0:
448,192,137500,1,0,0:0:0:0:
320,192,137500,1,0,0:0:0:0:
192,192,137591,1,0,0:0:0:0:
320,192,137591,1,0,0:0:0:0:
448,192,137682,1,0,0:0:0:0:
192,192,137773,1,0,0:0:0:0:
64,192,137773,1,0,0:0:0:0:
320,192,137864,1,0,0:0:0:0:
64,192,137864,1,0,0:0:0:0:
192,192,137955,1,0,0:0:0:0:
448,192,138046,1,0,0:0:0:0:
320,192,138046,1,0,0:0:0:0:
64,192,138137,1,0,0:0:0:0:
320,192,138137,1,0,0:0:0:0:
448,192,138228,1,0,0:0:0:0:
64,192,138319,1,0,0:0:0:0:
192,192,138319,1,0,0:0:0:0:
192,192,138410,1,0,0:0:0:0:
64,192,138500,1,0,0:0:0:0:
448,192,138500,1,0,0:0:0:0:
320,192,138546,1,0,0:0:0:0:
192,192,138591,1,0,0:0:0:0:
64,192,138637,1,0,0:0:0:0:
448,192,138682,1,0,0:0:0:0:
320,192,138682,1,0,0:0:0:0:
192,192,138773,1,0,0:0:0:0:
320,192,138773,1,0,0:0:0:0:
448,192,138864,1,0,0:0:0:0:
64,192,138955,1,0,0:0:0:0:
192,192,138955,1,0,0:0:0:0:
320,192,139046,1,0,0:0:0:0:
192,192,139046,1,0,0:0:0:0:
64,192,139137,1,0,0:0:0:0:
320,192,139228,1,0,0:0:0:0:
448,192,139228,1,0,0:0:0:0:
192,192,139319,1,0,0:0:0:0:
448,192,139319,1,0,0:0:0:0:
320,192,139410,1,0,0:0:0:0:
64,192,139500,1,0,0:0:0:0:
192,192,139500,1,0,0:0:0:0:
192,192,139591,1,0,0:0:0:0:
64,192,139622,1,0,0:0:0:0:
320,192,139652,1,0,0:0:0:0:
448,192,139682,1,0,0:0:0:0:
192,192,139713,1,0,0:0:0:0:
64,192,139743,1,0,0:0:0:0:
448,192,139773,1,0,0:0:0:0:
320,192,139773,1,0,0:0:0:0:
320,192,139864,1,0,0:0:0:0:
448,192,139955,1,0,0:0:0:0:
64,192,139955,1,0,0:0:0:0:
192,192,140046,1,0,0:0:0:0:
64,192,140046,1,0,0:0:0:0:
448,192,140137,1,0,0:0:0:0:
320,192,140137,1,0,0:0:0:0:
192,192,140228,1,0,0:0:0:0:
448,192,140228,1,0,0:0:0:0:
320,192,140319,1,0,0:0:0:0:
192,192,140410,1,0,0:0:0:0:
64,192,140410,1,0,0:0:0:0:
448,192,140500,1,0,0:0:0:0:
64,192,140500,1,0,0:0:0:0:
192,192,140591,1,0,0:0:0:0:
448,192,140682,1,0,0:0:0:0:
320,192,140682,1,0,0:0:0:0:
64,192,140773,1,0,0:0:0:0:
320,192,140773,1,0,0:0:0:0:
448,192,140864,1,0,0:0:0:0:
192,192,140955,1,0,0:0:0:0:
64,192,140955,1,0,0:0:0:0:
320,192,141046,1,0,0:0:0:0:
64,192,141046,1,0,0:0:0:0:
192,192,141137,1,0,0:0:0:0:
448,192,141228,1,0,0:0:0:0:
320,192,141228,1,0,0:0:0:0:
448,192,141319,1,0,0:0:0:0:
320,192,141410,1,0,0:0:0:0:
64,192,141410,1,0,0:0:0:0:
448,192,141455,1,0,0:0:0:0:
192,192,141500,1,0,0:0:0:0:
64,192,141546,1,0,0:0:0:0:
320,192,141591,128,0,141682:0:0:0:0:
64,192,141682,1,0,0:0:0:0:
192,192,141682,1,0,0:0:0:0:
64,192,141773,1,0,0:0:0:0:
192,192,141773,1,0,0:0:0:0:
320,192,141864,128,0,141955:0:0:0:0:
64,192,141955,1,0,0:0:0:0:
192,192,141955,1,0,0:0:0:0:
64,192,142046,1,0,0:0:0:0:
192,192,142046,1,0,0:0:0:0:
320,192,142137,128,0,142228:0:0:0:0:
192,192,142228,1,0,0:0:0:0:
448,192,142273,1,0,0:0:0:0:
320,192,142319,1,0,0:0:0:0:
64,192,142364,1,0,0:0:0:0:
192,192,142410,128,0,142500:0:0:0:0:
448,192,142500,1,0,0:0:0:0:
320,192,142500,1,0,0:0:0:0:
448,192,142591,1,0,0:0:0:0:
320,192,142591,1,0,0:0:0:0:
64,192,142682,1,0,0:0:0:0:
192,192,142728,1,0,0:0:0:0:
320,192,142773,1,0,0:0:0:0:
64,192,142864,1,0,0:0:0:0:
64,192,142955,1,0,0:0:0:0:
320,192,143046,1,0,0:0:0:0:
448,192,143046,1,0,0:0:0:0:
64,192,143137,1,0,0:0:0:0:
320,192,143137,1,0,0:0:0:0:
448,192,143228,1,0,0:0:0:0:
64,192,143319,1,0,0:0:0:0:
192,192,143319,1,0,0:0:0:0:
320,192,143410,1,0,0:0:0:0:
192,192,143410,1,0,0:0:0:0:
64,192,143500,1,0,0:0:0:0:
320,192,143591,1,0,0:0:0:0:
448,192,143591,1,0,0:0:0:0:
192,192,143682,1,0,0:0:0:0:
448,192,143682,1,0,0:0:0:0:
320,192,143773,1,0,0:0:0:0:
64,192,143864,1,0,0:0:0:0:
192,192,143864,1,0,0:0:0:0:
448,192,143955,1,0,0:0:0:0:
192,192,143955,1,0,0:0:0:0:
64,192,144046,1,0,0:0:0:0:
448,192,144137,1,0,0:0:0:0:
320,192,144137,1,0,0:0:0:0:
320,192,144228,1,0,0:0:0:0:
448,192,144319,1,0,0:0:0:0:
64,192,144319,1,0,0:0:0:0:
192,192,144364,1,0,0:0:0:0:
320,192,144410,1,0,0:0:0:0:
448,192,144455,1,0,0:0:0:0:
64,192,144500,1,0,0:0:0:0:
192,192,144500,1,0,0:0:0:0:
320,192,144591,1,0,0:0:0:0:
192,192,144591,1,0,0:0:0:0:
64,192,144682,1,0,0:0:0:0:
448,192,144773,1,0,0:0:0:0:
320,192,144773,1,0,0:0:0:0:
192,192,144864,1,0,0:0:0:0:
320,192,144864,1,0,0:0:0:0:
448,192,144955,1,0,0:0:0:0:
192,192,145046,1,0,0:0:0:0:
64,192,145046,1,0,0:0:0:0:
320,192,145137,1,0,0:0:0:0:
64,192,145137,1,0,0:0:0:0:
192,192,145228,1,0,0:0:0:0:
448,192,145319,1,0,0:0:0:0:
320,192,145319,1,0,0:0:0:0:
320,192,145410,1,0,0:0:0:0:
448,192,145440,1,0,0:0:0:0:
192,192,145470,1,0,0:0:0:0:
64,192,145500,1,0,0:0:0:0:
320,192,145531,1,0,0:0:0:0:
448,192,145561,1,0,0:0:0:0:
64,192,145591,1,0,0:0:0:0:
192,192,145591,1,0,0:0:0:0:
192,192,145682,1,0,0:0:0:0:
64,192,145773,1,0,0:0:0:0:
448,192,145773,1,0,0:0:0:0:
320,192,145864,1,0,0:0:0:0:
448,192,145864,1,0,0:0:0:0:
64,192,145955,1,0,0:0:0:0:
192,192,145955,1,0,0:0:0:0:
320,192,146046,1,0,0:0:0:0:
64,192,146046,1,0,0:0:0:0:
192,192,146137,1,0,0:0:0:0:
320,192,146228,1,0,0:0:0:0:
448,192,146228,1,0,0:0:0:0:
64,192,146319,1,0,0:0:0:0:
448,192,146319,1,0,0:0:0:0:
320,192,146410,1,0,0:0:0:0:
64,192,146500,1,0,0:0:0:0:
192,192,146500,1,0,0:0:0:0:
448,192,146591,1,0,0:0:0:0:
192,192,146591,1,0,0:0:0:0:
64,192,146682,1,0,0:0:0:0:
320,192,146773,1,0,0:0:0:0:
448,192,146773,1,0,0:0:0:0:
192,192,146864,1,0,0:0:0:0:
448,192,146864,1,0,0:0:0:0:
320,192,146955,1,0,0:0:0:0:
64,192,147046,1,0,0:0:0:0:
192,192,147046,1,0,0:0:0:0:
64,192,147137,1,0,0:0:0:0:
192,192,147228,1,0,0:0:0:0:
448,192,147228,1,0,0:0:0:0:
64,192,147273,1,0,0:0:0:0:
320,192,147319,1,0,0:0:0:0:
448,192,147364,1,0,0:0:0:0:
192,192,147410,1,0,0:0:0:0:
64,192,147410,1,0,0:0:0:0:
192,192,147500,1,0,0:0:0:0:
64,192,147682,1,0,0:0:0:0:
320,192,147682,1,0,0:0:0:0:
64,192,147773,1,0,0:0:0:0:
448,192,147955,1,0,0:0:0:0:
320,192,147955,1,0,0:0:0:0:
448,192,148046,1,0,0:0:0:0:
320,192,148228,1,0,0:0:0:0:
192,192,148228,1,0,0:0:0:0:
192,192,148319,1,0,0:0:0:0:
448,192,148500,1,0,0:0:0:0:
320,192,148500,1,0,0:0:0:0:
320,192,148591,1,0,0:0:0:0:
64,192,148682,1,0,0:0:0:0:
448,192,148682,1,0,0:0:0:0:
64,192,148773,1,0,0:0:0:0:
192,192,148864,1,0,0:0:0:0:
320,192,148864,1,0,0:0:0:0:
448,192,148864,1,0,0:0:0:0:
64,192,148955,1,0,0:0:0:0:
320,192,148955,1,0,0:0:0:0:
448,192,149046,1,0,0:0:0:0:
64,192,149137,1,0,0:0:0:0:
192,192,149137,1,0,0:0:0:0:
320,192,149228,1,0,0:0:0:0:
192,192,149228,1,0,0:0:0:0:
64,192,149319,1,0,0:0:0:0:
320,192,149410,1,0,0:0:0:0:
448,192,149410,1,0,0:0:0:0:
192,192,149500,1,0,0:0:0:0:
448,192,149500,1,0,0:0:0:0:
320,192,149591,1,0,0:0:0:0:
64,192,149682,1,0,0:0:0:0:
192,192,149682,1,0,0:0:0:0:
448,192,149773,1,0,0:0:0:0:
192,192,149773,1,0,0:0:0:0:
64,192,149864,1,0,0:0:0:0:
448,192,149955,1,0,0:0:0:0:
320,192,149955,1,0,0:0:0:0:
320,192,150046,1,0,0:0:0:0:
448,192,150137,1,0,0:0:0:0:
64,192,150137,1,0,0:0:0:0:
192,192,150182,1,0,0:0:0:0:
320,192,150228,1,0,0:0:0:0:
64,192,150273,1,0,0:0:0:0:
192,192,150319,1,0,0:0:0:0:
448,192,150319,1,0,0:0:0:0:
320,192,150410,1,0,0:0:0:0:
192,192,150410,1,0,0:0:0:0:
64,192,150500,1,0,0:0:0:0:
448,192,150591,1,0,0:0:0:0:
320,192,150591,1,0,0:0:0:0:
192,192,150682,1,0,0:0:0:0:
320,192,150682,1,0,0:0:0:0:
448,192,150773,1,0,0:0:0:0:
192,192,150864,1,0,0:0:0:0:
64,192,150864,1,0,0:0:0:0:
320,192,150955,1,0,0:0:0:0:
64,192,150955,1,0,0:0:0:0:
192,192,151046,1,0,0:0:0:0:
448,192,151137,1,0,0:0:0:0:
320,192,151137,1,0,0:0:0:0:
320,192,151228,1,0,0:0:0:0:
448,192,151258,1,0,0:0:0:0:
192,192,151288,1,0,0:0:0:0:
64,192,151319,1,0,0:0:0:0:
320,192,151349,1,0,0:0:0:0:
448,192,151379,1,0,0:0:0:0:
64,192,151410,1,0,0:0:0:0:
192,192,151410,1,0,0:0:0:0:
192,192,151500,1,0,0:0:0:0:
64,192,151591,1,0,0:0:0:0:
448,192,151591,1,0,0:0:0:0:
320,192,151682,1,0,0:0:0:0:
448,192,151682,1,0,0:0:0:0:
448,192,151773,1,0,0:0:0:0:
64,192,151773,1,0,0:0:0:0:
192,192,151773,1,0,0:0:0:0:
320,192,151864,1,0,0:0:0:0:
64,192,151864,1,0,0:0:0:0:
192,192,151955,1,0,0:0:0:0:
320,192,152046,1,0,0:0:0:0:
448,192,152046,1,0,0:0:0:0:
64,192,152137,1,0,0:0:0:0:
448,192,152137,1,0,0:0:0:0:
320,192,152228,1,0,0:0:0:0:
64,192,152319,1,0,0:0:0:0:
192,192,152319,1,0,0:0:0:0:
448,192,152410,1,0,0:0:0:0:
192,192,152410,1,0,0:0:0:0:
320,192,152500,1,0,0:0:0:0:
64,192,152500,1,0,0:0:0:0:
320,192,152591,1,0,0:0:0:0:
448,192,152591,1,0,0:0:0:0:
192,192,152682,1,0,0:0:0:0:
448,192,152682,1,0,0:0:0:0:
320,192,152773,1,0,0:0:0:0:
64,192,152864,1,0,0:0:0:0:
192,192,152864,1,0,0:0:0:0:
64,192,152955,1,0,0:0:0:0:
448,192,153046,1,0,0:0:0:0:
192,192,153046,1,0,0:0:0:0:
64,192,153091,1,0,0:0:0:0:
320,192,153137,1,0,0:0:0:0:
448,192,153182,1,0,0:0:0:0:
192,192,153228,1,0,0:0:0:0:
64,192,153258,1,0,0:0:0:0:
320,192,153288,1,0,0:0:0:0:
448,192,153319,1,0,0:0:0:0:
192,192,153349,1,0,0:0:0:0:
64,192,153379,1,0,0:0:0:0:
320,192,153410,1,0,0:0:0:0:
448,192,153440,1,0,0:0:0:0:
192,192,153470,1,0,0:0:0:0:
64,192,153500,1,0,0:0:0:0:
320,192,153546,1,0,0:0:0:0:
448,192,153591,1,0,0:0:0:0:
192,192,153637,1,0,0:0:0:0:
64,192,153682,1,0,0:0:0:0:
320,192,153728,1,0,0:0:0:0:
448,192,153773,1,0,0:0:0:0:
192,192,153834,1,0,0:0:0:0:
64,192,153894,1,0,0:0:0:0:
320,192,153955,1,0,0:0:0:0:
192,192,154016,1,0,0:0:0:0:
448,192,154076,1,0,0:0:0:0:
320,192,154137,1,0,0:0:0:0:
64,192,154197,1,0,0:0:0:0:
448,192,154288,1,0,0:0:0:0:
64,192,154379,1,0,0:0:0:0:
448,192,154470,1,0,0:0:0:0:
64,192,154561,1,0,0:0:0:0:
448,192,154682,128,0,155046:0:0:0:0:
320,192,154682,128,0,155046:0:0:0:0:
192,192,154682,1,0,0:0:0:0:
320,192,160500,5,0,0:0:0:0:
64,192,160500,128,0,160864:0:0:0:0:
192,192,160500,128,0,160864:0:0:0:0:
320,192,165591,128,0,166319:0:0:0:0:
448,192,166319,1,0,0:0:0:0:
64,192,166319,1,0,0:0:0:0:
320,192,166499,1,0,0:0:0:0:
192,192,166590,1,0,0:0:0:0:
448,192,166680,1,0,0:0:0:0:
64,192,166680,1,0,0:0:0:0:
320,192,166770,1,0,0:0:0:0:
192,192,166861,1,0,0:0:0:0:
448,192,167041,1,0,0:0:0:0:
192,192,167041,1,0,0:0:0:0:
320,192,167222,1,0,0:0:0:0:
448,192,167312,1,0,0:0:0:0:
64,192,167312,1,0,0:0:0:0:
192,192,167403,1,0,0:0:0:0:
320,192,167471,1,0,0:0:0:0:
448,192,167584,1,0,0:0:0:0:
64,192,167584,1,0,0:0:0:0:
448,192,167764,1,0,0:0:0:0:
64,192,167764,1,0,0:0:0:0:
192,192,167942,1,0,0:0:0:0:
320,192,168031,1,0,0:0:0:0:
64,192,168121,1,0,0:0:0:0:
448,192,168121,1,0,0:0:0:0:
192,192,168210,1,0,0:0:0:0:
320,192,168299,1,0,0:0:0:0:
64,192,168478,1,0,0:0:0:0:
320,192,168478,1,0,0:0:0:0:
192,192,168656,1,0,0:0:0:0:
64,192,168746,1,0,0:0:0:0:
448,192,168746,1,0,0:0:0:0:
320,192,168835,1,0,0:0:0:0:
192,192,168924,1,0,0:0:0:0:
64,192,169014,1,0,0:0:0:0:
448,192,169014,1,0,0:0:0:0:
448,192,169192,1,0,0:0:0:0:
64,192,169192,1,0,0:0:0:0:
320,192,169366,1,0,0:0:0:0:
192,192,169453,1,0,0:0:0:0:
448,192,169540,1,0,0:0:0:0:
64,192,169540,1,0,0:0:0:0:
320,192,169628,1,0,0:0:0:0:
192,192,169715,1,0,0:0:0:0:
448,192,169889,1,0,0:0:0:0:
192,192,169889,1,0,0:0:0:0:
320,192,170064,1,0,0:0:0:0:
448,192,170151,1,0,0:0:0:0:
64,192,170151,1,0,0:0:0:0:
192,192,170238,1,0,0:0:0:0:
320,192,170325,1,0,0:0:0:0:
448,192,170412,1,0,0:0:0:0:
64,192,170412,1,0,0:0:0:0:
448,192,170587,1,0,0:0:0:0:
64,192,170587,1,0,0:0:0:0:
192,192,170757,1,0,0:0:0:0:
320,192,170842,1,0,0:0:0:0:
448,192,170927,1,0,0:0:0:0:
64,192,170927,1,0,0:0:0:0:
192,192,171013,1,0,0:0:0:0:
320,192,171098,1,0,0:0:0:0:
320,192,171268,1,0,0:0:0:0:
64,192,171268,1,0,0:0:0:0:
192,192,171439,1,0,0:0:0:0:
448,192,171524,1,0,0:0:0:0:
64,192,171524,1,0,0:0:0:0:
320,192,171609,1,0,0:0:0:0:
192,192,171694,1,0,0:0:0:0:
448,192,171780,1,0,0:0:0:0:
64,192,171780,1,0,0:0:0:0:
448,192,171950,1,0,0:0:0:0:
192,192,171950,1,0,0:0:0:0:
64,192,171950,1,0,0:0:0:0:
448,192,172034,1,0,0:0:0:0:
192,192,172119,1,0,0:0:0:0:
320,192,172204,1,0,0:0:0:0:
320,192,172288,1,0,0:0:0:0:
64,192,172373,1,0,0:0:0:0:
192,192,172458,1,0,0:0:0:0:
192,192,172543,1,0,0:0:0:0:
448,192,172627,1,0,0:0:0:0:
448,192,172712,1,0,0:0:0:0:
320,192,172797,1,0,0:0:0:0:
64,192,172882,1,0,0:0:0:0:
64,192,172966,1,0,0:0:0:0:
192,192,173051,1,0,0:0:0:0:
320,192,173136,1,0,0:0:0:0:
320,192,173221,1,0,0:0:0:0:
448,192,173305,1,0,0:0:0:0:
64,192,173305,1,0,0:0:0:0:
64,192,173388,1,0,0:0:0:0:
320,192,173471,1,0,0:0:0:0:
192,192,173555,1,0,0:0:0:0:
192,192,173638,1,0,0:0:0:0:
448,192,173721,1,0,0:0:0:0:
320,192,173805,1,0,0:0:0:0:
320,192,173888,1,0,0:0:0:0:
64,192,173971,1,0,0:0:0:0:
64,192,174055,1,0,0:0:0:0:
192,192,174138,1,0,0:0:0:0:
448,192,174221,1,0,0:0:0:0:
448,192,174305,1,0,0:0:0:0:
320,192,174388,1,0,0:0:0:0:
192,192,174471,1,0,0:0:0:0:
192,192,174555,1,0,0:0:0:0:
448,192,174638,1,0,0:0:0:0:
320,192,174719,1,0,0:0:0:0:
64,192,174800,1,0,0:0:0:0:
192,192,174840,1,0,0:0:0:0:
320,192,174881,1,0,0:0:0:0:
448,192,174921,1,0,0:0:0:0:
64,192,174962,1,0,0:0:0:0:
192,192,175043,1,0,0:0:0:0:
448,192,175124,1,0,0:0:0:0:
320,192,175165,1,0,0:0:0:0:
192,192,175205,1,0,0:0:0:0:
64,192,175246,1,0,0:0:0:0:
448,192,175286,1,0,0:0:0:0:
192,192,175367,1,0,0:0:0:0:
320,192,175408,1,0,0:0:0:0:
64,192,175448,1,0,0:0:0:0:
448,192,175529,1,0,0:0:0:0:
192,192,175570,1,0,0:0:0:0:
320,192,175610,1,0,0:0:0:0:
64,192,175692,1,0,0:0:0:0:
448,192,175732,1,0,0:0:0:0:
192,192,175773,1,0,0:0:0:0:
320,192,175854,1,0,0:0:0:0:
448,192,175894,1,0,0:0:0:0:
64,192,175935,128,0,176097:0:0:0:0:
192,192,175935,1,0,0:0:0:0:
320,192,176097,1,0,0:0:0:0:
64,192,176259,128,0,176421:0:0:0:0:
448,192,176259,1,0,0:0:0:0:
192,192,176421,1,0,0:0:0:0:
320,192,176502,1,0,0:0:0:0:
64,192,176583,128,0,176746:0:0:0:0:
320,192,176665,1,0,0:0:0:0:
192,192,176746,1,0,0:0:0:0:
448,192,176746,1,0,0:0:0:0:
448,192,176908,1,0,0:0:0:0:
320,192,176908,1,0,0:0:0:0:
64,192,176908,128,0,177232:0:0:0:0:
448,192,177232,128,0,177448:0:0:0:0:
64,192,177556,1,0,0:0:0:0:
448,192,177773,1,0,0:0:0:0:
448,192,177881,128,0,178097:0:0:0:0:
64,192,178205,1,0,0:0:0:0:
448,192,178421,1,0,0:0:0:0:
448,192,178529,128,0,178746:0:0:0:0:
64,192,178854,1,0,0:0:0:0:
448,192,179070,1,0,0:0:0:0:
448,192,179178,128,0,179286:0:0:0:0:
448,192,179394,1,0,0:0:0:0:
64,192,179502,128,0,179610:0:0:0:0:
64,192,179719,1,0,0:0:0:0:
448,192,179827,128,0,180043:0:0:0:0:
64,192,180151,1,0,0:0:0:0:
448,192,180367,1,0,0:0:0:0:
448,192,180475,128,0,180692:0:0:0:0:
64,192,180800,1,0,0:0:0:0:
448,192,181016,1,0,0:0:0:0:
64,192,181124,1,0,0:0:0:0:
448,192,181124,128,0,181340:0:0:0:0:
192,192,181340,1,0,0:0:0:0:
64,192,181448,1,0,0:0:0:0:
448,192,181448,1,0,0:0:0:0:
320,192,181773,1,0,0:0:0:0:
64,192,181773,1,0,0:0:0:0:
320,192,181881,1,0,0:0:0:0:
192,192,181989,1,0,0:0:0:0:
64,192,182097,1,0,0:0:0:0:
448,192,182097,1,0,0:0:0:0:
320,192,182313,1,0,0:0:0:0:
192,192,182313,1,0,0:0:0:0:
64,192,182421,1,0,0:0:0:0:
192,192,182421,128,0,182746:0:0:0:0:
448,192,182421,128,0,182638:0:0:0:0:
320,192,182421,1,0,0:0:0:0:
64,192,182746,1,0,0:0:0:0:
320,192,182746,1,0,0:0:0:0:
448,192,182746,1,0,0:0:0:0:
320,192,182962,1,0,0:0:0:0:
320,192,183070,128,0,183394:0:0:0:0:
64,192,183070,128,0,183286:0:0:0:0:
448,192,183070,1,0,0:0:0:0:
64,192,183394,1,0,0:0:0:0:
448,192,183394,1,0,0:0:0:0:
192,192,183394,1,0,0:0:0:0:
192,192,183610,1,0,0:0:0:0:
192,192,183719,128,0,184043:0:0:0:0:
64,192,183719,1,0,0:0:0:0:
448,192,183719,128,0,183935:0:0:0:0:
64,192,184043,1,0,0:0:0:0:
320,192,184043,1,0,0:0:0:0:
448,192,184043,1,0,0:0:0:0:
320,192,184259,1,0,0:0:0:0:
448,192,184367,1,0,0:0:0:0:
64,192,184367,128,0,184583:0:0:0:0:
320,192,184367,128,0,184692:0:0:0:0:
192,192,184583,1,0,0:0:0:0:
64,192,184692,1,0,0:0:0:0:
192,192,184692,128,0,184854:0:0:0:0:
448,192,184692,128,0,184800:0:0:0:0:
64,192,184908,1,0,0:0:0:0:
192,192,184908,1,0,0:0:0:0:
448,192,184908,1,0,0:0:0:0:
64,192,185016,1,0,0:0:0:0:
192,192,185016,128,0,185340:0:0:0:0:
448,192,185016,128,0,185232:0:0:0:0:
64,192,185340,1,0,0:0:0:0:
320,192,185340,1,0,0:0:0:0:
448,192,185340,1,0,0:0:0:0:
320,192,185556,1,0,0:0:0:0:
64,192,185556,1,0,0:0:0:0:
448,192,185556,1,0,0:0:0:0:
320,192,185665,128,0,185989:0:0:0:0:
64,192,185665,128,0,185881:0:0:0:0:
448,192,185665,1,0,0:0:0:0:
64,192,185989,1,0,0:0:0:0:
448,192,185989,1,0,0:0:0:0:
192,192,185989,1,0,0:0:0:0:
192,192,186205,1,0,0:0:0:0:
64,192,186313,1,0,0:0:0:0:
192,192,186313,128,0,186421:0:0:0:0:
448,192,186313,128,0,186475:0:0:0:0:
448,192,186529,1,0,0:0:0:0:
192,192,186529,1,0,0:0:0:0:
64,192,186529,1,0,0:0:0:0:
320,192,186638,128,0,186746:0:0:0:0:
448,192,186638,1,0,0:0:0:0:
64,192,186638,128,0,186854:0:0:0:0:
320,192,186854,1,0,0:0:0:0:
64,192,186962,1,0,0:0:0:0:
448,192,186962,1,0,0:0:0:0:
320,192,186962,1,0,0:0:0:0:
64,192,187070,1,0,0:0:0:0:
64,192,187178,1,0,0:0:0:0:
320,192,187286,1,0,0:0:0:0:
448,192,187286,1,0,0:0:0:0:
320,192,187394,1,0,0:0:0:0:
448,192,187394,1,0,0:0:0:0:
320,192,187502,1,0,0:0:0:0:
64,192,187502,1,0,0:0:0:0:
64,192,187610,1,0,0:0:0:0:
192,192,187610,128,0,187935:0:0:0:0:
448,192,187610,128,0,187827:0:0:0:0:
64,192,187935,1,0,0:0:0:0:
320,192,187935,1,0,0:0:0:0:
448,192,187935,1,0,0:0:0:0:
320,192,188151,1,0,0:0:0:0:
320,192,188259,128,0,188583:0:0:0:0:
64,192,188259,128,0,188475:0:0:0:0:
448,192,188259,1,0,0:0:0:0:
64,192,188583,1,0,0:0:0:0:
448,192,188583,1,0,0:0:0:0:
192,192,188583,1,0,0:0:0:0:
192,192,188800,1,0,0:0:0:0:
192,192,188908,128,0,189232:0:0:0:0:
64,192,188908,1,0,0:0:0:0:
448,192,188908,128,0,189124:0:0:0:0:
64,192,189232,1,0,0:0:0:0:
320,192,189232,1,0,0:0:0:0:
448,192,189232,1,0,0:0:0:0:
320,192,189448,1,0,0:0:0:0:
448,192,189556,1,0,0:0:0:0:
64,192,189556,128,0,189773:0:0:0:0:
320,192,189556,128,0,189881:0:0:0:0:
192,192,189773,1,0,0:0:0:0:
64,192,189881,1,0,0:0:0:0:
192,192,189881,128,0,190043:0:0:0:0:
448,192,189881,128,0,189989:0:0:0:0:
64,192,190097,1,0,0:0:0:0:
192,192,190097,1,0,0:0:0:0:
448,192,190097,1,0,0:0:0:0:
64,192,190205,1,0,0:0:0:0:
320,192,190205,1,0,0:0:0:0:
192,192,190205,128,0,190421:0:0:0:0:
448,192,190205,128,0,190313:0:0:0:0:
320,192,190421,1,0,0:0:0:0:
320,192,190529,1,0,0:0:0:0:
448,192,190529,1,0,0:0:0:0:
64,192,190529,1,0,0:0:0:0:
64,192,190637,1,0,0:0:0:0:
192,192,190746,1,0,0:0:0:0:
320,192,190746,1,0,0:0:0:0:
448,192,190746,1,0,0:0:0:0:
64,192,190854,1,0,0:0:0:0:
448,192,190854,1,0,0:0:0:0:
320,192,190854,1,0,0:0:0:0:
320,192,190962,1,0,0:0:0:0:
64,192,191070,1,0,0:0:0:0:
192,192,191070,1,0,0:0:0:0:
448,192,191070,1,0,0:0:0:0:
192,192,191178,1,0,0:0:0:0:
64,192,191286,1,0,0:0:0:0:
320,192,191286,1,0,0:0:0:0:
448,192,191286,1,0,0:0:0:0:
320,192,191394,1,0,0:0:0:0:
64,192,191502,1,0,0:0:0:0:
192,192,191502,1,0,0:0:0:0:
448,192,191502,1,0,0:0:0:0:
64,192,191610,1,0,0:0:0:0:
192,192,191610,1,0,0:0:0:0:
64,192,191719,1,0,0:0:0:0:
192,192,191719,1,0,0:0:0:0:
320,192,191827,1,0,0:0:0:0:
448,192,191827,1,0,0:0:0:0:
320,192,191935,1,0,0:0:0:0:
448,192,191935,1,0,0:0:0:0:
320,192,192043,1,0,0:0:0:0:
448,192,192043,1,0,0:0:0:0:
64,192,192151,128,0,192367:0:0:0:0:
448,192,192151,1,0,0:0:0:0:
192,192,192367,1,0,0:0:0:0:
320,192,192475,1,0,0:0:0:0:
320,192,192583,1,0,0:0:0:0:
320,192,192692,1,0,0:0:0:0:
64,192,192800,128,0,193448:0:0:0:0:
448,192,192800,1,0,0:0:0:0:
192,192,192800,128,0,193124:0:0:0:0:
320,192,193448,1,0,0:0:0:0:
192,192,193513,1,0,0:0:0:0:
448,192,193578,1,0,0:0:0:0:
64,192,193643,1,0,0:0:0:0:
320,192,193708,1,0,0:0:0:0:
192,192,193773,1,0,0:0:0:0:
448,192,193837,1,0,0:0:0:0:
64,192,193902,1,0,0:0:0:0:
320,192,193967,1,0,0:0:0:0:
192,192,194032,1,0,0:0:0:0:
64,192,194097,1,0,0:0:0:0:
448,192,194097,1,0,0:0:0:0:
320,192,194137,1,0,0:0:0:0:
192,192,194178,1,0,0:0:0:0:
64,192,194219,1,0,0:0:0:0:
448,192,194259,1,0,0:0:0:0:
320,192,194340,1,0,0:0:0:0:
192,192,194421,1,0,0:0:0:0:
192,192,194583,1,0,0:0:0:0:
320,192,194665,1,0,0:0:0:0:
64,192,194746,1,0,0:0:0:0:
192,192,194786,1,0,0:0:0:0:
448,192,194827,1,0,0:0:0:0:
320,192,194867,1,0,0:0:0:0:
64,192,194908,1,0,0:0:0:0:
448,192,194954,1,0,0:0:0:0:
192,192,195000,1,0,0:0:0:0:
320,192,195047,1,0,0:0:0:0:
64,192,195070,128,0,195232:0:0:0:0:
320,192,195232,1,0,0:0:0:0:
448,192,195232,1,0,0:0:0:0:
192,192,195286,1,0,0:0:0:0:
320,192,195340,1,0,0:0:0:0:
192,192,195394,1,0,0:0:0:0:
64,192,195394,1,0,0:0:0:0:
448,192,195394,1,0,0:0:0:0:
320,192,195502,1,0,0:0:0:0:
192,192,195556,1,0,0:0:0:0:
320,192,195610,1,0,0:0:0:0:
192,192,195665,1,0,0:0:0:0:
64,192,195719,1,0,0:0:0:0:
448,192,195719,1,0,0:0:0:0:
320,192,195800,1,0,0:0:0:0:
192,192,195881,128,0,196043:0:0:0:0:
448,192,195962,1,0,0:0:0:0:
320,192,196043,1,0,0:0:0:0:
64,192,196043,1,0,0:0:0:0:
448,192,196124,1,0,0:0:0:0:
192,192,196205,1,0,0:0:0:0:
320,192,196286,1,0,0:0:0:0:
64,192,196367,1,0,0:0:0:0:
448,192,196367,128,0,196529:0:0:0:0:
192,192,196448,1,0,0:0:0:0:
320,192,196529,1,0,0:0:0:0:
192,192,196610,1,0,0:0:0:0:
64,192,196692,1,0,0:0:0:0:
448,192,196692,1,0,0:0:0:0:
320,192,196773,1,0,0:0:0:0:
192,192,196854,128,0,197016:0:0:0:0:
448,192,196935,1,0,0:0:0:0:
64,192,197016,1,0,0:0:0:0:
320,192,197016,1,0,0:0:0:0:
448,192,197097,1,0,0:0:0:0:
64,192,197178,128,0,197340:0:0:0:0:
192,192,197259,1,0,0:0:0:0:
320,192,197340,128,0,197665:0:0:0:0:
448,192,197340,1,0,0:0:0:0:
192,192,197665,128,0,197989:0:0:0:0:
448,192,197665,1,0,0:0:0:0:
448,192,197989,1,0,0:0:0:0:
320,192,197989,1,0,0:0:0:0:
64,192,198043,1,0,0:0:0:0:
192,192,198097,1,0,0:0:0:0:
320,192,198151,1,0,0:0:0:0:
64,192,198232,1,0,0:0:0:0:
192,192,198313,1,0,0:0:0:0:
448,192,198313,1,0,0:0:0:0:
320,192,198394,1,0,0:0:0:0:
192,192,198475,128,0,198637:0:0:0:0:
64,192,198556,1,0,0:0:0:0:
320,192,198637,1,0,0:0:0:0:
448,192,198637,1,0,0:0:0:0:
192,192,198719,1,0,0:0:0:0:
320,192,198800,1,0,0:0:0:0:
64,192,198840,1,0,0:0:0:0:
192,192,198881,1,0,0:0:0:0:
448,192,198921,1,0,0:0:0:0:
64,192,198962,1,0,0:0:0:0:
320,192,198962,128,0,199124:0:0:0:0:
448,192,199043,1,0,0:0:0:0:
192,192,199124,1,0,0:0:0:0:
320,192,199205,1,0,0:0:0:0:
64,192,199286,1,0,0:0:0:0:
192,192,199286,1,0,0:0:0:0:
448,192,199327,1,0,0:0:0:0:
320,192,199367,1,0,0:0:0:0:
64,192,199408,1,0,0:0:0:0:
192,192,199448,1,0,0:0:0:0:
320,192,199529,1,0,0:0:0:0:
64,192,199610,1,0,0:0:0:0:
448,192,199610,1,0,0:0:0:0:
192,192,199692,1,0,0:0:0:0:
320,192,199773,1,0,0:0:0:0:
448,192,199854,1,0,0:0:0:0:
64,192,199935,1,0,0:0:0:0:
192,192,199935,1,0,0:0:0:0:
320,192,200016,1,0,0:0:0:0:
192,192,200097,1,0,0:0:0:0:
448,192,200137,1,0,0:0:0:0:
320,192,200178,1,0,0:0:0:0:
64,192,200219,1,0,0:0:0:0:
192,192,200259,1,0,0:0:0:0:
448,192,200259,1,0,0:0:0:0:
64,192,200340,1,0,0:0:0:0:
320,192,200421,1,0,0:0:0:0:
192,192,200502,1,0,0:0:0:0:
320,192,200583,1,0,0:0:0:0:
448,192,200583,128,0,200989:0:0:0:0:
64,192,200583,128,0,200989:0:0:0:0:
64,192,201881,1,0,0:0:0:0:
448,192,201881,1,0,0:0:0:0:
64,192,202043,1,0,0:0:0:0:
64,192,202205,1,0,0:0:0:0:
448,192,202205,1,0,0:0:0:0:
320,192,202286,1,0,0:0:0:0:
448,192,202367,1,0,0:0:0:0:
64,192,202529,1,0,0:0:0:0:
448,192,202529,1,0,0:0:0:0:
192,192,202610,1,0,0:0:0:0:
64,192,202692,1,0,0:0:0:0:
64,192,202854,1,0,0:0:0:0:
448,192,202854,1,0,0:0:0:0:
320,192,202935,1,0,0:0:0:0:
64,192,203016,1,0,0:0:0:0:
448,192,203016,1,0,0:0:0:0:
320,192,203178,1,0,0:0:0:0:
448,192,203178,1,0,0:0:0:0:
192,192,203232,1,0,0:0:0:0:
64,192,203286,1,0,0:0:0:0:
320,192,203340,1,0,0:0:0:0:
448,192,203394,1,0,0:0:0:0:
192,192,203448,1,0,0:0:0:0:
64,192,203502,128,0,203583:0:0:0:0:
320,192,203556,1,0,0:0:0:0:
192,192,203610,1,0,0:0:0:0:
448,192,203665,1,0,0:0:0:0:
320,192,203719,1,0,0:0:0:0:
64,192,203773,1,0,0:0:0:0:
448,192,203827,1,0,0:0:0:0:
192,192,203827,128,0,203908:0:0:0:0:
320,192,203908,1,0,0:0:0:0:
192,192,203989,128,0,204151:0:0:0:0:
64,192,204070,1,0,0:0:0:0:
448,192,204151,1,0,0:0:0:0:
448,192,204232,1,0,0:0:0:0:
64,192,204313,1,0,0:0:0:0:
64,192,204394,1,0,0:0:0:0:
448,192,204475,128,0,204556:0:0:0:0:
192,192,204556,1,0,0:0:0:0:
448,192,204637,1,0,0:0:0:0:
64,192,204719,1,0,0:0:0:0:
448,192,204800,1,0,0:0:0:0:
320,192,204800,128,0,204881:0:0:0:0:
192,192,204881,1,0,0:0:0:0:
320,192,204962,128,0,205124:0:0:0:0:
64,192,205043,1,0,0:0:0:0:
192,192,205124,1,0,0:0:0:0:
448,192,205124,1,0,0:0:0:0:
64,192,205205,1,0,0:0:0:0:
320,192,205286,1,0,0:0:0:0:
448,192,205367,1,0,0:0:0:0:
192,192,205448,128,0,205610:0:0:0:0:
64,192,205529,128,0,205692:0:0:0:0:
320,192,205610,1,0,0:0:0:0:
192,192,205692,1,0,0:0:0:0:
448,192,205773,1,0,0:0:0:0:
320,192,205773,1,0,0:0:0:0:
192,192,205827,1,0,0:0:0:0:
64,192,205881,1,0,0:0:0:0:
320,192,205935,1,0,0:0:0:0:
192,192,205989,1,0,0:0:0:0:
448,192,206043,1,0,0:0:0:0:
320,192,206097,1,0,0:0:0:0:
64,192,206151,1,0,0:0:0:0:
192,192,206205,1,0,0:0:0:0:
448,192,206259,1,0,0:0:0:0:
64,192,206313,1,0,0:0:0:0:
320,192,206367,1,0,0:0:0:0:
448,192,206421,1,0,0:0:0:0:
192,192,206421,1,0,0:0:0:0:
64,192,206502,1,0,0:0:0:0:
320,192,206583,1,0,0:0:0:0:
192,192,206665,1,0,0:0:0:0:
320,192,206746,1,0,0:0:0:0:
448,192,206746,1,0,0:0:0:0:
64,192,206827,1,0,0:0:0:0:
192,192,206908,1,0,0:0:0:0:
320,192,206989,1,0,0:0:0:0:
192,192,207070,1,0,0:0:0:0:
448,192,207151,1,0,0:0:0:0:
320,192,207232,1,0,0:0:0:0:
64,192,207313,1,0,0:0:0:0:
448,192,207394,1,0,0:0:0:0:
192,192,207475,1,0,0:0:0:0:
320,192,207556,1,0,0:0:0:0:
64,192,207637,1,0,0:0:0:0:
192,192,207719,1,0,0:0:0:0:
448,192,207719,1,0,0:0:0:0:
64,192,207881,1,0,0:0:0:0:
192,192,207962,1,0,0:0:0:0:
320,192,208043,1,0,0:0:0:0:
448,192,208043,1,0,0:0:0:0:
192,192,208124,1,0,0:0:0:0:
320,192,208205,1,0,0:0:0:0:
448,192,208286,1,0,0:0:0:0:
192,192,208367,1,0,0:0:0:0:
64,192,208367,1,0,0:0:0:0:
320,192,208421,1,0,0:0:0:0:
448,192,208475,1,0,0:0:0:0:
192,192,208529,1,0,0:0:0:0:
64,192,208583,1,0,0:0:0:0:
320,192,208637,1,0,0:0:0:0:
448,192,208692,128,0,208773:0:0:0:0:
192,192,208746,1,0,0:0:0:0:
320,192,208800,1,0,0:0:0:0:
64,192,208854,1,0,0:0:0:0:
192,192,208908,1,0,0:0:0:0:
448,192,208962,1,0,0:0:0:0:
64,192,209016,1,0,0:0:0:0:
320,192,209016,128,0,209097:0:0:0:0:
192,192,209097,1,0,0:0:0:0:
320,192,209178,128,0,209340:0:0:0:0:
448,192,209259,1,0,0:0:0:0:
64,192,209340,1,0,0:0:0:0:
64,192,209421,1,0,0:0:0:0:
448,192,209502,1,0,0:0:0:0:
448,192,209583,1,0,0:0:0:0:
64,192,209665,128,0,209746:0:0:0:0:
320,192,209746,1,0,0:0:0:0:
64,192,209827,1,0,0:0:0:0:
448,192,209908,1,0,0:0:0:0:
64,192,209989,1,0,0:0:0:0:
192,192,209989,128,0,210070:0:0:0:0:
320,192,210070,1,0,0:0:0:0:
192,192,210151,128,0,210313:0:0:0:0:
448,192,210232,1,0,0:0:0:0:
320,192,210313,1,0,0:0:0:0:
64,192,210313,1,0,0:0:0:0:
448,192,210394,1,0,0:0:0:0:
192,192,210475,1,0,0:0:0:0:
192,192,210556,1,0,0:0:0:0:
320,192,210637,1,0,0:0:0:0:
448,192,210637,1,0,0:0:0:0:
320,192,210719,1,0,0:0:0:0:
192,192,210800,1,0,0:0:0:0:
192,192,210881,1,0,0:0:0:0:
320,192,210962,1,0,0:0:0:0:
448,192,210962,1,0,0:0:0:0:
64,192,211043,1,0,0:0:0:0:
192,192,211124,1,0,0:0:0:0:
448,192,211205,1,0,0:0:0:0:
64,192,211286,1,0,0:0:0:0:
320,192,211367,1,0,0:0:0:0:
448,192,211448,1,0,0:0:0:0:
192,192,211529,1,0,0:0:0:0:
320,192,211610,1,0,0:0:0:0:
64,192,211610,1,0,0:0:0:0:
448,192,211692,1,0,0:0:0:0:
192,192,211773,1,0,0:0:0:0:
320,192,211854,1,0,0:0:0:0:
192,192,211935,1,0,0:0:0:0:
64,192,211935,1,0,0:0:0:0:
448,192,212016,1,0,0:0:0:0:
64,192,212097,1,0,0:0:0:0:
320,192,212178,1,0,0:0:0:0:
192,192,212259,1,0,0:0:0:0:
320,192,212340,1,0,0:0:0:0:
64,192,212421,1,0,0:0:0:0:
192,192,212502,1,0,0:0:0:0:
448,192,212583,1,0,0:0:0:0:
64,192,212665,1,0,0:0:0:0:
448,192,212746,1,0,0:0:0:0:
64,192,212827,1,0,0:0:0:0:
192,192,212908,1,0,0:0:0:0:
448,192,212908,1,0,0:0:0:0:
320,192,213070,1,0,0:0:0:0:
192,192,213151,1,0,0:0:0:0:
448,192,213232,1,0,0:0:0:0:
320,192,213313,1,0,0:0:0:0:
64,192,213394,1,0,0:0:0:0:
192,192,213475,1,0,0:0:0:0:
64,192,213556,1,0,0:0:0:0:
320,192,213556,128,0,213881:0:0:0:0:
448,192,213556,128,0,213881:0:0:0:0:
64,192,215340,1,0,0:0:0:0:
192,192,215340,1,0,0:0:0:0:
320,192,215394,1,0,0:0:0:0:
448,192,215394,1,0,0:0:0:0:
192,192,215448,1,0,0:0:0:0:
64,192,215502,1,0,0:0:0:0:
448,192,215502,128,0,215665:0:0:0:0:
320,192,215583,128,0,215746:0:0:0:0:
192,192,215665,1,0,0:0:0:0:
64,192,215746,1,0,0:0:0:0:
448,192,215827,128,0,215989:0:0:0:0:
192,192,215908,1,0,0:0:0:0:
320,192,215989,1,0,0:0:0:0:
64,192,216070,1,0,0:0:0:0:
320,192,216151,1,0,0:0:0:0:
448,192,216151,1,0,0:0:0:0:
192,192,216232,128,0,216313:0:0:0:0:
320,192,216273,128,0,216354:0:0:0:0:
448,192,216313,128,0,216394:0:0:0:0:
192,192,216394,1,0,0:0:0:0:
64,192,216475,128,0,216637:0:0:0:0:
320,192,216637,1,0,0:0:0:0:
192,192,216719,1,0,0:0:0:0:
64,192,216800,1,0,0:0:0:0:
448,192,216800,128,0,216881:0:0:0:0:
448,192,216962,128,0,217124:0:0:0:0:
64,192,217124,1,0,0:0:0:0:
192,192,217124,1,0,0:0:0:0:
320,192,217205,1,0,0:0:0:0:
64,192,217286,128,0,217367:0:0:0:0:
448,192,217367,1,0,0:0:0:0:
64,192,217448,128,0,217610:0:0:0:0:
320,192,217610,1,0,0:0:0:0:
192,192,217692,1,0,0:0:0:0:
448,192,217773,128,0,217854:0:0:0:0:
64,192,217854,1,0,0:0:0:0:
448,192,217935,128,0,218097:0:0:0:0:
320,192,218097,1,0,0:0:0:0:
64,192,218097,1,0,0:0:0:0:
448,192,218178,1,0,0:0:0:0:
192,192,218259,1,0,0:0:0:0:
320,192,218340,1,0,0:0:0:0:
192,192,218421,1,0,0:0:0:0:
64,192,218421,1,0,0:0:0:0:
320,192,218502,1,0,0:0:0:0:
64,192,218583,128,0,218746:0:0:0:0:
320,192,218746,1,0,0:0:0:0:
448,192,218746,1,0,0:0:0:0:
192,192,218800,1,0,0:0:0:0:
64,192,218854,1,0,0:0:0:0:
448,192,218908,1,0,0:0:0:0:
192,192,218962,1,0,0:0:0:0:
320,192,219016,1,0,0:0:0:0:
192,192,219070,1,0,0:0:0:0:
64,192,219070,1,0,0:0:0:0:
448,192,219151,1,0,0:0:0:0:
320,192,219151,1,0,0:0:0:0:
192,192,219232,1,0,0:0:0:0:
64,192,219232,1,0,0:0:0:0:
448,192,219313,1,0,0:0:0:0:
64,192,219394,1,0,0:0:0:0:
320,192,219394,128,0,219556:0:0:0:0:
192,192,219556,1,0,0:0:0:0:
64,192,219597,1,0,0:0:0:0:
320,192,219637,1,0,0:0:0:0:
448,192,219678,1,0,0:0:0:0:
192,192,219719,1,0,0:0:0:0:
64,192,219719,128,0,219800:0:0:0:0:
320,192,219800,128,0,219881:0:0:0:0:
64,192,219881,128,0,219962:0:0:0:0:
320,192,219962,128,0,220043:0:0:0:0:
192,192,220043,128,0,220124:0:0:0:0:
320,192,220124,128,0,220205:0:0:0:0:
192,192,220205,128,0,220286:0:0:0:0:
320,192,220286,128,0,220367:0:0:0:0:
64,192,220367,1,0,0:0:0:0:
192,192,220367,128,0,220448:0:0:0:0:
448,192,220448,128,0,220529:0:0:0:0:
192,192,220529,128,0,220610:0:0:0:0:
448,192,220610,128,0,220692:0:0:0:0:
64,192,220692,1,0,0:0:0:0:
320,192,220692,128,0,220773:0:0:0:0:
448,192,220773,128,0,220854:0:0:0:0:
320,192,220854,128,0,220935:0:0:0:0:
448,192,220935,128,0,221016:0:0:0:0:
64,192,221016,128,0,221097:0:0:0:0:
192,192,221097,128,0,221178:0:0:0:0:
64,192,221178,128,0,221259:0:0:0:0:
192,192,221259,128,0,221340:0:0:0:0:
64,192,221340,1,0,0:0:0:0:
320,192,221340,128,0,221665:0:0:0:0:
448,192,221340,128,0,221665:0:0:0:0:
64,192,221827,128,0,222313:0:0:0:0:
192,192,221827,128,0,222313:0:0:0:0:
320,192,221827,1,0,0:0:0:0:
192,192,222475,1,0,0:0:0:0:
448,192,222475,128,0,222962:0:0:0:0:
64,192,222475,128,0,223286:0:0:0:0:
64,192,223935,1,0,0:0:0:0:
320,192,223935,1,0,0:0:0:0:
448,192,223935,1,0,0:0:0:0:
64,192,229628,5,0,0:0:0:0:
192,192,229628,1,0,0:0:0:0:
448,192,229678,1,0,0:0:0:0:
320,192,229729,1,0,0:0:0:0:
192,192,229830,1,0,0:0:0:0:
448,192,229932,1,0,0:0:0:0:
320,192,229932,1,0,0:0:0:0:
64,192,229982,1,0,0:0:0:0:
192,192,230033,1,0,0:0:0:0:
320,192,230134,1,0,0:0:0:0:
192,192,230236,1,0,0:0:0:0:
64,192,230236,1,0,0:0:0:0:
448,192,230286,1,0,0:0:0:0:
320,192,230337,1,0,0:0:0:0:
192,192,230438,1,0,0:0:0:0:
448,192,230540,1,0,0:0:0:0:
320,192,230540,1,0,0:0:0:0:
64,192,230590,1,0,0:0:0:0:
192,192,230641,1,0,0:0:0:0:
320,192,230742,1,0,0:0:0:0:
192,192,230844,1,0,0:0:0:0:
64,192,230844,1,0,0:0:0:0:
448,192,230894,1,0,0:0:0:0:
320,192,230945,1,0,0:0:0:0:
192,192,231046,1,0,0:0:0:0:
64,192,231148,1,0,0:0:0:0:
448,192,231249,1,0,0:0:0:0:
320,192,231249,1,0,0:0:0:0:
192,192,231302,1,0,0:0:0:0:
64,192,231355,1,0,0:0:0:0:
448,192,231461,1,0,0:0:0:0:
64,192,231568,1,0,0:0:0:0:
192,192,231568,1,0,0:0:0:0:
320,192,231621,1,0,0:0:0:0:
448,192,231674,1,0,0:0:0:0:
64,192,231780,1,0,0:0:0:0:
448,192,231887,1,0,0:0:0:0:
320,192,231887,1,0,0:0:0:0:
192,192,231940,1,0,0:0:0:0:
64,192,231993,1,0,0:0:0:0:
448,192,232100,1,0,0:0:0:0:
192,192,232206,1,0,0:0:0:0:
64,192,232206,1,0,0:0:0:0:
320,192,232259,1,0,0:0:0:0:
448,192,232312,1,0,0:0:0:0:
64,192,232419,1,0,0:0:0:0:
448,192,232525,1,0,0:0:0:0:
320,192,232525,1,0,0:0:0:0:
192,192,232578,1,0,0:0:0:0:
64,192,232631,1,0,0:0:0:0:
448,192,232738,1,0,0:0:0:0:
320,192,232844,1,0,0:0:0:0:
64,192,232951,1,0,0:0:0:0:
192,192,232951,1,0,0:0:0:0:
320,192,233026,1,0,0:0:0:0:
64,192,233102,1,0,0:0:0:0:
320,192,233178,1,0,0:0:0:0:
64,192,233254,1,0,0:0:0:0:
320,192,233329,1,0,0:0:0:0:
64,192,233405,1,0,0:0:0:0:
320,192,233481,1,0,0:0:0:0:
192,192,233547,1,0,0:0:0:0:
320,192,233632,1,0,0:0:0:0:
192,192,233708,1,0,0:0:0:0:
320,192,233774,1,0,0:0:0:0:
192,192,233860,1,0,0:0:0:0:
320,192,233935,1,0,0:0:0:0:
192,192,234011,1,0,0:0:0:0:
320,192,234087,1,0,0:0:0:0:
192,192,234163,1,0,0:0:0:0:
448,192,234238,1,0,0:0:0:0:
192,192,234314,1,0,0:0:0:0:
448,192,234390,1,0,0:0:0:0:
192,192,234466,1,0,0:0:0:0:
448,192,234541,1,0,0:0:0:0:
192,192,234617,1,0,0:0:0:0:
448,192,234693,1,0,0:0:0:0:
64,192,234769,1,0,0:0:0:0:
192,192,234769,1,0,0:0:0:0:
320,192,235706,1,0,0:0:0:0:
64,192,235765,1,0,0:0:0:0:
192,192,235823,1,0,0:0:0:0:
320,192,235882,1,0,0:0:0:0:
448,192,235940,1,0,0:0:0:0:
448,192,236097,1,0,0:0:0:0:
64,192,236175,1,0,0:0:0:0:
64,192,236331,1,0,0:0:0:0:
448,192,236409,1,0,0:0:0:0:
320,192,236409,1,0,0:0:0:0:
192,192,236644,128,0,236936:0:0:0:0:
64,192,236644,1,0,0:0:0:0:
448,192,236702,128,0,236995:0:0:0:0:
320,192,236761,128,0,237054:0:0:0:0:
192,192,237112,1,0,0:0:0:0:
448,192,237112,1,0,0:0:0:0:
64,192,237112,1,0,0:0:0:0:
192,192,237269,128,0,237347:0:0:0:0:
448,192,237347,128,0,237581:0:0:0:0:
320,192,237405,128,0,237581:0:0:0:0:
192,192,237581,128,0,237776:0:0:0:0:
64,192,237581,128,0,237698:0:0:0:0:
448,192,237815,1,0,0:0:0:0:
192,192,237972,128,0,238167:0:0:0:0:
64,192,238050,1,0,0:0:0:0:
320,192,238050,128,0,238167:0:0:0:0:
320,192,238284,128,0,238519:0:0:0:0:
448,192,238362,128,0,238519:0:0:0:0:
64,192,238519,1,0,0:0:0:0:
192,192,238519,1,0,0:0:0:0:
320,192,238675,1,0,0:0:0:0:
192,192,238753,1,0,0:0:0:0:
320,192,238831,1,0,0:0:0:0:
192,192,238909,1,0,0:0:0:0:
448,192,238987,128,0,239280:0:0:0:0:
64,192,238987,128,0,239222:0:0:0:0:
320,192,239046,128,0,239339:0:0:0:0:
192,192,239222,128,0,239339:0:0:0:0:
192,192,239456,128,0,239690:0:0:0:0:
64,192,239456,128,0,239749:0:0:0:0:
448,192,239515,128,0,239808:0:0:0:0:
320,192,239690,128,0,239808:0:0:0:0:
64,192,239925,1,0,0:0:0:0:
448,192,239925,128,0,240159:0:0:0:0:
320,192,239983,128,0,240276:0:0:0:0:
192,192,240081,1,0,0:0:0:0:
64,192,240159,128,0,240276:0:0:0:0:
448,192,240394,1,0,0:0:0:0:
320,192,240394,1,0,0:0:0:0:
64,192,240511,128,0,240569:0:0:0:0:
320,192,240628,128,0,240862:0:0:0:0:
64,192,240862,1,0,0:0:0:0:
448,192,240862,1,0,0:0:0:0:
192,192,241019,128,0,241097:0:0:0:0:
448,192,241097,128,0,241331:0:0:0:0:
320,192,241155,128,0,241331:0:0:0:0:
192,192,241331,128,0,241448:0:0:0:0:
64,192,241331,128,0,241526:0:0:0:0:
448,192,241565,1,0,0:0:0:0:
320,192,241722,128,0,241917:0:0:0:0:
192,192,241800,128,0,241917:0:0:0:0:
448,192,241800,1,0,0:0:0:0:
448,192,242034,128,0,242269:0:0:0:0:
320,192,242112,128,0,242269:0:0:0:0:
192,192,242269,1,0,0:0:0:0:
64,192,242269,128,0,242503:0:0:0:0:
192,192,242503,128,0,242737:0:0:0:0:
320,192,242542,128,0,242737:0:0:0:0:
64,192,242737,1,0,0:0:0:0:
448,192,242737,1,0,0:0:0:0:
320,192,242894,128,0,243128:0:0:0:0:
64,192,242972,1,0,0:0:0:0:
192,192,243128,1,0,0:0:0:0:
448,192,243206,128,0,243558:0:0:0:0:
320,192,243206,128,0,243323:0:0:0:0:
64,192,243265,128,0,243440:0:0:0:0:
192,192,243323,128,0,243558:0:0:0:0:
320,192,243440,128,0,243675:0:0:0:0:
448,192,243675,128,0,244026:0:0:0:0:
192,192,243675,128,0,243792:0:0:0:0:
64,192,243733,128,0,243909:0:0:0:0:
320,192,243792,128,0,244026:0:0:0:0:
192,192,243909,128,0,244144:0:0:0:0:
64,192,244065,1,0,0:0:0:0:
448,192,244144,1,0,0:0:0:0:
320,192,244144,1,0,0:0:0:0:
64,192,244261,1,0,0:0:0:0:
448,192,244319,1,0,0:0:0:0:
320,192,244407,1,0,0:0:0:0:
192,192,244466,1,0,0:0:0:0:
192,192,244612,1,0,0:0:0:0:
448,192,244612,1,0,0:0:0:0:
64,192,244612,1,0,0:0:0:0:
192,192,244769,128,0,244847:0:0:0:0:
448,192,244847,128,0,245081:0:0:0:0:
320,192,244905,128,0,245081:0:0:0:0:
192,192,245081,128,0,245276:0:0:0:0:
64,192,245081,128,0,245198:0:0:0:0:
448,192,245315,1,0,0:0:0:0:
192,192,245472,128,0,245667:0:0:0:0:
64,192,245550,1,0,0:0:0:0:
320,192,245550,128,0,245667:0:0:0:0:
320,192,245784,128,0,246019:0:0:0:0:
448,192,245862,128,0,246019:0:0:0:0:
192,192,246019,128,0,246253:0:0:0:0:
64,192,246019,1,0,0:0:0:0:
64,192,246253,128,0,246370:0:0:0:0:
320,192,246292,128,0,246487:0:0:0:0:
64,192,246487,128,0,246780:0:0:0:0:
448,192,246487,128,0,246722:0:0:0:0:
192,192,246546,128,0,246839:0:0:0:0:
320,192,246722,128,0,246839:0:0:0:0:
320,192,246956,128,0,247190:0:0:0:0:
448,192,246956,128,0,247249:0:0:0:0:
64,192,247015,128,0,247308:0:0:0:0:
192,192,247190,128,0,247308:0:0:0:0:
448,192,247425,1,0,0:0:0:0:
64,192,247425,128,0,247659:0:0:0:0:
192,192,247483,128,0,247776:0:0:0:0:
320,192,247581,1,0,0:0:0:0:
448,192,247659,128,0,247776:0:0:0:0:
64,192,247815,1,0,0:0:0:0:
448,192,247894,128,0,248011:0:0:0:0:
320,192,247894,128,0,248069:0:0:0:0:
192,192,247952,128,0,248128:0:0:0:0:
64,192,248011,128,0,248128:0:0:0:0:
448,192,248128,128,0,248284:0:0:0:0:
192,192,248284,1,0,0:0:0:0:
320,192,248362,128,0,248597:0:0:0:0:
64,192,248362,128,0,248519:0:0:0:0:
448,192,248401,128,0,248597:0:0:0:0:
64,192,248597,128,0,248675:0:0:0:0:
448,192,248675,1,0,0:0:0:0:
64,192,248753,1,0,0:0:0:0:
448,192,248831,128,0,249065:0:0:0:0:
320,192,248831,128,0,248987:0:0:0:0:
192,192,248870,128,0,249065:0:0:0:0:
320,192,249065,128,0,249144:0:0:0:0:
192,192,249144,1,0,0:0:0:0:
320,192,249222,1,0,0:0:0:0:
192,192,249300,128,0,249534:0:0:0:0:
448,192,249300,128,0,249456:0:0:0:0:
64,192,249339,128,0,249534:0:0:0:0:
448,192,249534,128,0,249612:0:0:0:0:
64,192,249612,1,0,0:0:0:0:
448,192,249690,1,0,0:0:0:0:
192,192,249769,128,0,250003:0:0:0:0:
64,192,249769,1,0,0:0:0:0:
320,192,250003,1,0,0:0:0:0:
64,192,250159,1,0,0:0:0:0:
448,192,250237,1,0,0:0:0:0:
192,192,250237,128,0,250472:0:0:0:0:
320,192,250394,1,0,0:0:0:0:
64,192,250472,1,0,0:0:0:0:
192,192,250706,128,0,250940:0:0:0:0:
448,192,250940,1,0,0:0:0:0:
64,192,250940,1,0,0:0:0:0:
320,192,251175,128,0,251292:0:0:0:0:
448,192,251175,1,0,0:0:0:0:
320,192,251409,128,0,251526:0:0:0:0:
448,192,251409,1,0,0:0:0:0:
448,192,251644,128,0,251878:0:0:0:0:
64,192,251683,128,0,251995:0:0:0:0:
192,192,252112,1,0,0:0:0:0:
448,192,252112,1,0,0:0:0:0:
64,192,252112,1,0,0:0:0:0:
192,192,252269,128,0,252347:0:0:0:0:
448,192,252347,128,0,252581:0:0:0:0:
320,192,252405,128,0,252581:0:0:0:0:
192,192,252581,128,0,252776:0:0:0:0:
64,192,252581,128,0,252698:0:0:0:0:
448,192,252815,1,0,0:0:0:0:
192,192,252972,128,0,253167:0:0:0:0:
64,192,253050,1,0,0:0:0:0:
320,192,253050,128,0,253167:0:0:0:0:
320,192,253284,128,0,253519:0:0:0:0:
448,192,253362,128,0,253519:0:0:0:0:
64,192,253519,1,0,0:0:0:0:
192,192,253519,1,0,0:0:0:0:
320,192,253597,1,0,0:0:0:0:
192,192,253675,1,0,0:0:0:0:
448,192,253753,1,0,0:0:0:0:
64,192,253811,1,0,0:0:0:0:
192,192,253870,1,0,0:0:0:0:
320,192,253929,1,0,0:0:0:0:
448,192,253987,128,0,254104:0:0:0:0:
64,192,253987,1,0,0:0:0:0:
448,192,254222,128,0,254339:0:0:0:0:
192,192,254456,128,0,254573:0:0:0:0:
64,192,254456,1,0,0:0:0:0:
192,192,254690,128,0,254808:0:0:0:0:
320,192,254925,128,0,255042:0:0:0:0:
64,192,254925,1,0,0:0:0:0:
192,192,255081,1,0,0:0:0:0:
320,192,255159,128,0,255276:0:0:0:0:
192,192,255315,1,0,0:0:0:0:
448,192,255394,128,0,255628:0:0:0:0:
320,192,255394,1,0,0:0:0:0:
320,192,255628,128,0,255745:0:0:0:0:
192,192,255667,128,0,255862:0:0:0:0:
448,192,255862,1,0,0:0:0:0:
64,192,255862,1,0,0:0:0:0:
192,192,256019,128,0,256097:0:0:0:0:
448,192,256097,128,0,256331:0:0:0:0:
320,192,256155,128,0,256331:0:0:0:0:
192,192,256331,128,0,256448:0:0:0:0:
64,192,256331,128,0,256526:0:0:0:0:
448,192,256565,1,0,0:0:0:0:
320,192,256722,128,0,256917:0:0:0:0:
192,192,256800,128,0,256917:0:0:0:0:
448,192,256800,1,0,0:0:0:0:
448,192,257034,128,0,257269:0:0:0:0:
320,192,257112,128,0,257269:0:0:0:0:
192,192,257269,128,0,257542:0:0:0:0:
64,192,257269,128,0,257503:0:0:0:0:
320,192,257503,128,0,257581:0:0:0:0:
448,192,257737,128,0,257972:0:0:0:0:
192,192,257737,1,0,0:0:0:0:
64,192,257737,1,0,0:0:0:0:
320,192,257796,128,0,258089:0:0:0:0:
192,192,257854,128,0,258206:0:0:0:0:
448,192,258206,1,0,0:0:0:0:
320,192,258206,1,0,0:0:0:0:
64,192,258294,1,0,0:0:0:0:
192,192,258352,1,0,0:0:0:0:
320,192,258411,1,0,0:0:0:0:
448,192,258470,1,0,0:0:0:0:
64,192,258528,1,0,0:0:0:0:
192,192,258636,128,0,259144:0:0:0:0:
320,192,259261,128,0,259436:0:0:0:0:
64,192,259319,1,0,0:0:0:0:
192,192,259378,1,0,0:0:0:0:
448,192,259436,1,0,0:0:0:0:
64,192,259495,1,0,0:0:0:0:
320,192,259554,1,0,0:0:0:0:
448,192,259612,1,0,0:0:0:0:
64,192,259612,1,0,0:0:0:0:
192,192,259612,1,0,0:0:0:0:
192,192,259769,128,0,259847:0:0:0:0:
448,192,259847,128,0,260081:0:0:0:0:
320,192,259905,128,0,260081:0:0:0:0:
192,192,260081,128,0,260276:0:0:0:0:
64,192,260081,128,0,260198:0:0:0:0:
448,192,260315,1,0,0:0:0:0:
192,192,260472,128,0,260667:0:0:0:0:
64,192,260550,1,0,0:0:0:0:
320,192,260550,128,0,260667:0:0:0:0:
448,192,260784,1,0,0:0:0:0:
64,192,260843,1,0,0:0:0:0:
448,192,260901,1,0,0:0:0:0:
192,192,261019,1,0,0:0:0:0:
64,192,261058,1,0,0:0:0:0:
320,192,261097,1,0,0:0:0:0:
448,192,261136,1,0,0:0:0:0:
192,192,261175,1,0,0:0:0:0:
64,192,261214,1,0,0:0:0:0:
448,192,261253,1,0,0:0:0:0:
320,192,261253,1,0,0:0:0:0:
192,192,261311,1,0,0:0:0:0:
64,192,261370,1,0,0:0:0:0:
320,192,261429,1,0,0:0:0:0:
192,192,261487,128,0,261722:0:0:0:0:
448,192,261487,1,0,0:0:0:0:
64,192,261644,1,0,0:0:0:0:
320,192,261722,1,0,0:0:0:0:
448,192,261800,1,0,0:0:0:0:
192,192,261878,1,0,0:0:0:0:
448,192,261956,128,0,262347:0:0:0:0:
320,192,261956,1,0,0:0:0:0:
64,192,262190,1,0,0:0:0:0:
192,192,262347,128,0,262659:0:0:0:0:
320,192,262425,1,0,0:0:0:0:
64,192,262425,1,0,0:0:0:0:
448,192,262581,1,0,0:0:0:0:
320,192,262659,128,0,262815:0:0:0:0:
192,192,262815,1,0,0:0:0:0:
64,192,262894,128,0,263128:0:0:0:0:
448,192,262894,1,0,0:0:0:0:
320,192,262894,1,0,0:0:0:0:
320,192,263128,1,0,0:0:0:0:
64,192,263245,1,0,0:0:0:0:
448,192,263362,1,0,0:0:0:0:
320,192,263362,1,0,0:0:0:0:
192,192,263362,128,0,263597:0:0:0:0:
64,192,263597,1,0,0:0:0:0:
448,192,263714,1,0,0:0:0:0:
320,192,263831,128,0,264065:0:0:0:0:
64,192,263831,1,0,0:0:0:0:
192,192,263831,1,0,0:0:0:0:
448,192,264065,1,0,0:0:0:0:
192,192,264183,1,0,0:0:0:0:
448,192,264300,128,0,264534:0:0:0:0:
64,192,264300,1,0,0:0:0:0:
320,192,264300,1,0,0:0:0:0:
192,192,264456,1,0,0:0:0:0:
64,192,264534,1,0,0:0:0:0:
320,192,264690,1,0,0:0:0:0:
448,192,264769,1,0,0:0:0:0:
64,192,264769,1,0,0:0:0:0:
192,192,264769,1,0,0:0:0:0:
320,192,264886,1,0,0:0:0:0:
448,192,264944,1,0,0:0:0:0:
192,192,265003,1,0,0:0:0:0:
320,192,265061,1,0,0:0:0:0:
64,192,265120,1,0,0:0:0:0:
448,192,265179,1,0,0:0:0:0:
192,192,265237,1,0,0:0:0:0:
64,192,265296,1,0,0:0:0:0:
320,192,265354,1,0,0:0:0:0:
192,192,265413,1,0,0:0:0:0:
448,192,265472,1,0,0:0:0:0:
64,192,265530,1,0,0:0:0:0:
320,192,265589,1,0,0:0:0:0:
192,192,265647,1,0,0:0:0:0:
320,192,265706,128,0,265940:0:0:0:0:
448,192,265706,128,0,266058:0:0:0:0:
64,192,265706,1,0,0:0:0:0:
192,192,266058,128,0,266175:0:0:0:0:
64,192,266058,128,0,266292:0:0:0:0:
320,192,266058,1,0,0:0:0:0:
64,192,266409,1,0,0:0:0:0:
448,192,266409,128,0,266761:0:0:0:0:
320,192,266409,128,0,266644:0:0:0:0:
320,192,266761,1,0,0:0:0:0:
192,192,266761,128,0,266878:0:0:0:0:
64,192,266761,128,0,266995:0:0:0:0:
320,192,267112,128,0,267347:0:0:0:0:
448,192,267112,128,0,267464:0:0:0:0:
64,192,267112,1,0,0:0:0:0:
64,192,267464,128,0,267698:0:0:0:0:
192,192,267464,128,0,267581:0:0:0:0:
320,192,267464,1,0,0:0:0:0:
64,192,267815,1,0,0:0:0:0:
448,192,267815,128,0,268167:0:0:0:0:
320,192,267815,128,0,268050:0:0:0:0:
320,192,268167,1,0,0:0:0:0:
192,192,268167,128,0,268284:0:0:0:0:
64,192,268167,128,0,268401:0:0:0:0:
320,192,268519,128,0,268753:0:0:0:0:
448,192,268519,128,0,268870:0:0:0:0:
64,192,268519,1,0,0:0:0:0:
64,192,268870,128,0,269104:0:0:0:0:
192,192,268870,128,0,269222:0:0:0:0:
320,192,268870,1,0,0:0:0:0:
448,192,269222,128,0,270979:0:0:0:0:
64,192,269222,128,0,271565:0:0:0:0:
448,192,271097,1,0,0:0:0:0:
448,192,271214,1,0,0:0:0:0:
192,192,271331,128,0,271565:0:0:0:0:
320,192,271565,1,0,0:0:0:0:
320,192,271682,1,0,0:0:0:0:
64,192,271800,128,0,272972:0:0:0:0:
320,192,271975,1,0,0:0:0:0:
448,192,272034,1,0,0:0:0:0:
192,192,272034,1,0,0:0:0:0:
192,192,272151,1,0,0:0:0:0:
448,192,272268,1,0,0:0:0:0:
320,192,272268,1,0,0:0:0:0:
192,192,272425,1,0,0:0:0:0:
448,192,272503,1,0,0:0:0:0:
320,192,272503,1,0,0:0:0:0:
448,192,272737,1,0,0:0:0:0:
320,192,272737,1,0,0:0:0:0:
320,192,272972,128,0,273089:0:0:0:0:
448,192,272972,128,0,273206:0:0:0:0:
192,192,272972,1,0,0:0:0:0:
320,192,273206,1,0,0:0:0:0:
448,192,273323,1,0,0:0:0:0:
192,192,273323,128,0,273440:0:0:0:0:
64,192,273323,128,0,273557:0:0:0:0:
192,192,273557,1,0,0:0:0:0:
448,192,273675,1,0,0:0:0:0:
320,192,273675,128,0,273792:0:0:0:0:
64,192,273675,128,0,273792:0:0:0:0:
192,192,273909,128,0,274143:0:0:0:0:
448,192,273909,128,0,274143:0:0:0:0:
64,192,273909,1,0,0:0:0:0:
448,192,274378,1,0,0:0:0:0:
64,192,274378,1,0,0:0:0:0:
320,192,274456,1,0,0:0:0:0:
