osu file format v14

[General]
AudioFilename: audio.mp3
AudioLeadIn: 0
PreviewTime: 145572
Countdown: 1
SampleSet: None
StackLeniency: 0.5
Mode: 1
LetterboxInBreaks: 0
WidescreenStoryboard: 1

[Editor]
Bookmarks: 54863
DistanceSpacing: 1.1
BeatDivisor: 4
GridSize: 8
TimelineZoom: 1.1

[Metadata]
Title:Judgement
TitleUnicode:Judgement
Artist:TryHardNinja
ArtistUnicode:TryHardNinja
Creator:IGotsAyClixer
Version:Taiko
Source:
Tags:sans undertale
BeatmapID:1519968
BeatmapSetID:718934

[Difficulty]
HPDrainRate:5
CircleSize:4
OverallDifficulty:5
ApproachRate:5
SliderMultiplier:1.4
SliderTickRate:1

[Events]
//Background and Video events
Video,0,"UNDERTALE SANS SONG 'Judgement' by TryHardNinja.mp4"
0,0,"wallpaper-undertale-sans-by-rukia-beatriz-d9ytoxa-sans-undertale-39825778-1024-576.png",0,0
//Break Periods
2,92622,99017
//Storyboard Layer 0 (Background)
//Storyboard Layer 1 (Fail)
//Storyboard Layer 2 (Pass)
//Storyboard Layer 3 (Foreground)
//Storyboard Sound Samples

[TimingPoints]
1005.16244411326,472.44094488189,4,3,0,15,1,0
9390,-100,4,3,0,25,0,0
9627,-100,4,3,0,25,0,0
62422,236.220472440945,4,3,0,70,1,1
93131,472.44094488189,4,3,0,25,1,0
93131,-100,4,3,0,25,0,0
115217,-133.333333333333,4,3,0,25,0,0
145571,236.220472440945,4,3,0,80,1,1
176280,472.44094488189,4,3,0,25,1,0
176280,-100,4,3,0,25,0,0

[Colours]
Combo1 : 0,255,255
Combo2 : 192,192,192
Combo3 : 255,0,0

[HitObjects]
184,128,1950,5,0,0:0:0:0:
328,208,3839,5,0,0:0:0:0:
144,256,5729,5,0,0:0:0:0:
336,224,7619,5,0,0:0:0:0:
256,192,9509,5,4,0:0:0:0:
144,120,9981,1,0,0:0:0:0:
320,120,10453,1,0,0:0:0:0:
272,216,10926,1,0,0:0:0:0:
176,240,11162,1,0,0:0:0:0:
296,144,12816,1,0,0:0:0:0:
160,136,13052,1,0,0:0:0:0:
112,160,14233,2,0,L|400:144,2,280
352,240,17068,5,8,0:0:0:0:
144,128,17540,1,8,0:0:0:0:
352,144,18013,1,8,0:0:0:0:
152,232,19430,1,8,0:0:0:0:
152,232,19666,1,8,0:0:0:0:
152,232,19902,1,8,0:0:0:0:
152,232,20139,1,8,0:0:0:0:
152,232,20375,1,8,0:0:0:0:
152,232,20611,1,8,0:0:0:0:
152,232,20847,1,8,0:0:0:0:
336,152,21320,1,8,0:0:0:0:
144,136,21792,1,8,0:0:0:0:
144,112,22973,1,8,0:0:0:0:
304,104,23209,1,8,0:0:0:0:
104,208,23446,1,8,0:0:0:0:
264,240,23682,1,8,0:0:0:0:
168,128,23918,1,8,0:0:0:0:
360,232,24154,1,8,0:0:0:0:
88,248,24390,1,8,0:0:0:0:
272,200,24627,1,8,0:0:0:0:
384,64,25099,1,8,0:0:0:0:
120,176,25572,1,8,0:0:0:0:
296,208,26753,1,8,0:0:0:0:
152,112,26989,1,8,0:0:0:0:
96,232,27225,1,8,0:0:0:0:
408,128,27461,1,8,0:0:0:0:
240,256,27698,1,8,0:0:0:0:
136,136,27934,1,8,0:0:0:0:
392,208,28170,1,8,0:0:0:0:
120,232,28406,1,8,0:0:0:0:
320,144,29115,1,8,0:0:0:0:
136,248,29351,1,8,0:0:0:0:
320,256,29587,1,8,0:0:0:0:
96,128,29824,1,8,0:0:0:0:
288,136,30060,1,8,0:0:0:0:
112,240,30296,2,8,L|272:240,3,140
104,160,32186,5,0,0:0:0:0:
336,144,32658,5,6,0:0:0:0:
216,232,33131,1,0,0:0:0:0:
240,96,33603,5,6,0:0:0:0:
184,152,34312,1,0,0:0:0:0:
352,176,34548,5,6,0:0:0:0:
224,240,34784,1,0,0:0:0:0:
256,88,35020,1,0,0:0:0:0:
320,248,35257,1,0,0:0:0:0:
80,192,35493,5,6,0:0:0:0:
296,104,35729,1,0,0:0:0:0:
192,224,35965,1,0,0:0:0:0:
120,88,36438,5,6,0:0:0:0:
312,152,36910,1,0,0:0:0:0:
176,336,37383,5,6,0:0:0:0:
184,152,38091,1,0,0:0:0:0:
352,176,38327,5,6,0:0:0:0:
224,240,38563,1,0,0:0:0:0:
256,88,38799,1,0,0:0:0:0:
320,248,39036,1,0,0:0:0:0:
80,192,39272,5,6,0:0:0:0:
296,104,39508,1,0,0:0:0:0:
192,224,39744,1,0,0:0:0:0:
344,216,40217,5,6,0:0:0:0:
80,120,40690,1,0,0:0:0:0:
144,248,41162,5,6,0:0:0:0:
184,152,41871,1,0,0:0:0:0:
352,176,42107,5,6,0:0:0:0:
224,240,42343,1,0,0:0:0:0:
256,88,42579,1,0,0:0:0:0:
320,248,42816,1,0,0:0:0:0:
80,192,43052,5,6,0:0:0:0:
296,104,43288,1,0,0:0:0:0:
192,224,43524,1,0,0:0:0:0:
408,248,43997,5,6,0:0:0:0:
128,96,44233,1,0,0:0:0:0:
264,160,44469,1,0,0:0:0:0:
120,208,44705,1,0,0:0:0:0:
312,80,44941,5,6,0:0:0:0:
296,264,45178,1,0,0:0:0:0:
256,192,45414,12,4,47304,0:0:0:0:
184,176,47540,5,2,0:0:0:0:
264,176,47776,1,0,0:0:0:0:
320,168,48013,1,2,0:0:0:0:
256,160,48249,1,4,0:0:0:0:
160,168,48721,1,0,0:0:0:0:
248,176,49194,1,2,0:0:0:0:
248,176,49430,1,0,0:0:0:0:
248,176,49666,1,2,0:0:0:0:
248,176,49902,1,0,0:0:0:0:
248,176,50139,1,6,0:0:0:0:
248,176,50611,1,2,0:0:0:0:
160,152,51083,1,0,0:0:0:0:
160,152,51320,1,0,0:0:0:0:
160,152,51556,1,0,0:0:0:0:
160,152,51792,1,0,0:0:0:0:
160,152,52265,1,0,0:0:0:0:
160,152,52737,1,0,0:0:0:0:
192,176,54863,5,0,0:0:0:0:
184,176,55099,1,2,0:0:0:0:
264,176,55335,1,0,0:0:0:0:
320,168,55572,1,2,0:0:0:0:
256,160,55808,1,4,0:0:0:0:
160,168,56280,1,0,0:0:0:0:
248,176,56516,1,0,0:0:0:0:
248,176,56753,1,2,0:0:0:0:
248,176,56989,1,0,0:0:0:0:
248,176,57225,1,2,0:0:0:0:
248,176,57461,1,0,0:0:0:0:
248,176,57698,1,6,0:0:0:0:
248,176,58170,1,2,0:0:0:0:
160,152,58642,1,0,0:0:0:0:
160,152,58879,1,0,0:0:0:0:
160,152,59115,1,0,0:0:0:0:
160,152,59351,1,0,0:0:0:0:
160,152,59824,1,0,0:0:0:0:
160,152,60296,1,0,0:0:0:0:
152,160,62894,1,4,0:0:0:0:
248,160,63130,1,12,0:0:0:0:
336,160,63366,1,4,0:0:0:0:
152,160,63839,1,4,0:0:0:0:
248,160,64075,1,12,0:0:0:0:
336,160,64311,1,4,0:0:0:0:
152,160,64784,1,4,0:0:0:0:
248,160,65020,1,12,0:0:0:0:
336,160,65256,1,4,0:0:0:0:
152,160,65729,1,12,0:0:0:0:
248,160,65965,1,4,0:0:0:0:
336,160,66438,1,6,0:0:0:0:
320,160,67619,1,4,0:0:0:0:
160,112,67855,1,6,0:0:0:0:
216,96,68327,1,4,0:0:0:0:
216,184,68800,1,6,0:0:0:0:
152,104,69272,1,4,0:0:0:0:
272,176,69745,1,6,0:0:0:0:
152,160,70453,1,4,0:0:0:0:
248,160,70689,1,12,0:0:0:0:
336,160,70925,1,4,0:0:0:0:
152,160,71398,1,4,0:0:0:0:
248,160,71634,1,12,0:0:0:0:
336,160,71870,1,4,0:0:0:0:
152,160,72343,1,4,0:0:0:0:
248,160,72579,1,12,0:0:0:0:
336,160,72815,1,4,0:0:0:0:
152,160,73288,1,12,0:0:0:0:
248,160,73524,1,4,0:0:0:0:
336,160,73997,1,6,0:0:0:0:
160,152,75178,1,4,0:0:0:0:
248,160,75415,1,12,0:0:0:0:
320,160,75651,1,4,0:0:0:0:
160,112,75887,1,6,0:0:0:0:
216,96,76359,1,4,0:0:0:0:
216,184,76832,1,6,0:0:0:0:
152,104,77304,1,4,0:0:0:0:
64,184,78013,2,4,L|152:184,12,70
224,144,79902,1,4,0:0:0:0:
256,192,80139,1,12,0:0:0:0:
256,192,80611,1,4,0:0:0:0:
240,144,81792,1,6,0:0:0:0:
240,144,82028,1,4,0:0:0:0:
256,192,82265,1,6,0:0:0:0:
256,192,82973,1,4,0:0:0:0:
256,192,83209,1,6,0:0:0:0:
176,192,83564,2,4,L|240:192,22,35
152,160,85571,1,4,0:0:0:0:
248,160,85807,1,12,0:0:0:0:
336,160,86043,1,4,0:0:0:0:
152,160,86516,1,4,0:0:0:0:
248,160,86752,1,12,0:0:0:0:
336,160,86988,1,4,0:0:0:0:
152,160,87461,1,4,0:0:0:0:
248,160,87697,1,12,0:0:0:0:
336,160,87933,1,4,0:0:0:0:
152,160,88406,1,12,0:0:0:0:
248,160,88642,1,4,0:0:0:0:
336,160,89115,1,6,0:0:0:0:
256,192,90296,12,0,92422,0:0:0:0:
104,160,100217,5,0,0:0:0:0:
336,144,100689,5,6,0:0:0:0:
216,232,101162,1,0,0:0:0:0:
240,96,101634,5,6,0:0:0:0:
184,152,102343,1,0,0:0:0:0:
352,176,102579,5,6,0:0:0:0:
224,240,102815,1,0,0:0:0:0:
256,88,103051,1,0,0:0:0:0:
320,248,103288,1,0,0:0:0:0:
80,192,103524,5,6,0:0:0:0:
296,104,103760,1,0,0:0:0:0:
192,224,103996,1,0,0:0:0:0:
120,88,104469,5,6,0:0:0:0:
312,152,104941,1,0,0:0:0:0:
176,336,105414,5,6,0:0:0:0:
184,152,106122,1,0,0:0:0:0:
352,176,106358,5,6,0:0:0:0:
224,240,106594,1,0,0:0:0:0:
256,88,106830,1,0,0:0:0:0:
320,248,107067,1,0,0:0:0:0:
80,192,107303,5,6,0:0:0:0:
296,104,107539,1,0,0:0:0:0:
192,224,107775,1,0,0:0:0:0:
344,216,108248,5,6,0:0:0:0:
80,120,108721,1,0,0:0:0:0:
144,248,109193,5,6,0:0:0:0:
184,152,109902,1,0,0:0:0:0:
352,176,110138,5,6,0:0:0:0:
224,240,110374,1,0,0:0:0:0:
256,88,110610,1,0,0:0:0:0:
320,248,110847,1,0,0:0:0:0:
80,192,111083,5,6,0:0:0:0:
296,104,111319,1,0,0:0:0:0:
192,224,111555,1,0,0:0:0:0:
408,248,112028,5,6,0:0:0:0:
128,96,112264,1,0,0:0:0:0:
264,160,112500,1,0,0:0:0:0:
120,208,112736,1,0,0:0:0:0:
312,80,112972,5,6,0:0:0:0:
296,264,113209,1,0,0:0:0:0:
112,160,115335,2,0,L|328:160,1,210.000008010865
112,160,117225,2,0,L|328:160,1,210.000008010865
112,160,119115,2,0,L|328:160,1,210.000008010865
112,160,121005,2,0,L|328:160,1,210.000008010865
112,160,122894,2,0,L|328:160,1,210.000008010865
112,160,124784,2,0,L|328:160,1,210.000008010865
112,160,126674,2,0,L|328:160,1,210.000008010865
112,160,128564,2,0,L|328:160,1,210.000008010865
72,144,130453,5,0,0:0:0:0:
184,176,130690,5,2,0:0:0:0:
264,176,130926,1,0,0:0:0:0:
320,168,131163,1,2,0:0:0:0:
256,160,131399,1,4,0:0:0:0:
160,168,131871,1,0,0:0:0:0:
248,176,132344,1,2,0:0:0:0:
248,176,132580,1,0,0:0:0:0:
248,176,132816,1,2,0:0:0:0:
248,176,133052,1,0,0:0:0:0:
248,176,133289,1,6,0:0:0:0:
248,176,133761,1,2,0:0:0:0:
160,152,134233,1,8,0:0:0:0:
160,152,134470,1,0,0:0:0:0:
160,152,134706,1,8,0:0:0:0:
160,152,134942,1,0,0:0:0:0:
160,152,135415,1,0,0:0:0:0:
160,152,135887,1,0,0:0:0:0:
192,176,138013,5,0,0:0:0:0:
184,176,138249,1,2,0:0:0:0:
264,176,138485,1,0,0:0:0:0:
320,168,138722,1,2,0:0:0:0:
256,160,138958,1,4,0:0:0:0:
160,168,139430,1,0,0:0:0:0:
248,176,139666,1,0,0:0:0:0:
248,176,139903,1,2,0:0:0:0:
248,176,140139,1,0,0:0:0:0:
248,176,140375,1,2,0:0:0:0:
248,176,140611,1,0,0:0:0:0:
248,176,140848,1,6,0:0:0:0:
248,176,141320,1,2,0:0:0:0:
160,152,141792,1,0,0:0:0:0:
160,152,142029,1,8,0:0:0:0:
160,152,142265,1,0,0:0:0:0:
160,152,142501,1,8,0:0:0:0:
160,152,142974,1,0,0:0:0:0:
160,152,143446,1,0,0:0:0:0:
152,160,146044,1,4,0:0:0:0:
248,160,146280,1,12,0:0:0:0:
336,160,146516,1,4,0:0:0:0:
152,160,146989,1,4,0:0:0:0:
248,160,147225,1,12,0:0:0:0:
336,160,147461,1,4,0:0:0:0:
152,160,147934,1,4,0:0:0:0:
248,160,148170,1,12,0:0:0:0:
336,160,148406,1,4,0:0:0:0:
152,160,148879,1,12,0:0:0:0:
248,160,149115,1,4,0:0:0:0:
336,160,149588,1,6,0:0:0:0:
320,160,150769,1,4,0:0:0:0:
160,112,151005,1,6,0:0:0:0:
216,96,151477,1,4,0:0:0:0:
216,184,151950,1,6,0:0:0:0:
152,104,152422,1,4,0:0:0:0:
272,176,152895,1,6,0:0:0:0:
152,160,153603,1,4,0:0:0:0:
248,160,153839,1,12,0:0:0:0:
336,160,154075,1,4,0:0:0:0:
152,160,154548,1,4,0:0:0:0:
248,160,154784,1,12,0:0:0:0:
336,160,155020,1,4,0:0:0:0:
152,160,155493,1,4,0:0:0:0:
248,160,155729,1,12,0:0:0:0:
336,160,155965,1,4,0:0:0:0:
152,160,156438,1,12,0:0:0:0:
248,160,156674,1,4,0:0:0:0:
336,160,157147,1,6,0:0:0:0:
160,152,158328,1,4,0:0:0:0:
248,160,158565,1,12,0:0:0:0:
320,160,158801,1,4,0:0:0:0:
160,112,159037,1,6,0:0:0:0:
216,96,159509,1,4,0:0:0:0:
216,184,159982,1,6,0:0:0:0:
152,104,160454,1,4,0:0:0:0:
64,184,161163,2,4,L|152:184,12,70
224,144,163052,1,4,0:0:0:0:
256,192,163289,1,12,0:0:0:0:
256,192,163761,1,4,0:0:0:0:
240,144,164942,1,6,0:0:0:0:
240,144,165178,1,4,0:0:0:0:
256,192,165415,1,6,0:0:0:0:
256,192,166123,1,4,0:0:0:0:
256,192,166359,1,6,0:0:0:0:
176,192,166714,2,4,L|240:192,22,35
152,160,168720,1,4,0:0:0:0:
248,160,168956,1,12,0:0:0:0:
336,160,169192,1,4,0:0:0:0:
152,160,169665,1,4,0:0:0:0:
248,160,169901,1,12,0:0:0:0:
336,160,170137,1,4,0:0:0:0:
152,160,170610,1,4,0:0:0:0:
248,160,170846,1,12,0:0:0:0:
336,160,171082,1,4,0:0:0:0:
152,160,171555,1,12,0:0:0:0:
248,160,171791,1,4,0:0:0:0:
336,160,172264,1,6,0:0:0:0:
160,152,173445,1,4,0:0:0:0:
248,160,173681,1,4,0:0:0:0:
160,112,174154,1,4,0:0:0:0:
216,96,174626,1,4,0:0:0:0:
216,184,175099,1,4,0:0:0:0:
152,104,175571,1,4,0:0:0:0:
