osu file format v14

[General]
AudioFilename: audio.mp3
AudioLeadIn: 0
PreviewTime: 145572
Countdown: 1
SampleSet: None
StackLeniency: 0.5
Mode: 3
LetterboxInBreaks: 0
SpecialStyle: 0
WidescreenStoryboard: 1

[Editor]
DistanceSpacing: 1.1
BeatDivisor: 4
GridSize: 8
TimelineZoom: 1.1

[Metadata]
Title:Judgement
TitleUnicode:Judgement
Artist:TryHardNinja
ArtistUnicode:TryHardNinja
Creator:IGotsAyClixer
Version:Mania
Source:
Tags:sans undertale
BeatmapID:1519967
BeatmapSetID:718934

[Difficulty]
HPDrainRate:5
CircleSize:7
OverallDifficulty:5
ApproachRate:5
SliderMultiplier:1.4
SliderTickRate:1

[Events]
//Background and Video events
Video,0,"UNDERTALE SANS SONG 'Judgement' by TryHardNinja.mp4"
0,0,"wallpaper-undertale-sans-by-rukia-beatriz-d9ytoxa-sans-undertale-39825778-1024-576.png",0,0
//Break Periods
2,92622,99017
//Storyboard Layer 0 (Background)
//Storyboard Layer 1 (Fail)
//Storyboard Layer 2 (Pass)
//Storyboard Layer 3 (Foreground)
//Storyboard Sound Samples

[TimingPoints]
1005.16244411326,472.44094488189,4,3,0,15,1,0
9390,-100,4,3,0,25,0,0
9627,-100,4,3,0,25,0,0
62422,-100,4,3,0,70,0,1
93131,-100,4,3,0,25,0,0
115217,-133.333333333333,4,3,0,25,0,0
145572,-100,4,3,0,80,0,1
176280,-100,4,3,0,25,0,0

[Colours]
Combo1 : 0,255,255
Combo2 : 192,192,192
Combo3 : 255,0,0

[HitObjects]
192,192,1005,5,0,0:0:0:0:
64,192,1241,1,0,0:0:0:0:
192,192,1477,1,0,0:0:0:0:
320,192,1713,1,0,0:0:0:0:
448,192,1950,1,0,0:0:0:0:
402,192,2186,1,0,0:0:0:0:
256,192,2422,1,0,0:0:0:0:
64,192,3603,1,0,0:0:0:0:
192,192,3839,1,0,0:0:0:0:
320,192,4076,1,0,0:0:0:0:
109,192,5493,1,0,0:0:0:0:
256,192,5729,1,0,0:0:0:0:
402,192,5965,1,0,0:0:0:0:
448,192,6438,1,0,0:0:0:0:
192,192,6910,1,0,0:0:0:0:
320,192,7383,1,0,0:0:0:0:
448,192,7619,1,0,0:0:0:0:
320,192,7855,1,0,0:0:0:0:
182,192,7973,1,0,0:0:0:0:
192,192,8564,1,0,0:0:0:0:
64,192,8800,1,0,0:0:0:0:
182,192,9036,1,0,0:0:0:0:
329,192,9272,1,0,0:0:0:0:
402,192,9509,1,0,0:0:0:0:
329,192,9509,1,0,0:0:0:0:
256,192,9509,1,0,0:0:0:0:
182,192,9509,1,0,0:0:0:0:
109,192,9509,1,0,0:0:0:0:
182,192,9981,1,0,0:0:0:0:
329,192,9981,128,0,16241:0:0:0:0:
256,192,10453,1,0,0:0:0:0:
402,192,10926,1,0,0:0:0:0:
475,192,11162,1,0,0:0:0:0:
475,192,12816,1,0,0:0:0:0:
256,192,13052,1,0,0:0:0:0:
109,192,14233,128,0,14824:0:0:0:0:
256,192,15178,128,0,15768:0:0:0:0:
329,192,17068,1,0,0:0:0:0:
182,192,17540,1,0,0:0:0:0:
256,192,18013,1,0,0:0:0:0:
329,192,19430,1,0,0:0:0:0:
182,192,19666,1,0,0:0:0:0:
256,192,19902,1,0,0:0:0:0:
329,192,20139,1,0,0:0:0:0:
256,192,20375,1,0,0:0:0:0:
182,192,20611,1,0,0:0:0:0:
109,192,20847,1,0,0:0:0:0:
329,192,21320,1,0,0:0:0:0:
109,192,21792,1,0,0:0:0:0:
329,192,22973,1,0,0:0:0:0:
182,192,23209,1,0,0:0:0:0:
109,192,23446,1,0,0:0:0:0:
256,192,23682,1,0,0:0:0:0:
402,192,23918,1,0,0:0:0:0:
329,192,24154,1,0,0:0:0:0:
256,192,24390,1,0,0:0:0:0:
109,192,24627,1,0,0:0:0:0:
402,192,25099,1,0,0:0:0:0:
182,192,25572,1,0,0:0:0:0:
182,192,26753,1,0,0:0:0:0:
329,192,26989,1,0,0:0:0:0:
109,192,27225,1,0,0:0:0:0:
256,192,27461,1,0,0:0:0:0:
402,192,27698,1,0,0:0:0:0:
329,192,27934,1,0,0:0:0:0:
182,192,28170,1,0,0:0:0:0:
109,192,28406,1,0,0:0:0:0:
256,192,29115,1,0,0:0:0:0:
329,192,29351,1,0,0:0:0:0:
402,192,29587,1,0,0:0:0:0:
256,192,29824,1,0,0:0:0:0:
109,192,30060,1,0,0:0:0:0:
256,192,30296,1,0,0:0:0:0:
109,192,32186,1,0,0:0:0:0:
256,192,32658,1,0,0:0:0:0:
402,192,32658,1,0,0:0:0:0:
109,192,33131,1,0,0:0:0:0:
256,192,33603,1,0,0:0:0:0:
329,192,34312,1,0,0:0:0:0:
256,192,34548,1,0,0:0:0:0:
182,192,34548,1,0,0:0:0:0:
109,192,34784,1,0,0:0:0:0:
182,192,35020,1,0,0:0:0:0:
329,192,35257,1,0,0:0:0:0:
182,192,35493,1,0,0:0:0:0:
256,192,35493,1,0,0:0:0:0:
36,192,35729,1,0,0:0:0:0:
329,192,35965,1,0,0:0:0:0:
109,192,36438,1,0,0:0:0:0:
256,192,36438,1,0,0:0:0:0:
256,192,36910,1,0,0:0:0:0:
256,192,37383,1,0,0:0:0:0:
402,192,38091,1,0,0:0:0:0:
182,192,38327,1,0,0:0:0:0:
256,192,38327,1,0,0:0:0:0:
329,192,38564,1,0,0:0:0:0:
182,192,38800,1,0,0:0:0:0:
109,192,39036,1,0,0:0:0:0:
182,192,39272,1,0,0:0:0:0:
256,192,39272,1,0,0:0:0:0:
329,192,39509,1,0,0:0:0:0:
475,192,39745,1,0,0:0:0:0:
109,192,40217,1,0,0:0:0:0:
256,192,40217,1,0,0:0:0:0:
256,192,40690,1,0,0:0:0:0:
256,192,41162,1,0,0:0:0:0:
182,192,41871,1,0,0:0:0:0:
256,192,42107,1,0,0:0:0:0:
329,192,42107,1,0,0:0:0:0:
182,192,42343,1,0,0:0:0:0:
329,192,42579,1,0,0:0:0:0:
475,192,42816,1,0,0:0:0:0:
256,192,43052,1,0,0:0:0:0:
329,192,43052,1,0,0:0:0:0:
182,192,43288,1,0,0:0:0:0:
182,192,43524,1,0,0:0:0:0:
256,192,43997,1,0,0:0:0:0:
329,192,44233,1,0,0:0:0:0:
402,192,44469,1,0,0:0:0:0:
109,192,44705,1,0,0:0:0:0:
182,192,44942,1,0,0:0:0:0:
256,192,44942,1,0,0:0:0:0:
329,192,45178,1,0,0:0:0:0:
182,192,45414,1,0,0:0:0:0:
182,192,45532,1,0,0:0:0:0:
182,192,45650,1,0,0:0:0:0:
182,192,45768,1,0,0:0:0:0:
256,192,45887,1,0,0:0:0:0:
182,192,45887,1,0,0:0:0:0:
182,192,46005,1,0,0:0:0:0:
182,192,46123,1,0,0:0:0:0:
182,192,46241,1,0,0:0:0:0:
182,192,46359,1,0,0:0:0:0:
182,192,46477,1,0,0:0:0:0:
182,192,46595,1,0,0:0:0:0:
182,192,46713,1,0,0:0:0:0:
256,192,46831,1,0,0:0:0:0:
182,192,46831,1,0,0:0:0:0:
182,192,46950,1,0,0:0:0:0:
182,192,47068,1,0,0:0:0:0:
182,192,47186,1,0,0:0:0:0:
182,192,47304,1,0,0:0:0:0:
329,192,47540,1,0,0:0:0:0:
182,192,47776,1,0,0:0:0:0:
256,192,47776,1,0,0:0:0:0:
329,192,48013,1,0,0:0:0:0:
109,192,48249,1,0,0:0:0:0:
256,192,48249,1,0,0:0:0:0:
329,192,48485,1,0,0:0:0:0:
256,192,48721,1,0,0:0:0:0:
182,192,48957,1,0,0:0:0:0:
256,192,49194,1,0,0:0:0:0:
329,192,49194,1,0,0:0:0:0:
402,192,49430,1,0,0:0:0:0:
256,192,49666,1,0,0:0:0:0:
182,192,49666,1,0,0:0:0:0:
329,192,49902,1,0,0:0:0:0:
256,192,50139,1,0,0:0:0:0:
36,192,50139,1,0,0:0:0:0:
36,192,50375,1,0,0:0:0:0:
36,192,50611,1,0,0:0:0:0:
256,192,50611,1,0,0:0:0:0:
256,192,51083,1,0,0:0:0:0:
329,192,51083,1,0,0:0:0:0:
109,192,51320,1,0,0:0:0:0:
256,192,51556,1,0,0:0:0:0:
329,192,51556,1,0,0:0:0:0:
36,192,51792,1,0,0:0:0:0:
256,192,52028,1,0,0:0:0:0:
402,192,52265,1,0,0:0:0:0:
256,192,52501,1,0,0:0:0:0:
109,192,52737,1,0,0:0:0:0:
256,192,52973,1,0,0:0:0:0:
256,192,53446,1,0,0:0:0:0:
256,192,53918,1,0,0:0:0:0:
256,192,54390,1,0,0:0:0:0:
256,192,54863,1,0,0:0:0:0:
182,192,54863,1,0,0:0:0:0:
109,192,55099,1,0,0:0:0:0:
256,192,55335,1,0,0:0:0:0:
182,192,55335,1,0,0:0:0:0:
109,192,55572,1,0,0:0:0:0:
256,192,55808,1,0,0:0:0:0:
329,192,55808,1,0,0:0:0:0:
256,192,56280,1,0,0:0:0:0:
182,192,56280,1,0,0:0:0:0:
256,192,56516,1,0,0:0:0:0:
256,192,56753,1,0,0:0:0:0:
402,192,56753,1,0,0:0:0:0:
182,192,56989,1,0,0:0:0:0:
256,192,57225,1,0,0:0:0:0:
109,192,57225,1,0,0:0:0:0:
329,192,57461,1,0,0:0:0:0:
256,192,57698,1,0,0:0:0:0:
329,192,57698,1,0,0:0:0:0:
256,192,58170,1,0,0:0:0:0:
329,192,58170,1,0,0:0:0:0:
256,192,58642,1,0,0:0:0:0:
109,192,58642,1,0,0:0:0:0:
36,192,58879,1,0,0:0:0:0:
256,192,59115,1,0,0:0:0:0:
182,192,59115,1,0,0:0:0:0:
329,192,59351,1,0,0:0:0:0:
256,192,59587,1,0,0:0:0:0:
475,192,59824,1,0,0:0:0:0:
256,192,60060,1,0,0:0:0:0:
329,192,60296,128,0,61005:0:0:0:0:
256,192,60532,1,0,0:0:0:0:
256,192,61005,1,0,0:0:0:0:
256,192,61477,1,0,0:0:0:0:
36,192,61713,1,0,0:0:0:0:
109,192,61713,1,0,0:0:0:0:
402,192,61950,1,0,0:0:0:0:
475,192,61950,1,0,0:0:0:0:
329,192,62186,1,0,0:0:0:0:
256,192,62186,1,0,0:0:0:0:
182,192,62186,1,0,0:0:0:0:
36,192,62894,1,0,0:0:0:0:
109,192,62894,1,0,0:0:0:0:
36,192,63131,1,0,0:0:0:0:
109,192,63131,1,0,0:0:0:0:
329,192,63367,1,0,0:0:0:0:
109,192,63839,1,0,0:0:0:0:
36,192,63839,1,0,0:0:0:0:
36,192,64076,1,0,0:0:0:0:
109,192,64076,1,0,0:0:0:0:
329,192,64312,1,0,0:0:0:0:
109,192,64784,1,0,0:0:0:0:
36,192,64784,1,0,0:0:0:0:
109,192,65020,1,0,0:0:0:0:
36,192,65020,1,0,0:0:0:0:
329,192,65257,1,0,0:0:0:0:
109,192,65729,1,0,0:0:0:0:
109,192,65965,1,0,0:0:0:0:
182,192,66438,1,0,0:0:0:0:
182,192,67619,1,0,0:0:0:0:
182,192,67855,1,0,0:0:0:0:
329,192,68327,1,0,0:0:0:0:
402,192,68800,1,0,0:0:0:0:
475,192,69272,1,0,0:0:0:0:
329,192,69745,1,0,0:0:0:0:
109,192,70453,1,0,0:0:0:0:
36,192,70453,1,0,0:0:0:0:
36,192,70690,1,0,0:0:0:0:
109,192,70690,1,0,0:0:0:0:
182,192,70926,1,0,0:0:0:0:
402,192,71398,1,0,0:0:0:0:
475,192,71398,1,0,0:0:0:0:
402,192,71635,1,0,0:0:0:0:
475,192,71635,1,0,0:0:0:0:
329,192,71871,1,0,0:0:0:0:
109,192,72343,1,0,0:0:0:0:
36,192,72343,1,0,0:0:0:0:
109,192,72579,1,0,0:0:0:0:
36,192,72579,1,0,0:0:0:0:
182,192,72816,1,0,0:0:0:0:
329,192,73288,1,0,0:0:0:0:
109,192,73524,1,0,0:0:0:0:
256,192,73997,1,0,0:0:0:0:
329,192,75178,1,0,0:0:0:0:
329,192,75414,1,0,0:0:0:0:
256,192,75650,1,0,0:0:0:0:
256,192,75887,1,0,0:0:0:0:
109,192,76359,1,0,0:0:0:0:
256,192,76831,1,0,0:0:0:0:
329,192,77304,1,0,0:0:0:0:
182,192,78013,1,0,0:0:0:0:
329,192,78249,1,0,0:0:0:0:
182,192,78485,1,0,0:0:0:0:
256,192,78485,1,0,0:0:0:0:
182,192,78721,1,0,0:0:0:0:
329,192,78957,1,0,0:0:0:0:
182,192,79194,1,0,0:0:0:0:
109,192,79194,1,0,0:0:0:0:
109,192,79430,1,0,0:0:0:0:
329,192,79902,1,0,0:0:0:0:
182,192,80139,1,0,0:0:0:0:
109,192,80611,1,0,0:0:0:0:
329,192,81792,1,0,0:0:0:0:
329,192,82028,1,0,0:0:0:0:
182,192,82265,1,0,0:0:0:0:
182,192,82973,1,0,0:0:0:0:
256,192,83209,1,0,0:0:0:0:
256,192,83564,1,0,0:0:0:0:
256,192,83918,128,0,84863:0:0:0:0:
36,192,85572,1,0,0:0:0:0:
109,192,85572,1,0,0:0:0:0:
36,192,85808,1,0,0:0:0:0:
109,192,85808,1,0,0:0:0:0:
182,192,86044,1,0,0:0:0:0:
36,192,86516,1,0,0:0:0:0:
109,192,86516,1,0,0:0:0:0:
109,192,86753,1,0,0:0:0:0:
36,192,86753,1,0,0:0:0:0:
182,192,86989,1,0,0:0:0:0:
109,192,87461,1,0,0:0:0:0:
36,192,87461,1,0,0:0:0:0:
36,192,87698,1,0,0:0:0:0:
109,192,87698,1,0,0:0:0:0:
182,192,87934,1,0,0:0:0:0:
182,192,88406,1,0,0:0:0:0:
329,192,88642,1,0,0:0:0:0:
329,192,89115,1,0,0:0:0:0:
256,192,90296,1,0,0:0:0:0:
182,192,90532,1,0,0:0:0:0:
109,192,91005,1,0,0:0:0:0:
329,192,91477,1,0,0:0:0:0:
402,192,91950,1,0,0:0:0:0:
256,192,92422,1,0,0:0:0:0:
109,192,100217,5,0,0:0:0:0:
256,192,100690,1,0,0:0:0:0:
402,192,100690,1,0,0:0:0:0:
109,192,101162,1,0,0:0:0:0:
256,192,101635,1,0,0:0:0:0:
329,192,102343,1,0,0:0:0:0:
256,192,102579,1,0,0:0:0:0:
182,192,102579,1,0,0:0:0:0:
109,192,102816,1,0,0:0:0:0:
182,192,103052,1,0,0:0:0:0:
329,192,103288,1,0,0:0:0:0:
182,192,103524,1,0,0:0:0:0:
256,192,103524,1,0,0:0:0:0:
36,192,103761,1,0,0:0:0:0:
329,192,103997,1,0,0:0:0:0:
109,192,104469,1,0,0:0:0:0:
256,192,104469,1,0,0:0:0:0:
256,192,104942,1,0,0:0:0:0:
256,192,105414,1,0,0:0:0:0:
402,192,106123,1,0,0:0:0:0:
182,192,106359,1,0,0:0:0:0:
256,192,106359,1,0,0:0:0:0:
329,192,106595,1,0,0:0:0:0:
182,192,106831,1,0,0:0:0:0:
109,192,107068,1,0,0:0:0:0:
182,192,107304,1,0,0:0:0:0:
256,192,107304,1,0,0:0:0:0:
329,192,107540,1,0,0:0:0:0:
475,192,107776,1,0,0:0:0:0:
109,192,108249,1,0,0:0:0:0:
256,192,108249,1,0,0:0:0:0:
256,192,108721,1,0,0:0:0:0:
256,192,109194,1,0,0:0:0:0:
182,192,109902,1,0,0:0:0:0:
256,192,110139,1,0,0:0:0:0:
329,192,110139,1,0,0:0:0:0:
182,192,110375,1,0,0:0:0:0:
329,192,110611,1,0,0:0:0:0:
475,192,110847,1,0,0:0:0:0:
256,192,111083,1,0,0:0:0:0:
329,192,111083,1,0,0:0:0:0:
182,192,111320,1,0,0:0:0:0:
182,192,111556,1,0,0:0:0:0:
256,192,112028,1,0,0:0:0:0:
329,192,112265,1,0,0:0:0:0:
402,192,112501,1,0,0:0:0:0:
109,192,112737,1,0,0:0:0:0:
182,192,112973,1,0,0:0:0:0:
256,192,112973,1,0,0:0:0:0:
329,192,113209,128,0,115099:0:0:0:0:
256,192,113918,1,0,0:0:0:0:
256,192,114863,1,0,0:0:0:0:
182,192,115335,128,0,116280:0:0:0:0:
329,192,117225,128,0,118170:0:0:0:0:
182,192,119115,128,0,120060:0:0:0:0:
475,192,121005,128,0,121950:0:0:0:0:
109,192,122894,128,0,123839:0:0:0:0:
256,192,124784,128,0,125729:0:0:0:0:
402,192,126674,128,0,127619:0:0:0:0:
36,192,128564,128,0,129509:0:0:0:0:
182,192,130453,1,0,0:0:0:0:
329,192,130690,1,0,0:0:0:0:
182,192,130926,1,0,0:0:0:0:
256,192,130926,1,0,0:0:0:0:
329,192,131162,1,0,0:0:0:0:
109,192,131398,1,0,0:0:0:0:
256,192,131398,1,0,0:0:0:0:
329,192,131635,1,0,0:0:0:0:
256,192,131871,1,0,0:0:0:0:
182,192,132107,1,0,0:0:0:0:
256,192,132343,1,0,0:0:0:0:
329,192,132343,1,0,0:0:0:0:
402,192,132579,1,0,0:0:0:0:
256,192,132816,1,0,0:0:0:0:
182,192,132816,1,0,0:0:0:0:
329,192,133052,1,0,0:0:0:0:
256,192,133288,1,0,0:0:0:0:
36,192,133288,1,0,0:0:0:0:
36,192,133524,1,0,0:0:0:0:
36,192,133761,1,0,0:0:0:0:
256,192,133761,1,0,0:0:0:0:
256,192,134233,1,0,0:0:0:0:
329,192,134233,1,0,0:0:0:0:
109,192,134469,1,0,0:0:0:0:
256,192,134705,1,0,0:0:0:0:
329,192,134705,1,0,0:0:0:0:
36,192,134942,1,0,0:0:0:0:
256,192,135178,1,0,0:0:0:0:
402,192,135414,1,0,0:0:0:0:
256,192,135650,1,0,0:0:0:0:
109,192,135887,1,0,0:0:0:0:
256,192,136123,1,0,0:0:0:0:
256,192,136595,1,0,0:0:0:0:
256,192,137068,1,0,0:0:0:0:
256,192,137540,1,0,0:0:0:0:
256,192,138013,1,0,0:0:0:0:
182,192,138013,1,0,0:0:0:0:
109,192,138249,1,0,0:0:0:0:
256,192,138485,1,0,0:0:0:0:
182,192,138485,1,0,0:0:0:0:
109,192,138721,1,0,0:0:0:0:
256,192,138957,1,0,0:0:0:0:
329,192,138957,1,0,0:0:0:0:
256,192,139430,1,0,0:0:0:0:
182,192,139430,1,0,0:0:0:0:
256,192,139666,1,0,0:0:0:0:
256,192,139902,1,0,0:0:0:0:
402,192,139902,1,0,0:0:0:0:
182,192,140139,1,0,0:0:0:0:
256,192,140375,1,0,0:0:0:0:
109,192,140375,1,0,0:0:0:0:
329,192,140611,1,0,0:0:0:0:
256,192,140847,1,0,0:0:0:0:
329,192,140847,1,0,0:0:0:0:
256,192,141320,1,0,0:0:0:0:
329,192,141320,1,0,0:0:0:0:
256,192,141792,1,0,0:0:0:0:
109,192,141792,1,0,0:0:0:0:
36,192,142028,1,0,0:0:0:0:
256,192,142265,1,0,0:0:0:0:
182,192,142265,1,0,0:0:0:0:
329,192,142501,1,0,0:0:0:0:
256,192,142737,1,0,0:0:0:0:
475,192,142973,1,0,0:0:0:0:
256,192,143209,1,0,0:0:0:0:
329,192,143446,128,0,144154:0:0:0:0:
256,192,143682,1,0,0:0:0:0:
256,192,144154,1,0,0:0:0:0:
256,192,144627,1,0,0:0:0:0:
36,192,144863,1,0,0:0:0:0:
109,192,144863,1,0,0:0:0:0:
402,192,145099,1,0,0:0:0:0:
475,192,145099,1,0,0:0:0:0:
329,192,145335,1,0,0:0:0:0:
256,192,145335,1,0,0:0:0:0:
182,192,145335,1,0,0:0:0:0:
36,192,146044,1,0,0:0:0:0:
109,192,146044,1,0,0:0:0:0:
36,192,146280,1,0,0:0:0:0:
109,192,146280,1,0,0:0:0:0:
329,192,146516,1,0,0:0:0:0:
109,192,146989,1,0,0:0:0:0:
36,192,146989,1,0,0:0:0:0:
36,192,147225,1,0,0:0:0:0:
109,192,147225,1,0,0:0:0:0:
329,192,147461,1,0,0:0:0:0:
109,192,147934,1,0,0:0:0:0:
36,192,147934,1,0,0:0:0:0:
109,192,148170,1,0,0:0:0:0:
36,192,148170,1,0,0:0:0:0:
329,192,148406,1,0,0:0:0:0:
109,192,148879,1,0,0:0:0:0:
109,192,149115,1,0,0:0:0:0:
182,192,149587,1,0,0:0:0:0:
182,192,150768,1,0,0:0:0:0:
182,192,151005,1,0,0:0:0:0:
329,192,151477,1,0,0:0:0:0:
402,192,151950,1,0,0:0:0:0:
475,192,152422,1,0,0:0:0:0:
329,192,152894,1,0,0:0:0:0:
109,192,153603,1,0,0:0:0:0:
36,192,153603,1,0,0:0:0:0:
36,192,153839,1,0,0:0:0:0:
109,192,153839,1,0,0:0:0:0:
182,192,154076,1,0,0:0:0:0:
402,192,154548,1,0,0:0:0:0:
475,192,154548,1,0,0:0:0:0:
402,192,154784,1,0,0:0:0:0:
475,192,154784,1,0,0:0:0:0:
329,192,155020,1,0,0:0:0:0:
109,192,155493,1,0,0:0:0:0:
36,192,155493,1,0,0:0:0:0:
109,192,155729,1,0,0:0:0:0:
36,192,155729,1,0,0:0:0:0:
182,192,155965,1,0,0:0:0:0:
329,192,156438,1,0,0:0:0:0:
109,192,156674,1,0,0:0:0:0:
256,192,157146,1,0,0:0:0:0:
329,192,158327,1,0,0:0:0:0:
329,192,158564,1,0,0:0:0:0:
256,192,158800,1,0,0:0:0:0:
256,192,159036,1,0,0:0:0:0:
109,192,159509,1,0,0:0:0:0:
256,192,159981,1,0,0:0:0:0:
329,192,160453,1,0,0:0:0:0:
182,192,161162,1,0,0:0:0:0:
329,192,161398,1,0,0:0:0:0:
182,192,161635,1,0,0:0:0:0:
256,192,161635,1,0,0:0:0:0:
182,192,161871,1,0,0:0:0:0:
329,192,162107,1,0,0:0:0:0:
182,192,162343,1,0,0:0:0:0:
109,192,162343,1,0,0:0:0:0:
109,192,162579,1,0,0:0:0:0:
329,192,163052,1,0,0:0:0:0:
182,192,163288,1,0,0:0:0:0:
109,192,163761,1,0,0:0:0:0:
329,192,164942,1,0,0:0:0:0:
329,192,165178,1,0,0:0:0:0:
182,192,165414,1,0,0:0:0:0:
182,192,166123,1,0,0:0:0:0:
256,192,166359,1,0,0:0:0:0:
256,192,166713,1,0,0:0:0:0:
256,192,167068,128,0,168013:0:0:0:0:
36,192,168721,1,0,0:0:0:0:
109,192,168721,1,0,0:0:0:0:
36,192,168957,1,0,0:0:0:0:
109,192,168957,1,0,0:0:0:0:
182,192,169194,1,0,0:0:0:0:
36,192,169666,1,0,0:0:0:0:
109,192,169666,1,0,0:0:0:0:
109,192,169902,1,0,0:0:0:0:
36,192,169902,1,0,0:0:0:0:
182,192,170139,1,0,0:0:0:0:
109,192,170611,1,0,0:0:0:0:
36,192,170611,1,0,0:0:0:0:
36,192,170847,1,0,0:0:0:0:
109,192,170847,1,0,0:0:0:0:
182,192,171083,1,0,0:0:0:0:
182,192,171556,1,0,0:0:0:0:
329,192,171792,1,0,0:0:0:0:
329,192,172265,1,0,0:0:0:0:
256,192,173446,1,0,0:0:0:0:
182,192,173682,1,0,0:0:0:0:
109,192,174154,1,0,0:0:0:0:
329,192,174627,1,0,0:0:0:0:
402,192,175099,1,0,0:0:0:0:
256,192,175572,1,0,0:0:0:0:
