osu file format v14

[General]
AudioFilename: Truxton Hellhound Bitch Clap[Panic Protocol].mp3
AudioLeadIn: 0
PreviewTime: 203942
Countdown: 0
SampleSet: Soft
StackLeniency: 0.7
Mode: 3
LetterboxInBreaks: 0
SpecialStyle: 0
WidescreenStoryboard: 0

[Editor]
Bookmarks: 128042
DistanceSpacing: 0.5
BeatDivisor: 4
GridSize: 8
TimelineZoom: 2.399999

[Metadata]
Title:Bitch Clap
TitleUnicode:Bitch Clap
Artist:Truxton Hellhound
ArtistUnicode:Truxton Hellhound
Creator:LinkTaylord
Version:Standard
Source:
Tags:LAPFOX TRAX Panic Protocol Renard Queenstone kyoto skrillex garbage i think i'm im paranoid black sabbath dubstep drum and bass dnb mash up
BeatmapID:923454
BeatmapSetID:388517

[Difficulty]
HPDrainRate:7
CircleSize:4
OverallDifficulty:7
ApproachRate:5
SliderMultiplier:1.4
SliderTickRate:1

[Events]
//Background and Video events
0,0,"BG.jpg",0,0
//Break Periods
2,179442,190842
//Storyboard Layer 0 (Background)
//Storyboard Layer 1 (Fail)
//Storyboard Layer 2 (Pass)
//Storyboard Layer 3 (Foreground)
//Storyboard Sound Samples

[TimingPoints]
42,400,4,2,0,25,1,0
11242,-10,4,1,1,40,0,0
11275,-111.111111111111,4,2,0,25,0,0
11308,-125,4,2,0,25,0,0
11342,-142.857142857143,4,2,0,25,0,0
11375,-166.666666666667,4,2,0,25,0,0
11408,-200,4,2,0,25,0,0
11442,-250,4,2,0,25,0,0
11467,-52.6315789473684,4,2,0,25,0,0
11492,-333.333333333333,4,2,0,25,0,0
11517,-52.6315789473684,4,2,0,25,0,0
11542,-1000,4,2,0,25,0,0
12225,-500,4,2,0,25,0,0
12425,-333.333333333333,4,2,0,25,0,0
12525,-250,4,2,0,25,0,0
12575,-200,4,2,0,25,0,0
12625,-500,4,2,0,25,0,0
12675,-166.666666666667,4,2,0,25,0,0
12725,-142.857142857143,4,2,0,25,0,0
12775,-125,4,2,0,25,0,0
12825,-100,4,1,1,40,0,0
25642,-100,4,1,1,40,0,1
49442,-100,4,1,1,25,0,0
76442,-80,4,1,1,40,0,0
76542,-100,4,2,0,25,0,0
76642,-200,4,2,0,25,0,0
76742,-400,4,2,0,25,0,0
76842,-100,4,1,1,40,0,1
100642,-100,4,1,1,40,0,0
152042,-10,4,1,1,40,0,0
152075,-125,4,2,0,25,0,0
152108,-166.666666666667,4,2,0,25,0,0
152142,-250.000000000001,4,2,0,25,0,0
152175,-500,4,2,0,25,0,0
152208,-1000,4,2,0,25,0,0
152242,-133.333333333333,4,2,0,25,0,0
152267,-1000,4,2,0,25,0,0
152292,-133.333333333333,4,2,0,25,0,0
152317,-1000,4,2,0,25,0,0
152342,-133.333333333333,4,2,0,25,0,0
152367,-1000,4,2,0,25,0,0
153108,-500,4,2,0,25,0,0
153242,-250,4,2,0,25,0,0
153375,-166.666666666667,4,2,0,25,0,0
153508,-125,4,2,0,25,0,0
153642,-100,4,1,1,40,0,0
178442,-1000,4,1,1,40,0,0
178467,-52.6315789473684,4,2,0,25,0,0
178492,-1000,4,2,0,25,0,0
178517,-55.5555555555556,4,2,0,25,0,0
178542,-1000,4,2,0,25,0,0
178567,-58.8235294117647,4,2,0,25,0,0
178592,-1000,4,2,0,25,0,0
178617,-62.5,4,2,0,25,0,0
178642,-1000,4,2,0,25,0,0
178667,-66.6666666666667,4,2,0,25,0,0
178692,-1000,4,2,0,25,0,0
178717,-71.4285714285714,4,2,0,25,0,0
178742,-1000,4,2,0,25,0,0
178767,-100,4,2,0,25,0,0
204842,-100,4,1,1,40,0,1
228642,-400,4,1,1,40,0,0
229642,-100,4,2,0,25,0,0
229842,-250,4,2,0,25,0,0
230042,-80,4,2,0,25,0,0
230342,-100,4,2,0,25,0,0
230642,-133.333333333333,4,2,0,25,0,0

[HitObjects]
64,192,42,1,0,0:0:0:0:
448,192,242,1,0,0:0:0:0:
192,192,442,1,0,0:0:0:0:
64,192,642,1,0,0:0:0:0:
448,192,742,1,0,0:0:0:0:
192,192,942,1,0,0:0:0:0:
320,192,1042,1,0,0:0:0:0:
64,192,1242,128,0,1642:0:0:0:0:
448,192,1642,128,0,1842:0:0:0:0:
192,192,1842,1,0,0:0:0:0:
320,192,2042,1,0,0:0:0:0:
448,192,2242,1,0,0:0:0:0:
64,192,2342,1,0,0:0:0:0:
192,192,2542,1,0,0:0:0:0:
448,192,2842,1,0,0:0:0:0:
192,192,3042,1,0,0:0:0:0:
320,192,3242,1,0,0:0:0:0:
64,192,3442,1,0,0:0:0:0:
192,192,3642,1,0,0:0:0:0:
320,192,3842,1,0,0:0:0:0:
448,192,3942,1,0,0:0:0:0:
192,192,4142,1,0,0:0:0:0:
320,192,4242,1,0,0:0:0:0:
64,192,4442,128,0,4842:0:0:0:0:
448,192,4842,128,0,5042:0:0:0:0:
192,192,5042,1,0,0:0:0:0:
320,192,5242,1,0,0:0:0:0:
448,192,5442,1,0,0:0:0:0:
64,192,5542,1,0,0:0:0:0:
192,192,5742,1,0,0:0:0:0:
448,192,6042,1,0,0:0:0:0:
192,192,6242,1,0,0:0:0:0:
320,192,6442,1,0,0:0:0:0:
64,192,6642,1,0,0:0:0:0:
320,192,6842,1,0,0:0:0:0:
192,192,7042,1,0,0:0:0:0:
448,192,7142,1,0,0:0:0:0:
64,192,7342,1,0,0:0:0:0:
320,192,7442,1,0,0:0:0:0:
192,192,7642,128,0,8042:0:0:0:0:
320,192,8042,128,0,8242:0:0:0:0:
64,192,8242,1,0,0:0:0:0:
192,192,8442,1,0,0:0:0:0:
320,192,8642,1,0,0:0:0:0:
64,192,8742,1,0,0:0:0:0:
448,192,8942,1,0,0:0:0:0:
448,192,9242,1,0,0:0:0:0:
192,192,9442,1,0,0:0:0:0:
448,192,9642,1,0,0:0:0:0:
64,192,9842,1,0,0:0:0:0:
192,192,10042,1,0,0:0:0:0:
320,192,10242,1,0,0:0:0:0:
64,192,10342,1,0,0:0:0:0:
448,192,10542,1,0,0:0:0:0:
192,192,10642,1,0,0:0:0:0:
320,192,10842,128,0,11242:0:0:0:0:
64,192,11242,5,0,0:0:0:70:normal-hitfinish.wav
448,192,11242,1,0,0:0:0:70:normal-hitfinish.wav
64,192,12842,1,4,0:0:0:40:
448,192,12842,1,4,0:0:0:40:
448,192,13242,1,2,0:0:0:40:
320,192,13242,1,2,0:0:0:40:
64,192,13442,1,4,0:0:0:40:
192,192,13642,1,0,0:0:0:40:
320,192,13842,1,0,0:0:0:40:
64,192,14042,1,2,0:0:0:40:
192,192,14042,1,2,0:0:0:40:
64,192,14242,1,0,0:0:0:40:
320,192,14442,1,4,0:0:0:40:
320,192,14842,1,2,0:0:0:40:
192,192,14842,1,2,0:0:0:40:
64,192,15042,1,4,0:0:0:40:
320,192,15242,1,0,0:0:0:40:
192,192,15442,1,0,0:0:0:40:
320,192,15642,1,2,0:0:0:40:
448,192,15642,1,2,0:0:0:40:
448,192,15842,1,0,0:0:0:40:
64,192,16042,1,4,0:0:0:40:
192,192,16442,1,2,0:0:0:40:
448,192,16442,1,2,0:0:0:40:
320,192,16642,1,4,0:0:0:40:
64,192,16842,1,0,0:0:0:40:
192,192,17042,1,0,0:0:0:40:
320,192,17242,1,2,0:0:0:40:
448,192,17242,1,2,0:0:0:40:
320,192,17442,1,0,0:0:0:40:
64,192,17642,1,4,0:0:0:40:
448,192,18042,1,2,0:0:0:40:
320,192,18042,1,2,0:0:0:40:
192,192,18242,1,4,0:0:0:40:
448,192,18442,1,0,0:0:0:40:
320,192,18542,1,2,0:0:0:40:
64,192,18642,1,4,0:0:0:40:
192,192,18742,1,4,0:0:0:40:
448,192,18842,1,2,0:0:0:70:drum-hitwhistle.wav
320,192,18842,1,2,0:0:0:70:drum-hitwhistle.wav
448,192,19042,1,0,0:0:0:40:
64,192,19242,1,4,0:0:0:40:
320,192,19642,1,2,0:0:0:40:
448,192,19642,1,2,0:0:0:40:
192,192,19842,1,4,0:0:0:40:
320,192,20042,1,0,0:0:0:40:
192,192,20242,1,0,0:0:0:40:
448,192,20442,1,2,0:0:0:40:
64,192,20442,1,2,0:0:0:40:
64,192,20642,1,0,0:0:0:40:
320,192,20842,1,4,0:0:0:40:
320,192,21242,1,2,0:0:0:40:
448,192,21242,1,2,0:0:0:40:
64,192,21442,1,4,0:0:0:40:
320,192,21642,1,0,0:0:0:40:
192,192,21842,1,0,0:0:0:40:
448,192,22042,1,2,0:0:0:40:
320,192,22042,1,2,0:0:0:40:
448,192,22242,1,0,0:0:0:40:
192,192,22442,1,4,0:0:0:40:
448,192,22842,1,2,0:0:0:40:
64,192,22842,1,2,0:0:0:40:
320,192,23042,1,4,0:0:0:40:
192,192,23242,1,0,0:0:0:40:
448,192,23442,1,0,0:0:0:40:
192,192,23642,1,2,0:0:0:40:
64,192,23642,1,2,0:0:0:40:
64,192,23842,1,0,0:0:0:40:
448,192,24042,1,4,0:0:0:40:
320,192,24442,1,2,0:0:0:40:
64,192,24442,1,2,0:0:0:40:
448,192,24642,1,4,0:0:0:40:
320,192,24842,128,0,25242:0:0:0:40:
448,192,25242,1,2,0:0:0:40:
64,192,25242,128,2,25442:0:0:0:40:
192,192,25442,1,0,0:0:0:0:
320,192,25542,1,2,0:0:0:40:
448,192,25642,128,4,26242:0:0:0:40:
64,192,26042,1,2,0:0:0:40:
192,192,26042,1,2,0:0:0:40:
320,192,26242,1,4,0:0:0:40:
64,192,26642,1,4,0:0:0:40:
192,192,26742,1,4,0:0:0:40:
320,192,26842,1,2,0:0:0:40:
320,192,27042,1,4,0:0:0:40:
448,192,27242,128,4,27842:0:0:0:40:
64,192,27642,1,2,0:0:0:40:
192,192,27642,1,2,0:0:0:40:
320,192,27842,1,4,0:0:0:40:
192,192,28242,1,4,0:0:0:40:
320,192,28342,1,4,0:0:0:40:
448,192,28442,1,2,0:0:0:40:
448,192,28642,1,4,0:0:0:40:
64,192,28842,128,4,29442:0:0:0:40:
192,192,29242,1,2,0:0:0:40:
320,192,29242,1,2,0:0:0:40:
448,192,29442,1,4,0:0:0:40:
320,192,29842,1,4,0:0:0:40:
192,192,29942,1,4,0:0:0:40:
64,192,30042,1,2,0:0:0:40:
64,192,30242,1,4,0:0:0:40:
448,192,30442,128,4,30842:0:0:0:40:
320,192,30442,1,4,0:0:0:0:
192,192,30842,1,2,0:0:0:40:
64,192,31042,128,4,31442:0:0:0:40:
320,192,31042,1,4,0:0:0:0:
320,192,31442,1,4,0:0:0:40:
192,192,31642,1,2,0:0:0:40:
448,192,31642,1,2,0:0:0:40:
64,192,31842,1,0,0:0:0:0:
192,192,31942,1,2,0:0:0:40:
448,192,32042,128,4,32642:0:0:0:40:
320,192,32442,1,2,0:0:0:40:
192,192,32442,1,2,0:0:0:40:
64,192,32642,1,4,0:0:0:40:
192,192,33042,1,4,0:0:0:40:
320,192,33142,1,4,0:0:0:40:
448,192,33242,1,2,0:0:0:70:normal-hitwhistle.wav
448,192,33442,1,4,0:0:0:40:
192,192,33642,128,4,34242:0:0:0:40:
64,192,34042,1,2,0:0:0:40:
320,192,34042,1,2,0:0:0:40:
448,192,34242,1,4,0:0:0:40:
192,192,34642,1,4,0:0:0:40:
320,192,34742,1,4,0:0:0:40:
64,192,34842,1,2,0:0:0:40:
64,192,35042,1,4,0:0:0:40:
448,192,35242,128,4,35842:0:0:0:40:
192,192,35642,1,2,0:0:0:40:
64,192,35642,1,2,0:0:0:40:
320,192,35842,1,4,0:0:0:40:
64,192,36242,1,4,0:0:0:40:
192,192,36342,1,4,0:0:0:40:
448,192,36442,1,2,0:0:0:40:
448,192,36642,1,4,0:0:0:40:
192,192,36842,128,4,37242:0:0:0:40:
448,192,37042,1,0,0:0:0:40:
64,192,37242,128,4,37642:0:0:0:40:
320,192,37442,1,0,0:0:0:40:
448,192,37642,128,4,38042:0:0:0:40:
192,192,37842,1,0,0:0:0:40:
320,192,38042,128,4,38442:0:0:0:40:
64,192,38242,1,0,0:0:0:40:
448,192,38442,128,4,39042:0:0:0:40:
64,192,38842,1,2,0:0:0:40:
192,192,38842,1,2,0:0:0:40:
320,192,39042,1,4,0:0:0:40:
448,192,39442,1,4,0:0:0:40:
192,192,39542,1,4,0:0:0:40:
320,192,39642,1,2,0:0:0:40:
320,192,39842,1,4,0:0:0:40:
64,192,40042,128,4,40642:0:0:0:40:
448,192,40442,1,2,0:0:0:40:
320,192,40442,1,2,0:0:0:40:
192,192,40642,1,4,0:0:0:40:
448,192,41042,1,4,0:0:0:40:
320,192,41142,1,4,0:0:0:40:
64,192,41242,1,2,0:0:0:40:
64,192,41442,1,4,0:0:0:40:
192,192,41642,128,4,42242:0:0:0:40:
320,192,42042,1,2,0:0:0:40:
448,192,42042,1,2,0:0:0:40:
64,192,42242,1,4,0:0:0:40:
320,192,42642,1,4,0:0:0:40:
448,192,42742,1,4,0:0:0:40:
64,192,42842,1,2,0:0:0:40:
64,192,43042,1,4,0:0:0:40:
320,192,43242,128,4,43642:0:0:0:40:
448,192,43242,1,4,0:0:0:0:
192,192,43642,1,2,0:0:0:40:
448,192,43842,128,4,44242:0:0:0:40:
64,192,43842,1,0,0:0:0:0:
320,192,44242,1,4,0:0:0:40:
448,192,44442,1,2,0:0:0:40:
192,192,44442,1,2,0:0:0:40:
64,192,44642,1,4,0:0:0:40:
320,192,44742,1,2,0:0:0:40:
448,192,44842,128,4,45442:0:0:0:40:
64,192,45242,1,2,0:0:0:40:
192,192,45242,1,2,0:0:0:40:
320,192,45442,1,4,0:0:0:40:
64,192,45842,1,4,0:0:0:40:
192,192,45942,1,4,0:0:0:40:
320,192,46042,1,2,0:0:0:40:
320,192,46242,1,4,0:0:0:40:
448,192,46442,128,4,47042:0:0:0:40:
64,192,46842,1,2,0:0:0:40:
320,192,46842,1,2,0:0:0:40:
192,192,47042,1,4,0:0:0:40:
320,192,47442,1,4,0:0:0:40:
64,192,47542,1,4,0:0:0:40:
448,192,47642,1,2,0:0:0:40:
448,192,47842,1,4,0:0:0:40:
192,192,48042,128,4,48642:0:0:0:40:
64,192,48442,1,2,0:0:0:40:
320,192,48442,1,2,0:0:0:40:
448,192,48642,1,4,0:0:0:40:
64,192,49042,1,4,0:0:0:40:
192,192,49142,1,4,0:0:0:40:
320,192,49242,1,2,0:0:0:40:
320,192,49442,1,4,1:0:0:40:
64,192,51242,128,4,51642:0:0:0:40:
448,192,51642,1,8,0:0:0:40:
320,192,51642,1,8,0:0:0:40:
192,192,51842,1,4,0:0:0:40:
64,192,52442,1,8,0:0:0:40:
320,192,52442,1,8,0:0:0:40:
448,192,52842,1,4,0:0:0:40:
64,192,53242,1,8,0:0:0:40:
192,192,53242,1,8,0:0:0:40:
320,192,53442,1,4,0:0:0:40:
192,192,54042,1,8,0:0:0:40:
448,192,54042,1,8,0:0:0:40:
320,192,54442,128,4,54842:0:0:0:40:
64,192,54842,1,8,0:0:0:40:
448,192,54842,1,8,0:0:0:40:
192,192,55042,1,4,0:0:0:40:
64,192,55642,1,8,0:0:0:40:
320,192,55642,1,8,0:0:0:40:
448,192,56042,1,4,0:0:0:40:
320,192,56242,1,0,0:0:0:40:
320,192,56442,1,8,0:0:0:40:
64,192,56442,1,8,0:0:0:40:
64,192,56642,1,4,0:0:0:40:
448,192,56842,1,0,0:0:0:40:
448,192,57042,1,0,0:0:0:40:
320,192,57242,1,8,0:0:0:40:
64,192,57242,1,8,0:0:0:40:
64,192,57642,128,4,58042:0:0:0:40:
192,192,58042,1,8,0:0:0:40:
448,192,58042,1,8,0:0:0:40:
320,192,58242,1,4,0:0:0:40:
192,192,58842,1,8,0:0:0:40:
64,192,58842,1,8,0:0:0:40:
448,192,59242,1,4,0:0:0:40:
192,192,59642,1,8,0:0:0:40:
320,192,59642,1,8,0:0:0:40:
64,192,59842,1,4,0:0:0:40:
320,192,60442,1,8,0:0:0:40:
448,192,60442,1,8,0:0:0:40:
192,192,60842,128,4,61242:0:0:0:40:
320,192,61242,1,8,0:0:0:40:
64,192,61242,1,8,0:0:0:40:
448,192,61442,1,4,0:0:0:40:
192,192,62042,1,8,0:0:0:40:
320,192,62042,1,8,0:0:0:40:
192,192,62442,1,4,0:0:0:40:
320,192,62642,1,0,0:0:0:40:
320,192,62842,1,8,0:0:0:40:
64,192,62842,1,8,0:0:0:40:
192,192,63042,1,4,0:0:0:40:
192,192,63242,1,0,0:0:0:40:
448,192,63442,1,0,0:0:0:40:
448,192,63642,1,8,0:0:0:40:
64,192,63642,1,8,0:0:0:40:
64,192,64042,128,4,64442:0:0:0:40:
448,192,64442,1,8,0:0:0:40:
192,192,64442,1,8,0:0:0:40:
320,192,64642,1,4,0:0:0:40:
64,192,65242,1,8,0:0:0:40:
448,192,65242,1,8,0:0:0:40:
192,192,65642,1,4,0:0:0:40:
320,192,66042,1,8,0:0:0:40:
64,192,66042,1,8,0:0:0:40:
448,192,66242,1,4,0:0:0:40:
320,192,66842,1,8,0:0:0:40:
192,192,66842,1,8,0:0:0:40:
64,192,67242,128,4,67642:0:0:0:40:
448,192,67642,1,8,0:0:0:40:
320,192,67642,1,8,0:0:0:40:
192,192,67842,1,4,0:0:0:40:
64,192,68442,1,8,0:0:0:40:
448,192,68442,1,8,0:0:0:40:
192,192,68842,1,4,0:0:0:40:
192,192,69042,1,0,0:0:0:40:
320,192,69242,1,8,0:0:0:40:
448,192,69242,1,8,0:0:0:40:
320,192,69442,1,4,0:0:0:40:
64,192,69642,1,0,0:0:0:40:
64,192,69842,1,0,0:0:0:40:
448,192,70042,1,8,0:0:0:40:
192,192,70042,1,8,0:0:0:40:
320,192,70442,128,4,70842:0:0:0:40:
64,192,70842,1,8,0:0:0:40:
448,192,70842,1,8,0:0:0:40:
192,192,71042,1,4,0:0:0:40:
320,192,71642,1,8,0:0:0:40:
448,192,71642,1,8,0:0:0:40:
64,192,72042,1,4,0:0:0:40:
192,192,72442,1,8,0:0:0:40:
320,192,72442,1,8,0:0:0:40:
448,192,72642,1,4,0:0:0:40:
64,192,73242,1,8,0:0:0:40:
320,192,73242,1,8,0:0:0:40:
192,192,73642,128,4,74042:0:0:0:40:
448,192,74042,1,8,0:0:0:40:
320,192,74042,1,8,0:0:0:40:
64,192,74242,1,4,0:0:0:40:
192,192,74842,1,8,0:0:0:40:
320,192,74842,1,8,0:0:0:40:
448,192,75242,1,4,0:0:0:40:
64,192,76442,1,8,0:0:0:40:
448,192,76442,1,8,0:0:0:40:
192,192,76842,128,4,77442:0:0:0:40:
320,192,76842,1,0,0:0:0:0:
320,192,77242,1,2,0:0:0:40:
448,192,77242,1,2,0:0:0:40:
64,192,77442,1,4,0:0:0:40:
448,192,77842,1,4,0:0:0:40:
320,192,77942,1,4,0:0:0:40:
192,192,78042,1,2,0:0:0:40:
192,192,78242,1,4,0:0:0:40:
64,192,78442,128,4,79042:0:0:0:40:
320,192,78842,1,2,0:0:0:40:
448,192,78842,1,2,0:0:0:40:
192,192,79042,1,4,0:0:0:40:
320,192,79442,1,4,0:0:0:40:
448,192,79542,1,4,0:0:0:40:
192,192,79642,1,2,0:0:0:40:
192,192,79842,1,4,0:0:0:40:
320,192,80042,128,4,80642:0:0:0:40:
64,192,80442,1,2,0:0:0:40:
448,192,80442,1,2,0:0:0:40:
192,192,80642,1,4,0:0:0:40:
64,192,81042,1,4,0:0:0:40:
320,192,81142,1,4,0:0:0:40:
448,192,81242,1,2,0:0:0:40:
448,192,81442,1,4,0:0:0:40:
320,192,81642,128,0,82042:0:0:0:40:
192,192,82042,1,2,0:0:0:40:
448,192,82242,1,0,0:0:0:40:
64,192,82242,128,0,82642:0:0:0:0:
192,192,82642,1,4,0:0:0:40:
64,192,82842,1,2,0:0:0:40:
320,192,82842,1,2,0:0:0:40:
448,192,83042,1,4,0:0:0:40:
192,192,83142,1,2,0:0:0:40:
448,192,83242,128,4,83842:0:0:0:40:
64,192,83642,1,2,0:0:0:40:
192,192,83642,1,2,0:0:0:40:
320,192,83842,1,4,0:0:0:40:
64,192,84242,1,4,0:0:0:40:
192,192,84342,1,4,0:0:0:40:
320,192,84442,1,2,0:0:0:40:
320,192,84642,1,4,0:0:0:40:
192,192,84842,128,4,85442:0:0:0:40:
448,192,85242,1,2,0:0:0:40:
64,192,85242,1,2,0:0:0:40:
320,192,85442,1,4,0:0:0:40:
448,192,85842,1,4,0:0:0:40:
320,192,85942,1,4,0:0:0:40:
192,192,86042,1,2,0:0:0:40:
192,192,86242,1,4,0:0:0:40:
64,192,86442,128,4,87042:0:0:0:40:
320,192,86842,1,2,0:0:0:40:
448,192,86842,1,2,0:0:0:40:
192,192,87042,1,4,0:0:0:40:
448,192,87442,1,4,0:0:0:40:
320,192,87542,1,4,0:0:0:40:
192,192,87642,1,2,0:0:0:40:
192,192,87842,1,4,0:0:0:40:
448,192,88042,128,0,88442:0:0:0:40:
192,192,88242,1,0,0:0:0:40:
320,192,88442,128,0,88842:0:0:0:40:
64,192,88642,1,0,0:0:0:40:
192,192,88842,128,0,89242:0:0:0:40:
448,192,89042,1,0,0:0:0:40:
64,192,89242,128,0,89642:0:0:0:40:
320,192,89442,1,0,0:0:0:40:
192,192,89642,128,4,90242:0:0:0:40:
64,192,90042,1,2,0:0:0:40:
320,192,90042,1,2,0:0:0:40:
448,192,90242,1,4,0:0:0:40:
320,192,90642,1,4,0:0:0:40:
192,192,90742,1,4,0:0:0:40:
64,192,90842,1,2,0:0:0:40:
64,192,91042,1,4,0:0:0:40:
448,192,91242,128,4,91842:0:0:0:40:
192,192,91642,1,2,0:0:0:40:
320,192,91642,1,2,0:0:0:40:
64,192,91842,1,4,0:0:0:40:
192,192,92242,1,4,0:0:0:40:
448,192,92342,1,4,0:0:0:40:
320,192,92442,1,2,0:0:0:40:
320,192,92642,1,4,0:0:0:40:
64,192,92842,128,4,93442:0:0:0:40:
192,192,93242,1,2,0:0:0:40:
320,192,93242,1,2,0:0:0:40:
448,192,93442,1,4,0:0:0:40:
192,192,93842,1,4,0:0:0:40:
320,192,93942,1,4,0:0:0:40:
64,192,94042,1,2,0:0:0:40:
64,192,94242,1,4,0:0:0:40:
448,192,94442,128,0,94842:0:0:0:40:
192,192,94842,1,2,0:0:0:40:
64,192,95042,128,0,95442:0:0:0:40:
320,192,95042,1,0,0:0:0:0:
192,192,95442,1,4,0:0:0:40:
64,192,95642,1,2,0:0:0:40:
320,192,95642,1,2,0:0:0:40:
448,192,95842,1,4,0:0:0:40:
192,192,95942,1,2,0:0:0:40:
64,192,96042,128,4,96642:0:0:0:40:
320,192,96442,1,2,0:0:0:40:
448,192,96442,1,2,0:0:0:40:
192,192,96642,1,4,0:0:0:40:
64,192,97042,1,4,0:0:0:40:
448,192,97142,1,4,0:0:0:40:
320,192,97242,1,2,0:0:0:40:
320,192,97442,1,4,0:0:0:40:
192,192,97642,128,4,98242:0:0:0:40:
64,192,98042,1,2,0:0:0:40:
320,192,98042,1,2,0:0:0:40:
448,192,98242,1,4,0:0:0:40:
320,192,98642,1,4,0:0:0:40:
192,192,98742,1,4,0:0:0:40:
64,192,98842,1,2,0:0:0:40:
64,192,99042,1,4,0:0:0:40:
448,192,99242,128,4,99842:0:0:0:40:
192,192,99642,1,2,0:0:0:40:
320,192,99642,1,2,0:0:0:40:
64,192,99842,1,4,0:0:0:40:
192,192,100242,1,4,0:0:0:40:
320,192,100342,1,4,0:0:0:40:
448,192,100442,1,2,0:0:0:40:
448,192,100642,1,4,0:0:0:40:
64,192,102442,128,4,102842:0:0:0:40:
320,192,102842,1,8,0:0:0:40:
448,192,102842,1,8,0:0:0:40:
192,192,103042,1,4,0:0:0:40:
64,192,103642,1,8,0:0:0:40:
320,192,103642,1,8,0:0:0:40:
448,192,104042,1,4,0:0:0:40:
64,192,104442,1,8,0:0:0:40:
192,192,104442,1,8,0:0:0:40:
320,192,104642,1,4,0:0:0:40:
64,192,105242,1,8,0:0:0:40:
448,192,105242,1,8,0:0:0:40:
192,192,105642,128,4,106042:0:0:0:40:
320,192,106042,1,8,0:0:0:40:
448,192,106042,1,8,0:0:0:40:
64,192,106242,1,4,0:0:0:40:
192,192,106842,1,8,0:0:0:40:
320,192,106842,1,8,0:0:0:40:
448,192,107242,1,4,0:0:0:40:
64,192,107442,1,0,0:0:0:40:
64,192,107642,1,8,0:0:0:40:
320,192,107642,1,8,0:0:0:40:
320,192,107842,1,4,0:0:0:40:
192,192,108042,1,0,0:0:0:40:
192,192,108242,1,0,0:0:0:40:
320,192,108442,1,8,0:0:0:40:
448,192,108442,1,8,0:0:0:40:
320,192,108842,128,4,109242:0:0:0:40:
64,192,109242,1,8,0:0:0:40:
192,192,109242,1,8,0:0:0:40:
448,192,109442,1,4,0:0:0:40:
320,192,110042,1,8,0:0:0:40:
64,192,110042,1,8,0:0:0:40:
192,192,110442,1,4,0:0:0:40:
448,192,110842,1,8,0:0:0:40:
64,192,110842,1,8,0:0:0:40:
320,192,111042,1,4,0:0:0:40:
64,192,111642,1,8,0:0:0:40:
192,192,111642,1,8,0:0:0:40:
448,192,112042,128,4,112442:0:0:0:40:
64,192,112442,1,8,0:0:0:40:
320,192,112442,1,8,0:0:0:40:
192,192,112642,1,4,0:0:0:40:
320,192,113242,1,8,0:0:0:40:
448,192,113242,1,8,0:0:0:40:
64,192,113642,1,4,0:0:0:40:
64,192,113842,1,0,0:0:0:40:
448,192,114042,1,8,0:0:0:40:
320,192,114042,1,8,0:0:0:40:
448,192,114242,1,4,0:0:0:40:
192,192,114442,1,0,0:0:0:40:
192,192,114642,1,0,0:0:0:40:
64,192,114842,1,8,0:0:0:40:
320,192,114842,1,8,0:0:0:40:
448,192,115242,128,4,115642:0:0:0:40:
320,192,115242,1,8,0:0:0:40:
192,192,115642,1,8,0:0:0:40:
64,192,115642,1,8,0:0:0:40:
320,192,115842,1,4,0:0:0:40:
64,192,116442,1,8,0:0:0:40:
448,192,116442,1,8,0:0:0:40:
192,192,116842,1,4,0:0:0:40:
64,192,117242,1,8,0:0:0:40:
448,192,117242,1,8,0:0:0:40:
320,192,117442,1,4,0:0:0:40:
64,192,118042,1,8,0:0:0:40:
192,192,118042,1,8,0:0:0:40:
448,192,118442,128,4,118842:0:0:0:40:
64,192,118842,1,8,0:0:0:40:
320,192,118842,1,8,0:0:0:40:
192,192,119042,1,4,0:0:0:40:
64,192,119642,1,8,0:0:0:40:
448,192,119642,1,8,0:0:0:40:
448,192,120042,1,4,0:0:0:40:
192,192,120242,1,0,0:0:0:40:
192,192,120442,1,8,0:0:0:40:
320,192,120442,1,8,0:0:0:40:
320,192,120642,1,4,0:0:0:40:
64,192,120842,1,0,0:0:0:40:
64,192,121042,1,0,0:0:0:40:
448,192,121242,1,8,0:0:0:40:
320,192,121242,1,8,0:0:0:40:
320,192,121642,128,4,122042:0:0:0:40:
448,192,122042,1,8,0:0:0:40:
64,192,122042,1,8,0:0:0:40:
192,192,122242,1,4,0:0:0:40:
64,192,122842,1,8,0:0:0:40:
448,192,122842,1,8,0:0:0:40:
320,192,123242,1,4,0:0:0:40:
448,192,123642,1,8,0:0:0:40:
192,192,123642,1,8,0:0:0:40:
64,192,123842,1,4,0:0:0:40:
320,192,124442,1,8,0:0:0:40:
448,192,124442,1,8,0:0:0:40:
64,192,124842,128,4,125242:0:0:0:40:
320,192,125242,1,8,0:0:0:40:
448,192,125242,1,8,0:0:0:40:
192,192,125442,1,4,0:0:0:40:
64,192,126042,1,8,0:0:0:40:
320,192,126042,1,8,0:0:0:40:
192,192,126442,1,4,0:0:0:40:
448,192,127642,128,8,128042:0:0:0:40:
192,192,127642,1,8,0:0:0:40:
64,192,127842,128,0,128042:0:0:0:40:
192,192,128042,1,4,0:0:0:100:normal-hitfinish.wav
320,192,128042,1,0,0:0:0:100:drum-hitfinish.wav
192,192,128242,1,0,0:0:0:40:
320,192,128442,1,2,0:0:0:40:
448,192,128442,1,2,0:0:0:40:
64,192,128642,1,4,0:0:0:40:
192,192,128842,1,0,0:0:0:40:
320,192,129042,1,0,0:0:0:40:
448,192,129242,1,2,0:0:0:40:
64,192,129242,1,2,0:0:0:40:
192,192,129342,1,0,0:0:0:40:
320,192,129442,1,0,0:0:0:40:
192,192,129642,1,4,0:0:0:40:
320,192,130042,1,2,0:0:0:40:
448,192,130042,1,2,0:0:0:40:
64,192,130242,1,4,0:0:0:40:
448,192,130442,1,0,0:0:0:40:
192,192,130642,1,0,0:0:0:40:
448,192,130842,1,2,0:0:0:40:
320,192,130842,1,2,0:0:0:40:
192,192,130942,1,0,0:0:0:40:
64,192,131042,1,0,0:0:0:40:
320,192,131242,1,4,0:0:0:40:
192,192,131642,1,2,0:0:0:40:
320,192,131642,1,2,0:0:0:40:
64,192,131842,1,4,0:0:0:40:
192,192,131942,1,0,0:0:0:0:
320,192,132042,1,0,0:0:0:40:
448,192,132242,1,0,0:0:0:40:
64,192,132442,1,2,0:0:0:40:
192,192,132442,1,2,0:0:0:40:
320,192,132542,1,0,0:0:0:40:
192,192,132642,1,0,0:0:0:40:
448,192,132842,1,4,0:0:0:40:
64,192,133042,1,0,0:0:0:0:
192,192,133242,1,2,0:0:0:40:
320,192,133242,1,2,0:0:0:40:
448,192,133442,1,4,0:0:0:40:
64,192,133442,1,0,0:0:0:40:
320,192,133642,1,0,0:0:0:0:
448,192,133642,128,0,134042:0:0:0:0:
192,192,133742,1,0,0:0:0:0:
64,192,133842,1,0,0:0:0:0:
64,192,134042,128,0,134442:0:0:0:0:
320,192,134042,1,0,0:0:0:0:
448,192,134442,1,0,0:0:0:0:
320,192,134642,1,0,0:0:0:40:
448,192,134842,1,2,0:0:0:40:
64,192,134842,1,2,0:0:0:40:
192,192,135042,1,4,0:0:0:40:
320,192,135242,1,0,0:0:0:40:
448,192,135442,1,0,0:0:0:40:
192,192,135642,1,2,0:0:0:40:
64,192,135642,1,2,0:0:0:40:
320,192,135742,1,0,0:0:0:40:
448,192,135842,1,0,0:0:0:40:
192,192,136042,1,4,0:0:0:40:
448,192,136442,1,2,0:0:0:40:
320,192,136442,1,2,0:0:0:40:
64,192,136642,1,4,0:0:0:40:
448,192,136842,1,0,0:0:0:40:
192,192,137042,1,0,0:0:0:40:
64,192,137242,1,2,0:0:0:40:
448,192,137242,1,2,0:0:0:40:
320,192,137342,1,0,0:0:0:40:
192,192,137442,1,0,0:0:0:40:
64,192,137642,1,4,0:0:0:40:
192,192,138042,1,2,0:0:0:40:
448,192,138042,1,2,0:0:0:40:
320,192,138242,1,4,0:0:0:40:
448,192,138342,1,0,0:0:0:0:
64,192,138442,1,0,0:0:0:40:
192,192,138642,1,0,0:0:0:40:
320,192,138842,1,2,0:0:0:40:
448,192,138842,1,2,0:0:0:40:
192,192,138942,1,0,0:0:0:40:
64,192,139042,1,0,0:0:0:40:
320,192,139242,1,4,0:0:0:40:
192,192,139442,1,0,0:0:0:0:
448,192,139642,1,2,0:0:0:40:
64,192,139642,1,2,0:0:0:40:
192,192,139842,1,4,0:0:0:40:
448,192,140042,128,0,140442:0:0:0:40:
64,192,140442,128,2,140642:0:0:0:40:
192,192,140642,1,0,0:0:0:0:
320,192,140742,1,0,0:0:0:0:
448,192,140842,1,4,0:0:0:40:
64,192,140842,1,0,0:0:0:0:
192,192,141042,1,0,0:0:0:40:
64,192,141242,1,2,0:0:0:40:
320,192,141242,1,2,0:0:0:40:
448,192,141442,1,4,0:0:0:40:
192,192,141642,1,0,0:0:0:40:
320,192,141842,1,0,0:0:0:40:
64,192,142042,1,2,0:0:0:40:
192,192,142042,1,2,0:0:0:40:
320,192,142142,1,0,0:0:0:40:
448,192,142242,1,0,0:0:0:40:
192,192,142442,1,4,0:0:0:40:
64,192,142842,1,2,0:0:0:40:
192,192,142842,1,2,0:0:0:40:
448,192,143042,1,4,0:0:0:40:
192,192,143242,1,0,0:0:0:40:
320,192,143442,1,0,0:0:0:40:
448,192,143642,1,2,0:0:0:40:
64,192,143642,1,2,0:0:0:40:
192,192,143742,1,0,0:0:0:40:
320,192,143842,1,0,0:0:0:40:
448,192,144042,1,4,0:0:0:40:
320,192,144442,1,2,0:0:0:40:
448,192,144442,1,2,0:0:0:40:
192,192,144642,1,4,0:0:0:40:
320,192,144742,1,0,0:0:0:0:
64,192,144842,1,0,0:0:0:40:
448,192,145042,1,0,0:0:0:40:
192,192,145242,1,2,0:0:0:40:
64,192,145242,1,2,0:0:0:40:
320,192,145342,1,0,0:0:0:40:
448,192,145442,1,0,0:0:0:40:
192,192,145642,1,4,0:0:0:40:
192,192,146042,1,2,0:0:0:40:
320,192,146042,1,2,0:0:0:40:
448,192,146242,1,4,0:0:0:40:
64,192,146442,128,0,146842:0:0:0:0:
192,192,146442,1,0,0:0:0:0:
320,192,146542,1,2,0:0:0:0:
448,192,146642,1,4,0:0:0:0:
192,192,146742,1,4,0:0:0:0:
448,192,146842,128,0,147242:0:0:0:0:
320,192,146842,1,2,0:0:0:0:
64,192,147242,1,4,0:0:0:40:
448,192,147442,1,0,0:0:0:40:
64,192,147642,1,2,0:0:0:40:
320,192,147642,1,2,0:0:0:40:
192,192,147842,1,4,0:0:0:40:
448,192,148042,1,0,0:0:0:40:
320,192,148242,1,0,0:0:0:40:
64,192,148442,1,2,0:0:0:40:
192,192,148442,1,2,0:0:0:40:
320,192,148542,1,0,0:0:0:40:
448,192,148642,1,0,0:0:0:40:
192,192,148842,1,4,0:0:0:40:
448,192,149242,1,2,0:0:0:40:
320,192,149242,1,2,0:0:0:40:
192,192,149442,1,4,0:0:0:40:
64,192,149642,1,0,0:0:0:40:
448,192,149842,1,0,0:0:0:40:
320,192,150042,1,2,0:0:0:40:
192,192,150042,1,2,0:0:0:40:
64,192,150142,1,0,0:0:0:40:
448,192,150242,1,0,0:0:0:40:
192,192,150442,1,4,0:0:0:40:
192,192,150842,1,2,0:0:0:40:
64,192,150842,1,2,0:0:0:40:
448,192,151042,1,4,0:0:0:40:
320,192,151142,1,0,0:0:0:0:
192,192,151242,1,0,0:0:0:40:
320,192,151442,1,0,0:0:0:40:
448,192,151642,1,2,0:0:0:40:
64,192,151642,1,2,0:0:0:40:
320,192,151742,1,0,0:0:0:40:
192,192,151842,1,0,0:0:0:40:
64,192,152042,1,4,0:0:0:40:
448,192,153642,1,4,0:0:0:40:
320,192,153942,1,4,0:0:0:40:
64,192,154242,128,4,154442:0:0:0:40:
448,192,154442,1,2,0:0:0:40:
192,192,154742,1,2,0:0:0:40:
320,192,155042,1,2,0:0:0:40:
64,192,155242,1,4,0:0:0:40:
448,192,155442,128,4,156042:0:0:0:0:
192,192,156042,1,2,0:0:0:40:
320,192,156242,128,4,156442:0:0:0:40:
64,192,156442,1,2,0:0:0:40:
448,192,156642,1,4,0:0:0:40:
192,192,156842,1,4,0:0:0:40:
448,192,157242,128,4,158042:0:0:0:40:
320,192,157242,128,0,157642:0:0:0:0:
192,192,157642,1,2,0:0:0:40:
64,192,158042,128,2,158442:0:0:0:40:
320,192,158242,1,2,0:0:0:40:
192,192,158442,1,4,0:0:0:40:
448,192,158642,1,4,0:0:0:0:
320,192,158842,1,4,0:0:0:0:
192,192,159042,1,4,0:0:0:0:
64,192,159242,1,2,0:0:0:40:
448,192,159242,1,2,0:0:0:40:
320,192,159442,128,4,159642:0:0:0:40:
192,192,159642,1,2,0:0:0:40:
448,192,159642,1,2,0:0:0:40:
64,192,159842,1,4,0:0:0:40:
320,192,160042,1,2,0:0:0:40:
448,192,160042,1,4,2:0:0:0:
448,192,160642,128,4,160842:0:0:0:40:
64,192,160842,1,2,0:0:0:40:
192,192,160842,1,2,0:0:0:40:
320,192,161242,1,4,0:0:0:40:
192,192,161342,1,4,0:0:0:40:
64,192,161442,1,2,0:0:0:40:
448,192,161442,1,2,0:0:0:40:
192,192,161842,1,4,0:0:0:40:
320,192,161942,1,4,0:0:0:40:
448,192,162042,1,4,0:0:0:40:
320,192,162242,1,4,0:0:0:40:
192,192,162342,1,4,0:0:0:40:
64,192,162442,1,2,0:0:0:40:
448,192,162642,128,4,162842:0:0:0:40:
192,192,162842,1,2,0:0:0:40:
64,192,163042,1,4,0:0:0:40:
320,192,163242,1,4,0:0:0:40:
448,192,163642,128,0,164042:0:0:0:40:
320,192,164042,128,2,164442:0:0:0:40:
64,192,164042,1,2,0:0:0:40:
64,192,164442,128,2,164842:0:0:0:40:
192,192,164442,1,2,0:0:0:40:
448,192,164842,1,4,0:0:0:40:
320,192,164942,1,4,0:0:0:40:
64,192,165042,1,4,0:0:0:40:
192,192,165142,1,4,0:0:0:40:
320,192,165642,128,0,165942:0:0:0:40:
448,192,165642,128,4,165942:0:0:0:40:
192,192,165942,1,2,0:0:0:0:
64,192,166042,1,2,0:0:0:40:
320,192,166342,1,2,0:0:0:40:
448,192,166642,1,4,0:0:0:40:
64,192,166842,1,4,0:0:0:40:
320,192,167042,128,4,167242:0:0:0:40:
192,192,167242,1,2,0:0:0:40:
448,192,167542,1,6,0:0:0:0:
64,192,167842,1,6,0:0:0:0:
320,192,168042,1,4,0:0:0:0:
64,192,168242,1,4,0:0:0:40:
192,192,168342,1,4,0:0:0:40:
320,192,168442,128,4,168842:0:0:0:40:
448,192,168842,1,2,0:0:0:40:
64,192,169042,128,4,169242:0:0:0:40:
192,192,169242,1,2,0:0:0:40:
448,192,169442,1,4,0:0:0:40:
320,192,169642,1,4,0:0:0:40:
64,192,170042,128,2,170442:0:0:0:40:
320,192,170442,1,2,0:0:0:40:
448,192,170542,1,4,0:0:0:40:
64,192,170642,1,4,0:0:0:40:
192,192,170742,1,4,0:0:0:40:
448,192,170842,128,2,171042:0:0:0:40:
320,192,171042,128,2,171242:0:0:0:40:
192,192,171042,1,2,0:0:0:40:
64,192,171442,128,0,171642:0:0:0:40:
192,192,171642,128,2,171842:0:0:0:40:
448,192,171642,1,2,0:0:0:40:
320,192,171842,128,0,172042:0:0:0:40:
448,192,172042,1,2,0:0:0:40:
64,192,172242,128,4,172442:0:0:0:40:
320,192,172442,1,2,0:0:0:40:
192,192,172642,1,4,0:0:0:40:
448,192,172842,1,4,0:0:0:40:
320,192,172942,1,4,0:0:0:40:
64,192,173042,128,4,173442:0:0:0:40:
192,192,173442,128,4,173642:0:0:0:40:
320,192,173642,1,2,0:0:0:40:
448,192,174042,1,4,0:0:0:40:
320,192,174142,1,4,0:0:0:40:
192,192,174242,1,2,0:0:0:40:
64,192,174642,1,4,0:0:0:40:
448,192,174742,1,4,0:0:0:40:
192,192,174842,1,4,0:0:0:40:
320,192,175042,1,4,0:0:0:40:
448,192,175142,1,4,0:0:0:40:
64,192,175242,1,2,0:0:0:40:
192,192,175342,1,2,0:0:0:40:
448,192,175442,128,4,175642:0:0:0:40:
64,192,175642,128,2,176042:0:0:0:40:
192,192,175642,128,2,175842:0:0:0:0:
320,192,176042,1,4,0:0:0:40:
448,192,176442,128,0,176642:0:0:0:40:
320,192,176642,128,0,176842:0:0:0:0:
64,192,176842,128,0,177042:0:0:0:40:
448,192,176842,1,2,0:0:0:70:
192,192,177042,128,0,177242:0:0:0:40:
320,192,177242,128,0,177442:0:0:0:0:
448,192,177242,1,2,0:0:0:0:
64,192,177442,128,0,177642:0:0:0:0:
448,192,177642,1,2,0:0:0:40:
320,192,177642,1,0,0:0:0:0:
320,192,177842,1,2,0:0:0:40:
192,192,177842,1,0,0:0:0:0:
192,192,178042,1,2,0:0:0:40:
64,192,178042,1,0,0:0:0:0:
64,192,178242,1,2,0:0:0:40:
448,192,178242,1,0,0:0:0:0:
320,192,178442,128,4,178842:0:0:0:40:
192,192,178442,1,0,0:0:0:0:
64,192,178842,1,0,3:0:0:70:normal-hitfinish.wav
448,192,178942,1,0,3:0:0:70:normal-hitfinish.wav
64,192,179042,1,0,0:0:0:70:normal-hitwhistle.wav
192,192,179042,1,0,3:0:0:70:normal-hitwhistle.wav
448,192,179242,1,0,0:0:0:70:drum-hitfinish.wav
320,192,179242,1,0,3:0:0:70:normal-hitfinish.wav
64,192,192042,5,4,0:0:0:40:
448,192,192042,1,4,0:0:0:40:
320,192,192642,1,0,0:0:0:40:
192,192,193642,1,0,0:0:0:40:
64,192,194242,1,0,0:0:0:40:
448,192,195242,1,0,0:0:0:40:
320,192,195842,1,0,0:0:0:40:
192,192,196842,1,0,0:0:0:40:
64,192,197442,1,0,0:0:0:40:
192,192,198442,1,0,0:0:0:40:
320,192,199042,1,0,0:0:0:40:
448,192,200042,1,0,0:0:0:40:
64,192,200642,1,0,0:0:0:40:
192,192,201642,1,0,0:0:0:40:
320,192,202242,1,0,0:0:0:40:
448,192,203242,1,0,0:0:0:40:
64,192,204442,1,8,0:0:0:40:
192,192,204442,1,8,0:0:0:40:
320,192,204842,128,4,205442:0:0:0:40:
64,192,205242,1,2,0:0:0:40:
448,192,205242,1,2,0:0:0:40:
192,192,205442,1,4,0:0:0:40:
64,192,205842,1,4,0:0:0:40:
192,192,205942,1,4,0:0:0:40:
320,192,206042,1,2,0:0:0:40:
320,192,206242,1,4,0:0:0:40:
448,192,206442,128,4,207042:0:0:0:40:
320,192,206842,1,2,0:0:0:40:
64,192,206842,1,2,0:0:0:40:
192,192,207042,1,4,0:0:0:40:
320,192,207442,1,4,0:0:0:40:
192,192,207542,1,4,0:0:0:40:
64,192,207642,1,2,0:0:0:40:
64,192,207842,1,4,0:0:0:40:
448,192,208042,128,4,208642:0:0:0:40:
320,192,208442,1,2,0:0:0:40:
192,192,208442,1,2,0:0:0:40:
64,192,208642,1,4,0:0:0:40:
192,192,209042,1,4,0:0:0:40:
448,192,209142,1,4,0:0:0:40:
320,192,209242,1,2,0:0:0:40:
320,192,209442,1,4,0:0:0:40:
64,192,209642,128,0,210042:0:0:0:40:
192,192,210042,1,2,0:0:0:40:
320,192,210242,1,0,0:0:0:40:
448,192,210242,128,0,210642:0:0:0:0:
320,192,210642,1,4,0:0:0:40:
448,192,210842,1,2,0:0:0:40:
192,192,210842,1,2,0:0:0:40:
64,192,211042,1,4,0:0:0:40:
320,192,211142,1,2,0:0:0:40:
448,192,211242,128,4,211842:0:0:0:40:
192,192,211642,1,2,0:0:0:40:
320,192,211642,1,2,0:0:0:40:
64,192,211842,1,4,0:0:0:40:
192,192,212242,1,4,0:0:0:40:
320,192,212342,1,4,0:0:0:40:
64,192,212442,1,2,0:0:0:40:
64,192,212642,1,4,0:0:0:40:
192,192,212842,128,4,213442:0:0:0:40:
448,192,213242,1,2,0:0:0:40:
320,192,213242,1,2,0:0:0:40:
64,192,213442,1,4,0:0:0:40:
448,192,213842,1,4,0:0:0:40:
320,192,213942,1,4,0:0:0:40:
192,192,214042,1,2,0:0:0:40:
192,192,214242,1,4,0:0:0:40:
64,192,214442,128,4,215042:0:0:0:40:
448,192,214842,1,2,0:0:0:40:
320,192,214842,1,2,0:0:0:40:
192,192,215042,1,4,0:0:0:40:
320,192,215442,1,4,0:0:0:40:
448,192,215542,1,4,0:0:0:40:
192,192,215642,1,2,0:0:0:40:
192,192,215842,1,4,0:0:0:40:
448,192,216042,128,4,216442:0:0:0:40:
192,192,216242,1,0,0:0:0:0:
320,192,216442,128,8,216842:0:0:0:40:
64,192,216642,1,0,0:0:0:0:
192,192,216842,128,8,217242:0:0:0:40:
448,192,217042,1,0,0:0:0:0:
64,192,217242,128,8,217642:0:0:0:40:
320,192,217442,1,0,0:0:0:0:
448,192,217642,128,4,218242:0:0:0:40:
320,192,218042,1,2,0:0:0:40:
192,192,218042,1,2,0:0:0:40:
64,192,218242,1,4,0:0:0:40:
448,192,218642,1,4,0:0:0:40:
192,192,218742,1,4,0:0:0:40:
320,192,218842,1,2,0:0:0:40:
320,192,219042,1,4,0:0:0:40:
64,192,219242,128,4,219842:0:0:0:40:
192,192,219642,1,2,0:0:0:40:
320,192,219642,1,2,0:0:0:40:
448,192,219842,1,4,0:0:0:40:
192,192,220242,1,4,0:0:0:40:
320,192,220342,1,4,0:0:0:40:
448,192,220442,1,2,0:0:0:40:
448,192,220642,1,4,0:0:0:40:
192,192,220842,128,4,221442:0:0:0:40:
320,192,221242,1,2,0:0:0:40:
448,192,221242,1,2,0:0:0:40:
64,192,221442,1,4,0:0:0:40:
448,192,221842,1,4,0:0:0:40:
320,192,221942,1,4,0:0:0:40:
64,192,222042,1,2,0:0:0:40:
64,192,222242,1,4,0:0:0:40:
192,192,222442,128,0,222842:0:0:0:40:
320,192,222842,1,2,0:0:0:40:
64,192,223042,128,0,223442:0:0:0:40:
448,192,223042,1,0,0:0:0:0:
192,192,223442,1,4,0:0:0:40:
64,192,223642,1,2,0:0:0:40:
320,192,223642,1,2,0:0:0:40:
448,192,223842,1,4,0:0:0:40:
192,192,223942,1,2,0:0:0:40:
64,192,224042,128,4,224642:0:0:0:40:
320,192,224442,1,2,0:0:0:40:
448,192,224442,1,2,0:0:0:40:
192,192,224642,1,4,0:0:0:40:
448,192,225042,1,4,0:0:0:40:
320,192,225142,1,4,0:0:0:40:
192,192,225242,1,2,0:0:0:40:
192,192,225442,1,4,0:0:0:40:
448,192,225642,128,4,226242:0:0:0:40:
64,192,226042,1,2,0:0:0:40:
192,192,226042,1,2,0:0:0:40:
320,192,226242,1,4,0:0:0:40:
192,192,226642,1,4,0:0:0:40:
64,192,226742,1,4,0:0:0:40:
320,192,226842,1,2,0:0:0:40:
320,192,227042,1,4,0:0:0:40:
448,192,227242,128,4,227842:0:0:0:40:
64,192,227642,1,2,0:0:0:40:
192,192,227642,1,2,0:0:0:40:
320,192,227842,1,4,0:0:0:40:
64,192,228242,1,4,0:0:0:40:
192,192,228342,1,4,0:0:0:40:
320,192,228442,1,2,0:0:0:40:
320,192,228642,1,4,0:0:0:40:
448,192,230042,128,8,231242:0:0:0:40:
320,192,230042,128,8,230842:0:0:0:40:
64,192,230042,1,4,0:0:0:40:
