osu file format v14

[General]
AudioFilename: audio.mp3
AudioLeadIn: 0
PreviewTime: 78956
Countdown: 0
SampleSet: Soft
StackLeniency: 0.7
Mode: 0
LetterboxInBreaks: 0
WidescreenStoryboard: 0

[Editor]
Bookmarks: 9490,15814,28462,36367,41110,53758,66407,72731,74312,79055,91703,99608,104351,116999,124905,128264,129648
DistanceSpacing: 0.7
BeatDivisor: 8
GridSize: 32
TimelineZoom: 1.5

[Metadata]
Title:SHOTGUN JUGGLE
TitleUnicode:SHOTGUN JUGGLE
Artist:Truxton
ArtistUnicode:Truxton
Creator:Alvieee
Version:Extra
Source:
Tags:
BeatmapID:2026802
BeatmapSetID:968654

[Difficulty]
HPDrainRate:6
CircleSize:4.4
OverallDifficulty:8.3
ApproachRate:9.4
SliderMultiplier:2.29999990463257
SliderTickRate:1

[Events]
//Background and Video events
0,0,"juzbtvrc.png",0,0
//Break Periods
2,67397,71940
//Storyboard Layer 0 (Background)
//Storyboard Layer 1 (Fail)
//Storyboard Layer 2 (Pass)
//Storyboard Layer 3 (Foreground)
//Storyboard Sound Samples

[TimingPoints]
3166,395.256916996047,4,2,1,55,1,0
3363,-100,4,2,1,20,0,0
5735,-114.285714285714,4,2,1,20,0,0
6328,-133.333333333333,4,2,2,20,0,0
9687,-200,4,2,2,20,0,0
11861,-181.818181818182,4,2,2,20,0,0
12652,-153.846153846154,4,2,2,20,0,0
13047,-125,4,2,2,20,0,0
13442,-100,4,2,2,20,0,0
13837,-90.9090909090909,4,2,2,20,0,0
14233,-81.6326530612245,4,2,2,23,0,0
14628,-71.4285714285714,4,2,2,26,0,0
15023,-62.5,4,2,2,29,0,0
15418,-54.6448087431694,4,2,2,32,0,0
15814,-52.6315789473684,4,2,1,50,0,1
26881,-68.9655172413793,4,2,2,50,0,1
26930,-68.9655172413793,4,2,2,5,0,1
27079,-68.9655172413793,4,2,2,50,0,1
27326,-68.9655172413793,4,2,2,5,0,1
27474,-68.9655172413793,4,2,2,50,0,1
27523,-68.9655172413793,4,2,2,5,0,1
27671,-68.9655172413793,4,2,2,50,0,1
27869,-100,4,2,2,50,0,1
28067,-68.9655172413793,4,2,2,50,0,1
28462,-52.6315789473684,4,2,1,50,0,1
36367,-71.4285714285714,4,2,1,50,0,1
36762,-66.6666666666667,4,2,1,50,0,1
37158,-62.5,4,2,1,50,0,1
37948,-58.8235294117647,4,2,1,50,0,1
38343,-55.5555555555556,4,2,1,50,0,1
38739,-52.6315789473684,4,2,1,50,0,1
39529,-71.4285714285714,4,2,2,50,0,1
39579,-71.4285714285714,4,2,2,5,0,1
39727,-71.4285714285714,4,2,2,50,0,1
40171,-71.4285714285714,4,2,2,5,0,1
40320,-71.4285714285714,4,2,2,50,0,1
40962,-71.4285714285714,4,2,2,5,0,1
41011,-71.4285714285714,4,2,2,50,0,1
41061,-71.4285714285714,4,2,2,5,0,1
41110,-86.9565217391304,4,2,1,50,0,0
41901,-80,4,2,1,50,0,0
42592,-80,4,2,1,5,0,0
42691,-80,4,2,1,50,0,0
44173,-80,4,2,1,5,0,0
44272,-80,4,2,1,50,0,0
44964,-80,4,2,1,5,0,0
45063,-80,4,2,1,50,0,0
45754,-80,4,2,1,5,0,0
45853,-80,4,2,1,50,0,0
46347,-80,4,2,1,5,0,0
46446,-80,4,2,1,50,0,0
47335,-80,4,2,1,5,0,0
47434,-80,4,2,1,50,0,0
48126,-80,4,2,1,5,0,0
48225,-80,4,2,1,50,0,0
48916,-80,4,2,1,5,0,0
49015,-80,4,2,1,50,0,0
49509,-80,4,2,1,5,0,0
49608,-80,4,2,1,50,0,0
50498,-80,4,2,1,5,0,0
50596,-80,4,2,1,50,0,0
51288,-80,4,2,1,5,0,0
51387,-80,4,2,1,50,0,0
52079,-80,4,2,1,5,0,0
52177,-80,4,2,2,50,0,0
52820,-80,4,2,2,5,0,0
52968,-80,4,2,2,50,0,0
53610,-80,4,2,2,10,0,0
53660,-80,4,2,2,50,0,0
53709,-80,4,2,2,10,0,0
53758,-100,4,2,1,50,0,0
54351,-80,4,2,1,50,0,0
55241,-80,4,2,1,5,0,0
55339,-80,4,2,1,50,0,0
55833,-80,4,2,1,5,0,0
55932,-80,4,2,1,50,0,0
56822,-80,4,2,1,5,0,0
56920,-80,4,2,1,50,0,0
57612,-80,4,2,1,5,0,0
57711,-80,4,2,1,50,0,0
58403,-80,4,2,1,5,0,0
58501,-80,4,2,1,50,0,0
58996,-80,4,2,1,5,0,0
59094,-80,4,2,1,50,0,0
59984,-80,4,2,1,5,0,0
60082,-80,4,2,1,50,0,0
60774,-80,4,2,1,5,0,0
60873,-80,4,2,1,50,0,0
61565,-80,4,2,1,5,0,0
61664,-80,4,2,1,50,0,0
62158,-80,4,2,1,5,0,0
62256,-80,4,2,1,50,0,0
63146,-80,4,2,1,5,0,0
63245,-80,4,2,1,50,0,0
63936,-80,4,2,1,5,0,0
64035,-80,4,2,1,50,0,0
64727,-80,4,2,1,5,0,0
64826,-80,4,2,2,50,0,0
65468,-80,4,2,2,50,0,0
65616,-80,4,2,2,50,0,0
66258,-80,4,2,2,10,0,0
66308,-80,4,2,2,50,0,0
66357,-80,4,2,2,10,0,0
66407,-100,4,2,1,50,0,0
66456,-100,4,2,1,5,0,0
72731,-100,4,2,2,35,0,0
75498,-95.2380952380952,4,2,2,35,0,0
75893,-83.3333333333333,4,2,2,35,0,0
76288,-71.4285714285714,4,2,2,35,0,0
76683,-62.5,4,2,2,35,0,0
77079,-60.6060606060606,4,2,2,35,0,0
77474,-58.8235294117647,4,2,2,38,0,0
77869,-57.1428571428571,4,2,2,41,0,0
78264,-55.5555555555556,4,2,2,44,0,0
78660,-52.6315789473684,4,2,2,47,0,0
79055,-50,4,2,1,55,0,1
90122,-80,4,2,2,55,0,1
90171,-80,4,2,2,5,0,1
90320,-80,4,2,2,55,0,1
90764,-80,4,2,2,5,0,1
90913,-80,4,2,2,55,0,1
91258,-80,4,2,2,5,0,1
91308,-66.6666666666667,4,2,2,55,0,1
91703,-50,4,2,1,55,0,1
101189,-71.4285714285714,4,2,1,55,0,1
101584,-66.6666666666667,4,2,1,55,0,1
101980,-62.5,4,2,1,55,0,1
102375,-58.8235294117647,4,2,1,55,0,1
102770,-58.8235294117647,4,2,2,55,0,1
102820,-58.8235294117647,4,2,2,5,0,1
102968,-58.8235294117647,4,2,2,55,0,1
103413,-58.8235294117647,4,2,2,5,0,1
103561,-58.8235294117647,4,2,2,55,0,1
103956,-71.4285714285714,4,2,2,55,0,1
104351,-133.333333333333,4,2,1,55,0,0
104747,-133.333333333333,4,2,1,25,0,0
104944,-133.333333333333,4,2,1,35,0,0
105932,-133.333333333333,4,2,1,10,0,0
106130,-133.333333333333,4,2,1,35,0,0
106229,-133.333333333333,4,2,1,5,0,0
106328,-133.333333333333,4,2,1,35,0,0
107019,-133.333333333333,4,2,1,5,0,0
107118,-133.333333333333,4,2,1,35,0,0
107415,-133.333333333333,4,2,1,5,0,0
107513,-133.333333333333,4,2,1,35,0,0
107909,-133.333333333333,4,2,1,25,0,0
108106,-133.333333333333,4,2,1,35,0,0
109094,-133.333333333333,4,2,1,5,0,0
109292,-133.333333333333,4,2,1,35,0,0
109391,-133.333333333333,4,2,1,5,0,0
109490,-133.333333333333,4,2,1,35,0,0
110181,-133.333333333333,4,2,1,5,0,0
110280,-133.333333333333,4,2,1,35,0,0
110577,-133.333333333333,4,2,1,5,0,0
110675,-133.333333333333,4,2,1,35,0,0
111071,-133.333333333333,4,2,1,25,0,0
111268,-133.333333333333,4,2,1,35,0,0
112256,-133.333333333333,4,2,1,5,0,0
112454,-133.333333333333,4,2,1,35,0,0
112553,-133.333333333333,4,2,1,5,0,0
112652,-133.333333333333,4,2,1,35,0,0
113343,-133.333333333333,4,2,1,5,0,0
113442,-133.333333333333,4,2,1,35,0,0
113739,-133.333333333333,4,2,1,5,0,0
113837,-133.333333333333,4,2,1,35,0,0
114233,-133.333333333333,4,2,1,25,0,0
114430,-133.333333333333,4,2,1,35,0,0
115320,-133.333333333333,4,2,1,5,0,0
115418,-133.333333333333,4,2,2,35,0,0
115468,-133.333333333333,4,2,2,5,0,0
115616,-133.333333333333,4,2,2,35,0,0
116061,-133.333333333333,4,2,2,5,0,0
116209,-133.333333333333,4,2,2,35,0,0
116999,-133.333333333333,4,2,1,35,0,0
117395,-133.333333333333,4,2,1,25,0,0
117592,-133.333333333333,4,2,1,35,0,0
118581,-133.333333333333,4,2,1,5,0,0
118778,-133.333333333333,4,2,1,35,0,0
118877,-133.333333333333,4,2,1,5,0,0
118976,-133.333333333333,4,2,1,35,0,0
119667,-133.333333333333,4,2,1,5,0,0
119766,-133.333333333333,4,2,1,35,0,0
120063,-133.333333333333,4,2,1,5,0,0
120162,-133.333333333333,4,2,1,35,0,0
120557,-133.333333333333,4,2,1,25,0,0
120754,-133.333333333333,4,2,1,35,0,0
121743,-133.333333333333,4,2,1,5,0,0
121940,-133.333333333333,4,2,1,35,0,0
122039,-133.333333333333,4,2,1,5,0,0
122138,-133.333333333333,4,2,1,35,0,0
122830,-133.333333333333,4,2,1,5,0,0
122928,-133.333333333333,4,2,1,35,0,0
123225,-133.333333333333,4,2,1,5,0,0
123324,-133.333333333333,4,2,1,35,0,0
123719,-133.333333333333,4,2,1,25,0,0
123916,-133.333333333333,4,2,1,35,0,0
124905,-133.333333333333,4,2,1,5,0,0
125102,-133.333333333333,4,2,1,35,0,0
125201,-133.333333333333,4,2,1,5,0,0
125300,-133.333333333333,4,2,1,35,0,0
125992,-133.333333333333,4,2,1,5,0,0
126090,-133.333333333333,4,2,1,35,0,0
126387,-133.333333333333,4,2,1,5,0,0
126486,-133.333333333333,4,2,1,35,0,0
126881,-111.111111111111,4,2,1,35,0,0
127276,-90.9090909090909,4,2,1,35,0,0
127671,-83.3333333333333,4,2,1,35,0,0
128067,-75.187969924812,4,2,2,38,0,0
128462,-66.6666666666667,4,2,2,41,0,0
128857,-58.8235294117647,4,2,2,44,0,0
129252,-51.8134715025907,4,2,2,47,0,0
129648,-100,4,2,1,50,0,0
130043,-100,4,2,1,5,0,0

[Colours]
Combo1 : 128,128,128
Combo2 : 192,192,192

[HitObjects]
256,64,3165,5,6,0:0:0:0:
160,224,3363,2,0,B|147:230|129:233|129:233|114:231|91:232,1,57.4999976158142
352,224,3660,2,0,B|365:230|383:233|383:233|398:231|421:232,1,57.4999976158142
256,288,3956,5,0,0:0:0:0:
320,128,4154,2,0,B|333:122|351:119|351:119|366:121|389:120,1,57.4999976158142
192,128,4450,2,0,B|179:122|161:119|161:119|146:121|123:120,1,57.4999976158142
256,288,4747,5,0,0:0:0:0:
256,288,4845,1,0,0:0:0:0:
256,32,5043,1,0,0:0:0:0:
256,32,5142,1,0,0:0:0:0:
205,219,5339,1,0,0:0:0:0:
307,219,5537,5,0,0:0:0:0:
128,352,5735,2,0,B|122:339|119:321|119:321|121:306|120:287,1,50.3124983936548
384,352,6031,2,0,B|390:339|393:321|393:321|391:306|390:286,1,50.3124983936548
256,128,6328,5,0,0:0:0:0:
320,32,6525,2,0,B|333:26|345:24|345:24|363:26|383:23,1,43.1249998569489
192,32,6822,2,0,B|179:26|167:24|167:24|149:26|129:23,1,43.1249998569489
384,192,7118,5,0,0:0:0:0:
192,288,7316,2,0,B|179:294|167:296|167:296|149:294|133:295,1,43.1249998569489
320,288,7612,2,0,B|333:294|345:296|345:296|363:294|382:297,1,43.1249998569489
128,192,7909,5,0,0:0:0:0:
128,192,8007,1,0,0:0:0:0:
384,192,8205,1,0,0:0:0:0:
384,192,8303,1,0,0:0:0:0:
256,128,8501,1,0,0:0:0:0:
256,224,8699,5,0,0:0:0:0:
128,192,8897,2,0,B|115:186|103:184|103:184|85:186|66:184,1,43.1249998569489
384,192,9193,2,0,B|397:186|409:184|409:184|427:186|447:183,1,43.1249998569489
128,64,9490,5,8,0:0:0:0:
256,128,9687,1,0,0:0:0:0:
256,128,9786,2,8,L|256:159,1,28.7499988079071
256,32,9984,1,8,0:0:0:0:
256,32,10083,2,0,L|256:1,1,28.7499988079071,8|0,0:0|0:0,0:0:0:0:
256,224,10280,6,0,L|256:256,1,28.7499988079071
384,128,10478,1,8,0:0:0:0:
384,128,10577,2,8,P|395:123|406:121,2,14.3749994039536
384,288,10774,1,0,0:0:0:0:
384,288,10873,2,0,P|398:308|417:321,1,28.7499988079071
128,288,11071,5,0,0:0:0:0:
128,288,11169,1,0,0:0:0:0:
128,288,11268,2,8,P|117:293|103:296,2,19.1666658719381
167,210,11466,6,0,P|166:186|161:162,1,28.7499988079071,8|0,0:0|0:0,0:0:0:0:
158,160,11664,1,8,0:0:0:0:
1,75,11861,6,0,P|30:88|41:90,1,31.6249996538162,8|0,0:0|0:0,0:0:0:0:
58,92,12059,1,8,0:0:0:0:
215,52,12256,6,0,P|230:26|233:11,1,31.6249996538162,8|0,0:0|0:0,0:0:0:0:
238,0,12454,1,8,0:0:0:0:
93,216,12652,6,0,P|102:244|116:266,1,37.3749967393877,8|0,0:0|0:0,0:0:0:0:
130,281,12849,1,0,0:0:0:0:
281,153,13047,6,0,P|248:130|228:122,1,45.9999980926514,8|0,0:0|0:0,0:0:0:0:
196,118,13245,1,8,0:0:0:0:
239,330,13442,6,0,P|281:308|296:288,1,57.4999976158142
315,257,13640,1,0,0:0:0:0:
160,233,13837,6,0,P|200:258|229:262,1,63.2499993076325,8|0,0:0|0:0,0:0:0:0:
289,261,14035,1,8,0:0:0:0:
209,99,14233,6,0,P|207:146|220:175,1,71.8749970197678
264,249,14431,1,8,0:0:0:0:
356,73,14628,6,0,P|313:95|292:125,1,80.4999942054751,8|0,0:0|0:0,0:0:0:0:
254,222,14826,1,0,0:0:0:0:
461,195,15023,6,0,P|420:169|377:163,1,91.9999961853028,8|0,0:0|0:0,0:0:0:0:
262,198,15221,1,8,0:0:0:0:
410,355,15418,6,0,P|411:307|387:256,1,105.224993750353,8|0,0:0|0:0,0:0:0:0:
284,179,15616,1,0,0:0:0:0:
234,384,15814,6,0,P|333:332|366:224,1,218.499985105515,6|0,0:0|0:0,0:0:0:0:
340,129,16110,1,0,0:0:0:0:
417,109,16209,1,8,0:1:0:0:
448,43,16308,1,0,0:0:0:0:
439,0,16407,2,0,P|408:29|423:119,1,109.249992552758,2|0,0:0|0:0,0:0:0:0:
512,193,16604,5,8,0:0:0:0:
462,252,16703,1,0,0:0:0:0:
453,296,16802,1,0,0:0:0:0:
467,335,16901,1,0,0:0:0:0:
491,354,16999,2,0,P|511:287|482:229,1,109.249992552758,10|0,0:1|0:0,0:0:0:0:
366,178,17197,2,0,P|298:204|272:243,1,109.249992552758
218,384,17395,5,0,0:0:0:0:
218,307,17494,1,0,0:0:0:0:
192,265,17592,1,2,0:0:0:0:
154,242,17691,1,0,0:0:0:0:
116,236,17790,2,0,P|62:243|5:294,1,109.249992552758,10|0,0:1|0:0,0:0:0:0:
236,195,17988,2,0,P|299:157|323:104,1,109.249992552758
130,163,18185,5,8,0:0:0:0:
94,94,18284,1,0,0:0:0:0:
95,49,18383,1,2,0:0:0:0:
118,14,18482,1,0,0:0:0:0:
145,0,18580,2,0,P|140:62|99:97,1,109.249992552758,10|0,0:1|0:0,0:0:0:0:
92,225,18778,2,0,P|39:214|1:175,1,109.249992552758
226,131,18976,5,2,0:0:0:0:
251,203,19075,1,0,0:0:0:0:
239,247,19173,2,0,P|210:305|154:333,1,109.249992552758
239,111,19371,5,8,0:1:0:0:
305,149,19470,1,0,0:0:0:0:
329,189,19569,2,0,P|342:240|328:322,1,109.249992552758,2|0,0:0|0:0,0:0:0:0:
488,287,19766,5,8,0:0:0:0:
456,218,19865,1,0,0:0:0:0:
455,174,19963,1,0,0:0:0:0:
471,138,20062,1,0,0:0:0:0:
470,107,20161,2,0,P|433:66|371:49,1,109.249992552758,10|0,0:1|0:0,0:0:0:0:
238,155,20359,2,0,P|309:138|338:101,1,109.249992552758
205,0,20557,5,0,0:0:0:0:
183,26,20656,1,0,0:0:0:0:
168,100,20754,2,0,P|175:154|220:196,1,109.249992552758,2|0,0:0|0:0,0:0:0:0:
442,173,20952,5,10,0:1:0:0:
388,117,21051,1,0,0:0:0:0:
342,105,21150,2,0,P|268:104|232:128,1,109.249992552758
80,301,21347,5,8,0:0:0:0:
131,243,21446,1,0,0:0:0:0:
175,232,21545,1,2,0:0:0:0:
221,236,21644,1,0,0:0:0:0:
260,259,21743,2,0,P|323:279|380:253,1,109.249992552758,10|0,0:1|0:0,0:0:0:0:
512,165,21940,2,0,P|454:171|409:209,1,109.249992552758
397,384,22138,5,2,0:0:0:0:
440,320,22237,1,0,0:0:0:0:
447,271,22335,1,0,0:0:0:0:
430,228,22434,1,0,0:0:0:0:
404,200,22533,2,0,P|376:119|391:75,1,109.249992552758,8|0,0:1|0:0,0:0:0:0:
512,0,22731,2,0,P|439:35|392:26,1,109.249992552758,2|0,0:0|0:0,0:0:0:0:
204,0,22928,5,8,0:0:0:0:
161,64,23027,1,0,0:0:0:0:
154,108,23125,1,0,0:0:0:0:
166,145,23224,1,0,0:0:0:0:
188,170,23323,2,0,P|216:251|201:295,1,109.249992552758,10|0,0:1|0:0,0:0:0:0:
270,86,23521,2,0,P|339:49|407:54,1,109.249992552758
474,194,23719,5,0,0:0:0:0:
399,211,23818,1,0,0:0:0:0:
350,202,23916,1,2,0:0:0:0:
311,181,24015,1,0,0:0:0:0:
274,174,24114,2,0,P|206:181|154:220,1,109.249992552758,10|0,0:1|0:0,0:0:0:0:
187,384,24312,2,0,P|206:322|196:278,1,109.249992552758
54,95,24509,5,8,0:0:0:0:
71,170,24608,1,0,0:0:0:0:
62,214,24706,1,2,0:0:0:0:
41,249,24805,1,0,0:0:0:0:
34,282,24904,2,0,P|41:350|80:402,1,109.249992552758,10|0,0:1|0:0,0:0:0:0:
243,367,25102,2,0,P|259:298|245:247,1,109.249992552758
130,116,25300,5,2,0:0:0:0:
182,171,25399,1,0,0:0:0:0:
226,185,25498,2,0,P|303:184|343:157,1,109.249992552758
460,69,25695,5,8,0:1:0:0:
408,14,25794,1,0,0:0:0:0:
364,0,25893,2,0,P|287:1|247:28,1,109.249992552758,2|0,0:0|0:0,0:0:0:0:
39,165,26090,5,8,0:0:0:0:
114,149,26189,1,0,0:0:0:0:
158,157,26287,1,0,0:0:0:0:
193,178,26386,1,0,0:0:0:0:
226,185,26485,2,0,P|294:178|339:137,1,109.249992552758,10|0,0:1|0:0,0:0:0:0:
113,251,26683,2,0,P|84:323|95:375,1,109.249992552758
404,384,26881,6,0,L|404:334,1,41.6874995436669,8|0,0:0|0:0,0:0:0:0:
256,64,27079,1,8,0:0:0:0:
256,64,27177,1,8,0:0:0:0:
256,64,27276,2,8,L|256:126,1,41.6874995436669
108,384,27474,2,0,L|108:332,1,41.6874995436669,8|0,0:0|0:0,0:0:0:0:
352,32,27671,5,10,0:0:0:0:
256,352,27869,2,8,L|256:384,2,28.7499988079071
160,32,28067,2,0,B|138:112|138:112|160:192,1,166.749998174667
170,220,28363,1,8,0:0:0:0:
116,308,28462,6,0,B|85:213|85:213|26:182|26:182|1:97,1,218.499985105515,6|0,0:0|0:0,0:0:0:0:
39,46,28758,1,0,0:0:0:0:
79,19,28857,1,8,0:1:0:0:
127,18,28956,1,0,0:0:0:0:
160,32,29055,2,0,P|106:50|67:105,1,109.249992552758,2|0,0:0|0:0,0:0:0:0:
189,294,29252,5,8,0:0:0:0:
239,235,29351,1,0,0:0:0:0:
248,191,29450,1,0,0:0:0:0:
234,152,29549,1,0,0:0:0:0:
210,133,29648,2,0,P|190:200|207:251,1,109.249992552758,10|0,0:1|0:0,0:0:0:0:
340,298,29845,2,0,P|408:272|434:234,1,109.249992552758
294,0,30043,5,0,0:0:0:0:
294,77,30142,1,0,0:0:0:0:
320,119,30240,1,2,0:0:0:0:
358,142,30339,1,0,0:0:0:0:
396,148,30438,2,0,P|450:141|506:91,1,109.249992552758,10|0,0:1|0:0,0:0:0:0:
276,189,30636,2,0,P|213:227|190:274,1,109.249992552758
382,221,30833,5,8,0:0:0:0:
418,290,30932,1,0,0:0:0:0:
417,335,31031,1,2,0:0:0:0:
394,370,31130,1,0,0:0:0:0:
367,384,31229,2,0,P|372:322|415:285,1,109.249992552758,10|0,0:1|0:0,0:0:0:0:
420,159,31426,2,0,P|473:170|511:209,1,109.249992552758
284,221,31624,5,2,0:0:0:0:
259,149,31723,1,0,0:0:0:0:
271,105,31821,2,0,P|300:47|354:19,1,109.249992552758
271,241,32019,5,8,0:1:0:0:
205,203,32118,1,0,0:0:0:0:
181,163,32217,2,0,P|168:112|181:35,1,109.249992552758,2|0,0:0|0:0,0:0:0:0:
24,97,32414,5,8,0:0:0:0:
56,166,32513,1,0,0:0:0:0:
57,210,32611,1,0,0:0:0:0:
41,246,32711,1,0,0:0:0:0:
42,277,32810,2,0,P|79:318|138:332,1,109.249992552758,10|0,0:1|0:0,0:0:0:0:
274,229,33007,2,0,P|203:246|174:277,1,109.249992552758
339,381,33205,5,0,0:0:0:0:
372,317,33304,1,0,0:0:0:0:
376,271,33402,2,0,P|369:217|323:173,1,109.249992552758,2|0,0:0|0:0,0:0:0:0:
80,203,33600,5,10,0:1:0:0:
134,259,33699,1,0,0:0:0:0:
180,271,33798,2,0,P|254:272|290:248,1,109.249992552758
432,83,33995,5,8,0:0:0:0:
381,141,34094,1,0,0:0:0:0:
337,152,34193,1,2,0:0:0:0:
291,148,34292,1,0,0:0:0:0:
252,125,34391,2,0,P|189:105|132:131,1,109.249992552758,10|0,0:1|0:0,0:0:0:0:
0,219,34588,2,0,P|58:213|103:175,1,109.249992552758
115,0,34786,5,2,0:0:0:0:
72,64,34885,1,0,0:0:0:0:
65,113,34983,1,0,0:0:0:0:
82,156,35082,1,0,0:0:0:0:
108,184,35181,2,0,P|136:265|121:309,1,109.249992552758,8|0,0:1|0:0,0:0:0:0:
0,384,35379,2,0,P|73:349|120:358,1,109.249992552758,2|0,0:0|0:0,0:0:0:0:
308,384,35576,5,8,0:0:0:0:
351,320,35675,1,0,0:0:0:0:
358,276,35773,1,0,0:0:0:0:
346,239,35872,1,0,0:0:0:0:
324,214,35972,2,0,P|296:133|310:91,1,109.249992552758,10|0,0:1|0:0,0:0:0:0:
452,0,36169,2,0,P|480:81|469:119,1,109.249992552758
300,112,36367,5,0,0:0:0:0:
330,95,36466,1,0,0:0:0:0:
363,87,36565,2,0,P|424:88|491:117,1,80.4999942054751,2|0,0:0|0:0,0:0:0:0:
230,203,36762,5,10,0:1:0:0:
194,222,36861,1,0,0:0:0:0:
154,230,36960,2,0,P|91:227|42:197,1,86.2499997138978
317,130,37158,5,8,0:0:0:0:
367,143,37257,1,0,0:0:0:0:
406,176,37356,2,0,P|434:225|440:289,1,91.9999961853028,2|0,0:0|0:0,0:0:0:0:
219,187,37553,5,10,0:1:0:0:
169,174,37652,1,0,0:0:0:0:
130,141,37751,2,0,P|102:92|96:28,1,91.9999961853028
319,32,37948,5,2,0:0:0:0:
373,25,38047,1,0,0:0:0:0:
428,19,38146,2,0,L|327:-2,1,97.7499978113175
184,55,38343,5,8,0:1:0:0:
127,47,38442,1,0,0:0:0:0:
70,41,38541,2,0,L|173:19,1,103.499992549897,2|0,0:0|0:0,0:0:0:0:
357,94,38739,5,8,0:0:0:0:
420,85,38838,1,0,0:0:0:0:
484,78,38937,2,0,L|376:55,1,109.249992552758
140,121,39134,5,10,0:1:0:0:
77,112,39233,1,0,0:0:0:0:
13,105,39332,2,0,L|126:79,1,109.249992552758
256,384,39529,6,0,L|256:329,1,40.2499971027375,8|0,0:0|0:0,0:0:0:0:
257,40,39727,2,8,L|257:-2,1,40.2499971027375
257,40,39826,1,8,0:0:0:0:
257,40,39924,1,8,0:0:0:0:
448,320,40122,2,0,L|511:320,1,40.2499971027375,8|0,0:0|0:0,0:0:0:0:
64,320,40320,5,8,0:0:0:0:
472,192,40517,2,8,L|518:192,2,40.2499971027375
40,192,40715,1,8,0:0:0:0:
400,57,40913,6,8,P|385:87|381:104,1,40.2499971027375
361,80,41011,2,8,P|368:117|380:143,1,40.2499971027375
340,120,41110,6,0,B|365:181|432:200|432:200|460:249|435:302|435:302|406:278|364:266|364:266|357:311|386:356,1,396.749991116524,6|2,0:0|0:0,0:0:0:0:
512,384,41901,5,8,0:0:0:0:
290,287,42098,1,0,0:0:0:0:
290,287,42197,2,0,P|306:358|319:379,1,71.8749970197678,0|10,0:0|0:1,0:0:0:0:
241,223,42395,1,0,0:0:0:0:
241,223,42494,2,0,P|207:287|204:312,1,71.8749970197678
100,384,42691,5,0,0:0:0:0:
100,384,42790,2,0,P|84:313|71:292,1,71.8749970197678,0|2,0:0|0:0,0:0:0:0:
15,173,42988,1,0,0:0:0:0:
15,173,43087,2,0,P|3:206|0:242,1,71.8749970197678,10|0,0:1|0:0,0:0:0:0:
0,370,43284,1,0,0:0:0:0:
151,197,43482,5,8,0:0:0:0:
0,82,43679,1,2,0:0:0:0:
0,82,43778,2,0,P|33:93|69:97,1,71.8749970197678,0|10,0:0|0:1,0:0:0:0:
200,0,43976,1,0,0:0:0:0:
200,0,44075,2,0,P|166:11|130:15,1,71.8749970197678
0,0,44272,5,2,0:0:0:0:
196,108,44470,1,0,0:0:0:0:
196,108,44569,2,0,P|184:141|180:177,1,71.8749970197678,0|8,0:0|0:1,0:0:0:0:
309,69,44766,1,0,0:0:0:0:
309,69,44865,2,0,P|293:-2|280:-23,1,71.8749970197678,2|0,0:0|0:0,0:0:0:0:
198,253,45063,5,8,0:0:0:0:
367,135,45260,1,0,0:0:0:0:
367,135,45359,2,0,P|400:123|436:119,1,71.8749970197678,0|10,0:0|0:1,0:0:0:0:
381,253,45557,1,0,0:0:0:0:
381,253,45656,2,0,P|310:237|289:224,1,71.8749970197678
382,65,45853,5,0,0:0:0:0:
382,65,45952,2,0,P|370:98|366:134,1,71.8749970197678,0|2,0:0|0:0,0:0:0:0:
461,276,46150,1,0,0:0:0:0:
461,276,46249,2,0,P|445:205|432:184,1,71.8749970197678,10|0,0:1|0:0,0:0:0:0:
293,109,46446,1,0,0:0:0:0:
512,13,46644,5,8,0:0:0:0:
298,22,46841,1,2,0:0:0:0:
298,22,46940,2,0,P|331:10|367:6,1,71.8749970197678,0|10,0:0|0:1,0:0:0:0:
498,104,47138,1,0,0:0:0:0:
498,104,47237,2,0,P|464:92|428:88,1,71.8749970197678
160,160,47434,5,2,0:0:0:0:
305,233,47632,1,0,0:0:0:0:
321,209,47731,2,0,P|333:176|337:140,1,71.8749970197678,0|8,0:0|0:1,0:0:0:0:
177,296,47929,1,0,0:0:0:0:
182,323,48028,2,0,P|219:385|238:401,1,71.8749970197678,2|0,0:0|0:0,0:0:0:0:
170,83,48225,5,8,0:0:0:0:
271,264,48422,1,0,0:0:0:0:
246,280,48521,2,0,P|213:291|177:295,1,71.8749970197678,0|10,0:0|0:1,0:0:0:0:
51,174,48719,1,0,0:0:0:0:
75,189,48818,2,0,P|109:200|145:204,1,71.8749970197678
278,0,49015,5,0,0:0:0:0:
263,24,49114,2,0,P|252:58|248:94,1,71.8749970197678,0|2,0:0|0:0,0:0:0:0:
116,277,49312,1,0,0:0:0:0:
111,250,49411,2,0,P|74:188|55:172,1,71.8749970197678,10|0,0:1|0:0,0:0:0:0:
0,83,49608,1,0,0:0:0:0:
327,120,49806,5,8,0:0:0:0:
116,277,50003,1,2,0:0:0:0:
101,301,50102,2,0,P|90:335|86:371,1,71.8749970197678,0|10,0:0|0:1,0:0:0:0:
314,346,50300,1,0,0:0:0:0:
309,319,50399,2,0,P|272:257|253:241,1,71.8749970197678
37,220,50596,5,2,0:0:0:0:
366,223,50794,1,0,0:0:0:0:
342,241,50893,2,0,P|309:253|273:257,1,71.8749970197678,0|8,0:0|0:1,0:0:0:0:
89,137,51090,1,0,0:0:0:0:
113,155,51189,2,0,P|146:167|182:171,1,71.8749970197678,2|0,0:0|0:0,0:0:0:0:
400,0,51387,5,8,0:0:0:0:
201,94,51584,1,0,0:0:0:0:
185,70,51683,2,0,P|173:37|169:1,1,71.8749970197678,0|10,0:0|0:1,0:0:0:0:
329,157,51881,1,0,0:0:0:0:
324,184,51980,2,0,P|287:246|268:262,1,71.8749970197678
328,15,52177,5,8,0:0:0:0:
256,320,52375,2,8,L|256:359,1,35.9374985098839
256,320,52474,1,8,0:0:0:0:
256,320,52572,1,8,0:0:0:0:
184,15,52770,2,0,L|184:56,1,35.9374985098839,8|8,0:0|0:0,0:0:0:0:
344,348,52968,5,10,0:0:0:0:
256,0,53165,1,8,0:0:0:0:
168,348,53363,1,8,0:0:0:0:
256,0,53561,6,8,P|260:27|268:46,1,35.9374985098839
255,45,53660,2,8,P|251:72|243:91,1,35.9374985098839
255,91,53758,6,0,B|251:150|291:190|291:190|286:254|231:293|231:293|247:326|272:342|272:342|267:372|250:398,1,344.999985694885,2|2,0:0|0:0,0:0:0:0:
481,384,54549,5,8,0:0:0:0:
364,218,54746,1,0,0:0:0:0:
364,218,54845,2,0,P|380:289|393:310,1,71.8749970197678,0|10,0:0|0:1,0:0:0:0:
297,82,55043,1,0,0:0:0:0:
297,82,55142,2,0,P|263:146|260:171,1,71.8749970197678
412,0,55339,5,0,0:0:0:0:
412,0,55438,2,0,P|428:71|441:92,1,71.8749970197678,0|2,0:0|0:0,0:0:0:0:
497,211,55636,1,0,0:0:0:0:
497,211,55735,2,0,P|509:178|512:142,1,71.8749970197678,10|0,0:1|0:0,0:0:0:0:
512,14,55932,1,0,0:0:0:0:
361,187,56130,5,8,0:0:0:0:
512,302,56327,1,2,0:0:0:0:
512,302,56426,2,0,P|479:291|443:287,1,71.8749970197678,0|10,0:0|0:1,0:0:0:0:
312,384,56624,1,0,0:0:0:0:
312,384,56723,2,0,P|346:373|382:369,1,71.8749970197678
512,384,56920,5,2,0:0:0:0:
316,276,57118,1,0,0:0:0:0:
316,276,57217,2,0,P|328:243|332:207,1,71.8749970197678,0|8,0:0|0:1,0:0:0:0:
203,315,57414,1,0,0:0:0:0:
203,315,57513,2,0,P|219:386|232:407,1,71.8749970197678,2|0,0:0|0:0,0:0:0:0:
314,131,57711,5,8,0:0:0:0:
145,249,57908,1,0,0:0:0:0:
145,249,58007,2,0,P|112:261|76:265,1,71.8749970197678,0|10,0:0|0:1,0:0:0:0:
131,131,58205,1,0,0:0:0:0:
131,131,58304,2,0,P|202:147|223:160,1,71.8749970197678
130,319,58501,5,0,0:0:0:0:
130,319,58600,2,0,P|142:286|146:250,1,71.8749970197678,0|2,0:0|0:0,0:0:0:0:
51,108,58798,1,0,0:0:0:0:
51,108,58897,2,0,P|67:179|80:200,1,71.8749970197678,10|0,0:1|0:0,0:0:0:0:
219,275,59094,1,0,0:0:0:0:
0,371,59292,5,8,0:0:0:0:
214,362,59489,1,2,0:0:0:0:
214,362,59588,2,0,P|181:374|145:378,1,71.8749970197678,0|10,0:0|0:1,0:0:0:0:
14,280,59786,1,0,0:0:0:0:
14,280,59885,2,0,P|48:292|84:296,1,71.8749970197678
352,224,60082,5,2,0:0:0:0:
207,151,60280,1,0,0:0:0:0:
191,175,60379,2,0,P|179:208|175:244,1,71.8749970197678,0|8,0:0|0:1,0:0:0:0:
335,88,60577,1,0,0:0:0:0:
330,61,60676,2,0,P|293:-1|274:-17,1,71.8749970197678,2|0,0:0|0:0,0:0:0:0:
342,301,60873,5,8,0:0:0:0:
241,120,61070,1,0,0:0:0:0:
266,104,61169,2,0,P|299:93|335:89,1,71.8749970197678,0|10,0:0|0:1,0:0:0:0:
461,210,61367,1,0,0:0:0:0:
437,195,61466,2,0,P|403:184|367:180,1,71.8749970197678
234,384,61663,5,0,0:0:0:0:
249,360,61762,2,0,P|260:326|264:290,1,71.8749970197678,0|2,0:0|0:0,0:0:0:0:
396,107,61960,1,0,0:0:0:0:
401,134,62059,2,0,P|438:196|457:212,1,71.8749970197678,10|0,0:1|0:0,0:0:0:0:
512,301,62256,1,0,0:0:0:0:
185,264,62454,5,8,0:0:0:0:
396,107,62651,1,2,0:0:0:0:
411,83,62750,2,0,P|422:49|426:13,1,71.8749970197678,0|10,0:0|0:1,0:0:0:0:
198,38,62948,1,0,0:0:0:0:
203,65,63047,2,0,P|240:127|259:143,1,71.8749970197678
475,164,63244,5,2,0:0:0:0:
146,161,63442,1,0,0:0:0:0:
170,143,63541,2,0,P|203:131|239:127,1,71.8749970197678,0|8,0:0|0:1,0:0:0:0:
423,247,63738,1,0,0:0:0:0:
399,229,63837,2,0,P|366:217|330:213,1,71.8749970197678,2|0,0:0|0:0,0:0:0:0:
112,384,64035,5,8,0:0:0:0:
311,290,64232,1,0,0:0:0:0:
327,314,64331,2,0,P|339:347|343:383,1,71.8749970197678,0|10,0:0|0:1,0:0:0:0:
183,227,64529,1,0,0:0:0:0:
188,200,64628,2,0,P|225:138|244:122,1,71.8749970197678
256,384,64825,5,8,0:0:0:0:
416,96,65023,2,8,L|455:95,1,35.9374985098839
416,96,65122,1,8,0:0:0:0:
416,96,65220,1,8,0:0:0:0:
96,96,65418,2,0,L|57:95,1,35.9374985098839,8|0,0:0|0:0,0:0:0:0:
480,224,65616,5,10,0:0:0:0:
32,224,65814,1,8,0:0:0:0:
256,0,66011,1,8,0:0:0:0:
211,329,66209,6,8,P|228:350|247:364,1,35.9374985098839
256,336,66308,2,8,P|281:349|302:353,1,35.9374985098839
300,329,66407,6,0,B|351:334|380:306|380:306|367:261|318:238|318:238|290:180|319:109|319:109|400:140|414:187|414:187|398:178|376:173,1,459.999980926514,6|0,0:0|0:0,0:0:0:0:
128,224,72731,5,8,0:0:0:0:
384,224,73027,1,8,0:0:0:0:
384,224,73126,1,8,0:0:0:0:
256,256,73324,1,8,0:0:0:0:
263,263,73719,5,8,0:0:0:0:
263,263,73818,1,8,0:0:0:0:
263,263,73916,1,8,0:0:0:0:
256,128,74114,1,8,0:0:0:0:
263,135,74509,6,8,L|263:96,1,28.7499988079071
263,135,74608,1,8,0:0:0:0:
263,135,74707,1,8,0:0:0:0:
384,32,74905,1,8,0:0:0:0:
433,142,75102,6,8,P|389:155|366:152,1,57.4999976158142,8|8,0:0|0:0,0:0:0:0:
357,147,75300,1,8,0:0:0:0:
444,155,75498,6,8,P|406:165|360:164,1,60.3749956541063
351,162,75695,1,8,0:0:0:0:
512,256,75893,6,0,P|473:245|417:245,1,68.9999950332644,8|0,0:0|0:0,0:0:0:0:
395,247,76090,1,0,0:0:0:0:
512,288,76288,6,0,P|470:262|416:249,1,80.4999942054751,8|0,0:0|0:0,0:0:0:0:
369,250,76486,1,8,0:0:0:0:
493,384,76683,6,0,P|489:333|472:292,1,91.9999961853028
371,204,76881,1,8,0:0:0:0:
373,384,77079,6,0,P|441:333|457:302,1,94.874996970892,8|0,0:0|0:0,0:0:0:0:
512,183,77276,1,0,0:0:0:0:
248,269,77474,6,0,P|341:316|365:316,1,97.7499978113175
512,265,77671,1,8,0:0:0:0:
262,76,77869,6,0,P|257:163|272:200,1,100.62499678731
412,309,78067,1,8,0:0:0:0:
451,0,78264,6,0,P|382:27|346:74,1,103.499992549897,8|0,0:0|0:0,0:0:0:0:
307,264,78462,1,0,0:0:0:0:
157,0,78660,6,0,P|226:27|256:66,1,109.249992552758,8|0,0:0|0:0,0:0:0:0:
307,350,78857,1,0,0:0:0:0:
489,0,79055,5,6,0:0:0:0:
437,25,79154,1,0,0:0:0:0:
404,64,79252,1,0,0:0:0:0:
396,112,79351,1,0,0:0:0:0:
410,155,79450,1,8,0:1:0:0:
437,188,79549,1,0,0:0:0:0:
466,260,79648,2,0,P|456:356|419:392,1,114.999995231628,2|0,0:0|0:0,0:0:0:0:
203,235,79845,5,8,0:0:0:0:
224,196,79944,1,0,0:0:0:0:
256,176,80043,1,0,0:0:0:0:
290,173,80142,1,0,0:0:0:0:
364,191,80241,6,0,P|461:207|513:177,1,114.999995231628,10|0,0:1|0:0,0:0:0:0:
488,0,80438,1,0,0:0:0:0:
453,30,80537,2,0,P|425:83|427:145,1,114.999995231628
455,220,80735,1,0,0:0:0:0:
512,273,80833,1,2,0:0:0:0:
459,248,80932,1,0,0:0:0:0:
378,249,81031,5,10,0:1:0:0:
328,278,81130,1,0,0:0:0:0:
303,320,81229,1,0,0:0:0:0:
264,345,81328,1,0,0:0:0:0:
223,353,81426,6,0,P|158:334|120:293,1,114.999995231628,8|0,0:0|0:0,0:0:0:0:
266,133,81624,5,2,0:0:0:0:
298,165,81723,1,0,0:0:0:0:
315,244,81822,2,0,P|265:314|217:335,1,114.999995231628,10|0,0:1|0:0,0:0:0:0:
46,294,82019,1,0,0:0:0:0:
80,247,82118,1,0,0:0:0:0:
152,225,82217,5,2,0:0:0:0:
202,236,82316,1,0,0:0:0:0:
244,262,82415,1,0,0:0:0:0:
288,272,82513,1,0,0:0:0:0:
330,262,82612,1,8,0:1:0:0:
359,234,82711,1,0,0:0:0:0:
387,164,82810,2,0,P|354:96|311:73,1,114.999995231628,2|0,0:0|0:0,0:0:0:0:
162,108,83007,5,8,0:0:0:0:
190,133,83106,1,0,0:0:0:0:
226,145,83205,1,0,0:0:0:0:
260,142,83304,1,0,0:0:0:0:
325,94,83403,6,0,P|412:71|460:87,1,114.999995231628,10|0,0:1|0:0,0:0:0:0:
151,38,83600,1,0,0:0:0:0:
109,18,83699,2,0,P|52:13|-1:33,1,114.999995231628
0,128,83897,1,0,0:0:0:0:
66,168,83996,1,2,0:0:0:0:
123,169,84094,1,0,0:0:0:0:
176,117,84193,5,10,0:1:0:0:
139,161,84292,1,0,0:0:0:0:
137,209,84391,1,0,0:0:0:0:
157,250,84490,1,0,0:0:0:0:
192,274,84588,2,0,P|252:278|303:236,1,114.999995231628,8|0,0:0|0:0,0:0:0:0:
405,94,84786,1,2,0:0:0:0:
359,85,84885,1,0,0:0:0:0:
282,107,84984,6,0,P|240:151|232:230,1,114.999995231628,10|0,0:1|0:0,0:0:0:0:
422,307,85181,2,0,P|407:251|367:211,1,114.999995231628
84,259,85379,1,2,0:0:0:0:
111,322,85478,1,0,0:0:0:0:
163,358,85577,1,0,0:0:0:0:
219,361,85675,1,0,0:0:0:0:
272,340,85774,1,8,0:1:0:0:
307,302,85873,1,0,0:0:0:0:
382,289,85972,2,0,P|476:320|502:357,1,114.999995231628,2|0,0:0|0:0,0:0:0:0:
201,275,86169,5,8,0:0:0:0:
184,231,86268,1,0,0:0:0:0:
184,184,86367,1,0,0:0:0:0:
204,142,86466,1,0,0:0:0:0:
283,95,86565,5,10,0:1:0:0:
256,158,86664,1,0,0:0:0:0:
192,184,86762,1,0,0:0:0:0:
110,157,86861,1,0,0:0:0:0:
41,165,86960,1,0,0:0:0:0:
0,220,87059,1,0,0:0:0:0:
19,298,87158,2,0,P|75:275|101:213,1,114.999995231628,2|0,0:0|0:0,0:0:0:0:
50,0,87355,5,10,0:1:0:0:
54,68,87454,1,0,0:0:0:0:
90,119,87553,1,0,0:0:0:0:
149,138,87652,1,0,0:0:0:0:
205,133,87750,2,0,P|269:133|320:172,1,114.999995231628,8|0,0:0|0:0,0:0:0:0:
325,248,87948,1,2,0:0:0:0:
308,303,88047,1,0,0:0:0:0:
231,342,88146,5,10,0:1:0:0:
299,334,88245,1,0,0:0:0:0:
366,326,88343,1,0,0:0:0:0:
445,351,88442,1,0,0:0:0:0:
512,308,88541,6,0,P|523:262|505:195,1,114.999995231628,2|0,0:0|0:0,0:0:0:0:
344,78,88739,1,0,0:0:0:0:
333,134,88837,1,0,0:0:0:0:
353,187,88936,1,8,0:1:0:0:
392,217,89035,1,0,0:0:0:0:
466,235,89134,1,2,0:0:0:0:
487,191,89233,1,0,0:0:0:0:
487,147,89332,6,0,P|427:144|376:179,1,114.999995231628,8|0,0:0|0:0,0:0:0:0:
294,294,89529,1,0,0:0:0:0:
264,334,89628,1,0,0:0:0:0:
186,358,89727,6,0,P|107:347|58:307,1,114.999995231628,10|0,0:1|0:0,0:0:0:0:
118,116,89924,1,0,0:0:0:0:
156,173,90023,1,0,0:0:0:0:
154,242,90122,6,0,L|149:277,1,35.9374985098839,8|0,0:0|0:0,0:0:0:0:
354,35,90320,2,0,L|349:0,1,35.9374985098839,8|8,0:0|0:0,0:0:0:0:
354,35,90418,1,8,0:0:0:0:
354,35,90517,1,8,0:0:0:0:
141,346,90715,2,0,L|145:381,1,35.9374985098839
158,35,90913,5,10,0:0:0:0:
371,346,91110,6,8,L|366:381,1,35.9374985098839
349,310,91209,2,8,L|344:345,1,35.9374985098839
327,272,91308,2,0,B|323:304|323:304|174:345,1,172.499999427796,8|0,0:0|0:0,0:0:0:0:
114,361,91604,1,8,0:0:0:0:
23,384,91703,5,6,0:0:0:0:
75,359,91802,1,0,0:0:0:0:
108,320,91900,1,0,0:0:0:0:
116,272,91999,1,0,0:0:0:0:
102,229,92098,1,8,0:1:0:0:
75,196,92197,1,0,0:0:0:0:
46,124,92296,2,0,P|56:28|93:-8,1,114.999995231628,2|0,0:0|0:0,0:0:0:0:
309,149,92493,5,8,0:0:0:0:
288,188,92592,1,0,0:0:0:0:
256,208,92691,1,0,0:0:0:0:
222,211,92790,1,0,0:0:0:0:
148,193,92889,6,0,P|51:177|-1:207,1,114.999995231628,10|0,0:1|0:0,0:0:0:0:
24,384,93086,1,0,0:0:0:0:
59,354,93185,2,0,P|87:301|85:239,1,114.999995231628
57,164,93383,1,0,0:0:0:0:
0,111,93481,1,2,0:0:0:0:
53,136,93580,1,0,0:0:0:0:
134,135,93679,5,10,0:1:0:0:
184,106,93778,1,0,0:0:0:0:
209,64,93877,1,0,0:0:0:0:
248,39,93976,1,0,0:0:0:0:
289,31,94074,2,0,P|354:50|392:91,1,114.999995231628,8|0,0:0|0:0,0:0:0:0:
246,251,94272,1,2,0:0:0:0:
214,219,94371,1,0,0:0:0:0:
197,140,94470,6,0,P|247:70|295:49,1,114.999995231628,10|0,0:1|0:0,0:0:0:0:
466,90,94667,1,0,0:0:0:0:
432,137,94766,1,0,0:0:0:0:
360,159,94865,5,2,0:0:0:0:
310,148,94964,1,0,0:0:0:0:
268,122,95063,1,0,0:0:0:0:
224,112,95161,1,0,0:0:0:0:
182,122,95260,1,8,0:1:0:0:
153,150,95359,1,0,0:0:0:0:
125,220,95458,2,0,P|158:288|201:311,1,114.999995231628,2|0,0:0|0:0,0:0:0:0:
350,276,95655,5,8,0:0:0:0:
322,251,95754,1,0,0:0:0:0:
286,239,95853,1,0,0:0:0:0:
252,242,95952,1,0,0:0:0:0:
187,290,96051,6,0,P|100:313|52:297,1,114.999995231628,10|0,0:1|0:0,0:0:0:0:
361,346,96248,1,0,0:0:0:0:
403,366,96347,2,0,P|460:371|513:351,1,114.999995231628
512,256,96545,1,0,0:0:0:0:
446,216,96644,1,2,0:0:0:0:
389,215,96742,1,0,0:0:0:0:
336,267,96841,5,10,0:1:0:0:
373,223,96940,1,0,0:0:0:0:
375,175,97039,1,0,0:0:0:0:
355,134,97138,1,0,0:0:0:0:
320,110,97236,2,0,P|260:106|209:148,1,114.999995231628,8|0,0:0|0:0,0:0:0:0:
107,290,97434,1,2,0:0:0:0:
153,299,97533,1,0,0:0:0:0:
230,277,97632,6,0,P|272:233|280:154,1,114.999995231628,10|0,0:1|0:0,0:0:0:0:
90,77,97829,2,0,P|105:133|145:173,1,114.999995231628
428,125,98027,5,2,0:0:0:0:
401,62,98126,1,0,0:0:0:0:
349,26,98225,1,0,0:0:0:0:
293,23,98323,1,0,0:0:0:0:
240,44,98422,1,8,0:1:0:0:
205,82,98521,1,0,0:0:0:0:
130,95,98620,2,0,P|36:64|10:27,1,114.999995231628,2|0,0:0|0:0,0:0:0:0:
311,109,98817,5,8,0:0:0:0:
328,153,98916,1,0,0:0:0:0:
328,200,99015,1,0,0:0:0:0:
308,242,99114,1,0,0:0:0:0:
229,289,99213,5,10,0:1:0:0:
256,226,99312,1,0,0:0:0:0:
320,200,99410,1,0,0:0:0:0:
402,227,99509,1,0,0:0:0:0:
471,219,99608,1,0,0:0:0:0:
512,164,99707,1,0,0:0:0:0:
493,86,99806,2,0,P|437:109|411:171,1,114.999995231628,2|0,0:0|0:0,0:0:0:0:
462,384,100003,5,10,0:1:0:0:
458,316,100102,1,0,0:0:0:0:
422,265,100201,1,0,0:0:0:0:
363,246,100300,1,0,0:0:0:0:
307,251,100399,6,0,P|243:251|193:213,1,114.999995231628,8|0,0:0|0:0,0:0:0:0:
187,136,100596,1,2,0:0:0:0:
204,81,100695,1,0,0:0:0:0:
281,42,100794,5,10,0:1:0:0:
213,50,100893,1,0,0:0:0:0:
146,58,100991,1,0,0:0:0:0:
63,37,101090,1,0,0:0:0:0:
0,76,101189,5,2,0:0:0:0:
45,80,101288,1,0,0:0:0:0:
90,84,101387,2,0,L|181:94,1,80.4999942054751
379,156,101584,5,8,0:1:0:0:
330,160,101683,1,0,0:0:0:0:
281,165,101782,2,0,L|187:173,1,86.2499997138978,2|0,0:0|0:0,0:0:0:0:
0,298,101980,5,8,0:0:0:0:
55,302,102079,1,0,0:0:0:0:
109,307,102178,2,0,L|206:315,1,91.9999961853028
456,77,102375,5,10,0:1:0:0:
401,81,102474,1,0,0:0:0:0:
347,86,102573,2,0,L|243:96,1,97.7499978113175
376,331,102770,6,0,L|383:272,1,48.8749989056587,8|0,0:0|0:0,0:0:0:0:
165,49,102968,5,8,0:0:0:0:
169,104,103067,1,8,0:0:0:0:
174,158,103166,2,0,L|184:262,1,97.7499978113175,8|0,0:0|0:0,0:0:0:0:
511,154,103363,2,0,L|451:161,1,48.8749989056587,8|0,0:0|0:0,0:0:0:0:
15,193,103561,5,10,0:0:0:0:
464,243,103758,2,8,L|513:249,1,48.8749989056587
470,251,103857,1,8,0:0:0:0:
470,251,103956,2,0,B|383:281|383:281|301:273,1,160.99998841095
237,264,104252,1,8,0:0:0:0:
349,182,104351,6,0,B|370:228|356:272|356:272|330:306|333:360,1,172.499999427796,6|8,0:0|0:1,0:0:0:0:
183,201,104944,1,0,0:0:0:0:
469,166,105142,1,8,0:0:0:0:
469,166,105537,6,0,B|441:193|402:197|402:197|369:182|332:183|332:183|310:199|299:220,1,172.499999427796,10|0,0:1|0:0,0:0:0:0:
281,312,106130,6,0,P|266:340|251:353,1,43.1249998569489,2|0,0:0|0:0,0:0:0:0:
90,214,106328,2,0,B|118:241|157:245|157:245|190:230|227:231|227:231|249:247|260:268,1,172.499999427796,10|8,0:1|0:0,0:0:0:0:
181,354,106920,6,0,P|160:335|146:306,1,43.1249998569489,2|0,0:0|0:0,0:0:0:0:
194,155,107118,2,0,B|221:127|225:88|225:88|206:58|207:19,1,129.374999570847,10|0,0:1|0:0,0:0:0:0:
196,11,107513,6,0,B|192:86|246:126|246:126|251:98|267:63,1,172.499999427796,2|8,0:0|0:1,0:0:0:0:
323,0,108106,1,2,0:0:0:0:
63,21,108304,1,8,0:0:0:0:
63,21,108699,6,0,B|44:55|51:93|51:93|75:121|84:157|84:157|75:182|57:199,1,172.499999427796,10|0,0:1|0:0,0:0:0:0:
264,124,109292,6,0,P|237:119|202:126,1,43.1249998569489,2|0,0:0|0:0,0:0:0:0:
151,330,109490,2,0,B|132:295|139:257|139:257|163:229|172:193|172:193|163:168|145:151,1,172.499999427796,10|8,0:1|0:0,0:0:0:0:
204,48,110082,6,0,P|178:60|153:90,1,43.1249998569489,2|0,0:0|0:0,0:0:0:0:
257,219,110280,2,0,B|266:245|281:264|281:264|282:308|261:340,1,129.374999570847,10|0,0:1|0:0,0:0:0:0:
238,354,110675,6,0,B|265:318|269:271|269:271|295:316|343:331,1,172.499999427796,2|8,0:0|0:1,0:0:0:0:
460,361,111268,1,2,0:0:0:0:
383,138,111466,1,8,0:0:0:0:
383,138,111861,6,0,B|381:99|404:67|404:67|438:52|462:24|462:24|464:-2|456:-24,1,172.499999427796,10|0,0:1|0:0,0:0:0:0:
302,0,112454,6,0,P|310:49|316:58,1,43.1249998569489,2|0,0:0|0:0,0:0:0:0:
487,125,112652,2,0,B|488:163|465:195|465:195|431:210|407:238|407:238|405:265|413:287,1,172.499999427796,10|8,0:1|0:0,0:0:0:0:
512,357,113245,6,0,P|504:308|498:299,1,43.1249998569489,2|0,0:0|0:0,0:0:0:0:
344,195,113442,2,0,P|337:279|355:329,1,129.374999570847,10|0,0:1|0:0,0:0:0:0:
350,348,113837,2,0,B|321:295|324:261|324:261|373:253|421:273,1,172.499999427796,2|8,0:0|0:1,0:0:0:0:
512,376,114430,1,2,0:0:0:0:
242,384,114628,1,8,0:0:0:0:
242,384,115023,6,0,B|223:358|228:321|228:321|249:287|239:243,1,129.374999570847,10|0,0:1|0:0,0:0:0:0:
236,231,115418,6,0,P|236:210|238:196,1,21.5624999284744,8|0,0:0|0:0,0:0:0:0:
268,95,115616,2,8,P|268:74|266:60,1,21.5624999284744
268,95,115715,1,8,0:0:0:0:
268,95,115814,1,8,0:0:0:0:
102,160,116011,2,0,P|102:181|104:195,1,21.5624999284744,8|0,0:0|0:0,0:0:0:0:
410,224,116209,5,8,0:0:0:0:
131,256,116407,1,8,0:0:0:0:
256,0,116604,1,8,0:0:0:0:
120,275,116802,2,8,P|111:253|110:223,1,43.1249998569489
312,70,116999,6,0,B|338:98|340:138|340:138|324:170|324:207|324:207|339:230|360:241,1,172.499999427796,6|8,0:0|0:1,0:0:0:0:
497,165,117592,1,2,0:0:0:0:
290,308,117790,1,8,0:0:0:0:
290,308,118185,6,0,B|318:335|357:339|357:339|390:324|427:325|427:325|449:341|460:362,1,172.499999427796,10|0,0:1|0:0,0:0:0:0:
403,223,118778,6,0,P|375:212|356:210,1,43.1249998569489,2|0,0:0|0:0,0:0:0:0:
226,234,118976,2,0,B|198:261|159:265|159:265|126:250|89:251|89:251|67:267|56:288,1,172.499999427796,10|8,0:1|0:0,0:0:0:0:
127,154,119569,6,0,P|155:143|174:141,1,43.1249998569489,2|0,0:0|0:0,0:0:0:0:
366,143,119766,2,0,B|339:171|335:210|335:210|354:240|353:279,1,129.374999570847,10|0,0:1|0:0,0:0:0:0:
364,287,120161,6,0,B|368:212|314:172|314:172|309:200|293:235,1,172.499999427796,2|8,0:0|0:1,0:0:0:0:
186,311,120754,1,2,0:0:0:0:
449,363,120952,1,8,0:0:0:0:
449,363,121347,6,0,B|467:328|460:290|460:290|436:262|427:226|427:226|436:201|454:184,1,172.499999427796,10|0,0:1|0:0,0:0:0:0:
248,260,121940,6,0,P|275:265|310:258,1,43.1249998569489,2|0,0:0|0:0,0:0:0:0:
361,54,122138,2,0,B|379:88|372:126|372:126|348:154|339:190|339:190|348:215|366:232,1,172.499999427796,10|8,0:1|0:0,0:0:0:0:
308,336,122731,6,0,P|334:324|352:307,1,43.1249998569489,2|0,0:0|0:0,0:0:0:0:
255,165,122928,2,0,B|246:139|231:120|231:120|230:76|251:44,1,129.374999570847,10|0,0:1|0:0,0:0:0:0:
273,30,123323,6,0,B|246:66|242:113|242:113|216:68|168:53,1,172.499999427796,2|8,0:0|0:1,0:0:0:0:
52,23,123916,1,2,0:0:0:0:
129,246,124114,1,8,0:0:0:0:
129,246,124509,6,0,B|130:284|107:316|107:316|73:331|49:359|49:359|47:386|55:408,1,172.499999427796,10|0,0:1|0:0,0:0:0:0:
210,384,125102,6,0,P|202:335|196:326,1,43.1249998569489,2|0,0:0|0:0,0:0:0:0:
25,259,125300,2,0,B|23:220|46:188|46:188|80:173|104:145|104:145|106:118|98:96,1,172.499999427796,10|8,0:1|0:0,0:0:0:0:
0,27,125893,6,0,P|8:76|14:85,1,43.1249998569489,2|0,0:0|0:0,0:0:0:0:
168,189,126090,2,0,P|175:105|157:55,1,129.374999570847,10|0,0:1|0:0,0:0:0:0:
157,34,126486,6,0,P|171:55|179:78,1,43.1249998569489,2|0,0:0|0:0,0:0:0:0:
185,99,126683,1,0,0:0:0:0:
38,159,126881,6,0,P|48:136|63:114,1,51.7499962749483,8|0,0:1|0:0,0:0:0:0:
92,91,127078,1,2,0:0:0:0:
232,222,127276,6,0,P|198:225|161:213,1,63.2499993076325,8|0,0:0|0:0,0:0:0:0:
123,197,127474,1,0,0:0:0:0:
239,266,127671,6,0,P|208:250|183:216,1,68.9999950332644,8|0,0:1|0:0,0:0:0:0:
175,146,127869,1,0,0:0:0:0:
219,310,128067,6,0,P|201:280|198:233,1,76.4749936783603,8|0,0:0|0:0,0:0:0:0:
259,135,128264,1,8,0:0:0:0:
173,340,128462,6,0,P|174:306|201:256,1,86.2499997138978
350,178,128660,1,8,0:0:0:0:
110,336,128857,6,0,P|129:308|187:278,1,97.7499978113175,8|0,0:0|0:0,0:0:0:0:
385,271,129055,1,8,0:0:0:0:
59,290,129252,6,0,P|90:277|170:286,1,110.974992731505,8|0,0:0|0:0,0:0:0:0:
351,384,129450,1,8,0:0:0:0:
256,32,129648,6,0,B|226:71|226:126|226:126|257:165|259:215|259:215|243:235|236:263,1,229.999990463257,6|0,0:0|0:0,0:0:0:0:
