osu file format v14

[General]
AudioFilename: audio.mp3
AudioLeadIn: 0
PreviewTime: 101717
Countdown: 0
SampleSet: Normal
StackLeniency: 0.7
Mode: 1
LetterboxInBreaks: 0
WidescreenStoryboard: 0

[Editor]
Bookmarks: 492,6685,12879,19072,25266,31459,37653,43846,50040,61653,62427,65524,71717,77911,84104,90298,96491,102685,114298,115072,127459,132270,139127,145984,151126,154554,157983,162959,174572,175346,187733,190058
DistanceSpacing: 1.5
BeatDivisor: 4
GridSize: 32
TimelineZoom: 1.7

[Metadata]
Title:GIANTS (feat. Becky G, Keke Palmer, SOYEON, DUCKWRTH, Thutmose)
TitleUnicode:GIANTS (feat. Becky G, Keke Palmer, SOYEON, DUCKWRTH, Thutmose)
Artist:True Damage
ArtistUnicode:True Damage
Creator:eiri-
Version:Futsuu
Source:League of Legends
Tags:Ayyri English Korean Pop KPop K-Pop Hip Hop Hip-Hip HipHop Rap Electronic Video Game Akali Ekko Yasuo Qiyana Senna LoL TD Riot Games Dmg 소연 JEON SO-YEON
BeatmapID:3191124
BeatmapSetID:1556176

[Difficulty]
HPDrainRate:7
CircleSize:2
OverallDifficulty:4
ApproachRate:10
SliderMultiplier:1.4
SliderTickRate:1

[Events]
//Background and Video events
0,0,"Akali 476.jpg",0,0
Video,0,"GIANTS.mp4"
//Break Periods
//Storyboard Layer 0 (Background)
//Storyboard Layer 1 (Fail)
//Storyboard Layer 2 (Pass)
//Storyboard Layer 3 (Foreground)
//Storyboard Layer 4 (Overlay)
//Storyboard Sound Samples

[TimingPoints]
492,387.096774193548,4,1,0,20,1,0
5475,-100,4,1,0,40,0,0
6637,-100,4,1,0,30,0,0
12830,-100,4,1,0,50,0,0
25217,-100,4,1,0,60,0,0
37621,-100,4,1,0,40,0,0
43798,-100,4,1,0,45,0,0
46895,-100,4,1,0,50,0,0
50040,-100,4,1,0,60,0,1
61653,-100,4,1,0,60,0,0
62766,-100,4,1,0,40,0,0
63927,-100,4,1,0,45,0,0
65524,387.096774193548,4,1,0,50,1,0
77879,-100,4,1,0,60,0,0
90250,-100,4,1,0,40,0,0
96443,-100,4,1,0,45,0,0
99540,-100,4,1,0,50,0,0
102685,-100,4,1,0,60,0,1
114298,-100,4,1,0,60,0,0
115072,-100,4,1,0,60,0,1
127459,-100,4,1,0,60,0,0
127798,-100,4,1,0,40,0,0
128959,-100,4,1,0,45,0,0
129733,-102.040816326531,4,1,0,45,0,0
130121,-106.382978723404,4,1,0,40,0,0
130314,-108.695652173913,4,1,0,40,0,0
130556,428.571428571429,4,1,0,50,1,0
132270,428.571428571429,4,1,0,40,1,0
145931,-100,4,1,0,50,0,0
147260,387.096774193548,4,1,0,60,1,8
147260,-107.52688172043,4,1,0,60,0,8
147698,428.571428571429,4,1,0,50,1,0
157929,-100,4,1,0,60,0,0
159644,-100,4,1,0,70,0,0
161411,387.096774193548,4,1,0,70,1,0
161411,-107.52688172043,4,1,0,70,0,0
162120,-111.111111111111,4,1,0,70,0,0
162507,-105.263157894737,4,1,0,70,0,0
162959,387.096774193548,4,1,0,60,1,1
174571,-100,4,1,0,60,0,0
175346,-100,4,1,0,60,0,1
187733,-100,4,1,0,60,0,0
188072,-100,4,1,0,40,0,0
189233,-100,4,1,0,45,0,0
190007,-100,4,1,0,50,0,0

[HitObjects]
256,192,492,8,0,5330,0:0:0:0:
256,192,5524,5,8,0:0:0:0:
256,192,5717,1,8,0:0:0:0:
256,192,5911,1,8,0:0:0:0:
256,192,6685,1,0,0:0:0:0:
256,192,7266,1,0,0:0:0:0:
256,192,7459,1,8,0:0:0:0:
256,192,7846,1,0,0:0:0:0:
256,192,8427,1,0,0:0:0:0:
256,192,9008,1,8,0:0:0:0:
256,192,9395,1,0,0:0:0:0:
256,192,10362,1,0,0:0:0:0:
256,192,10556,1,8,0:0:0:0:
256,192,10943,1,0,0:0:0:0:
256,192,11524,1,8,0:0:0:0:
256,192,11717,1,8,0:0:0:0:
256,192,12104,1,8,0:0:0:0:
256,192,12879,1,0,0:0:0:0:
256,192,13072,1,0,0:0:0:0:
256,192,13266,1,8,0:0:0:0:
256,192,13653,1,8,0:0:0:0:
256,192,14040,1,0,0:0:0:0:
256,192,14233,1,8,0:0:0:0:
256,192,14621,1,0,0:0:0:0:
256,192,14814,1,0,0:0:0:0:
256,192,15201,1,8,0:0:0:0:
256,192,15588,1,0,0:0:0:0:
256,192,16362,1,0,0:0:0:0:
256,192,16750,1,8,0:0:0:0:
256,192,17137,1,0,0:0:0:0:
256,192,17717,1,0,0:0:0:0:
256,192,17911,1,8,0:0:0:0:
256,192,18298,1,8,0:0:0:0:
256,192,18491,1,8,0:0:0:0:
256,192,19266,1,8,0:0:0:0:
256,192,19459,1,0,0:0:0:0:
256,192,19846,1,8,0:0:0:0:
256,192,20233,1,0,0:0:0:0:
256,192,20427,1,8,0:0:0:0:
256,192,21008,1,0,0:0:0:0:
256,192,21395,1,8,0:0:0:0:
256,192,21782,1,0,0:0:0:0:
256,192,21975,1,8,0:0:0:0:
256,192,22169,1,0,0:0:0:0:
256,192,22750,1,0,0:0:0:0:
256,192,22943,1,8,0:0:0:0:
256,192,23717,1,8,0:0:0:0:
256,192,23911,1,0,0:0:0:0:
256,192,24104,1,0,0:0:0:0:
256,192,24491,1,8,0:0:0:0:
256,192,25266,1,12,0:0:0:0:
256,192,25653,1,0,0:0:0:0:
256,192,25846,1,0,0:0:0:0:
256,192,26040,1,8,0:0:0:0:
256,192,26427,1,0,0:0:0:0:
256,192,26814,1,8,0:0:0:0:
256,192,27201,1,0,0:0:0:0:
256,192,27395,1,0,0:0:0:0:
256,192,27588,1,8,0:0:0:0:
256,192,27975,1,8,0:0:0:0:
256,192,28169,1,8,0:0:0:0:
256,192,28362,1,0,0:0:0:0:
256,192,28750,1,8,0:0:0:0:
256,192,28943,1,0,0:0:0:0:
256,192,29137,1,8,0:0:0:0:
256,192,29524,1,0,0:0:0:0:
256,192,29911,1,8,0:0:0:0:
256,192,30104,1,0,0:0:0:0:
256,192,30298,1,8,0:0:0:0:
256,192,30685,1,8,0:0:0:0:
256,192,31459,1,0,0:0:0:0:
256,192,31653,1,8,0:0:0:0:
256,192,31846,1,0,0:0:0:0:
256,192,32233,1,8,0:0:0:0:
256,192,32621,1,0,0:0:0:0:
256,192,33008,1,0,0:0:0:0:
256,192,33201,1,0,0:0:0:0:
256,192,33395,1,8,0:0:0:0:
256,192,33782,1,8,0:0:0:0:
256,192,34556,1,0,0:0:0:0:
256,192,34750,1,8,0:0:0:0:
256,192,34943,1,0,0:0:0:0:
256,192,35330,1,8,0:0:0:0:
256,192,35524,1,8,0:0:0:0:
256,192,35717,1,0,0:0:0:0:
256,192,36104,1,8,0:0:0:0:
256,192,36491,1,0,0:0:0:0:
256,192,36685,1,0,0:0:0:0:
256,192,36879,1,8,0:0:0:0:
256,192,37266,1,8,0:0:0:0:
256,192,37653,1,0,0:0:0:0:
256,192,39201,1,0,0:0:0:0:
256,192,39975,1,8,0:0:0:0:
256,192,40750,1,0,0:0:0:0:
256,192,41524,1,8,0:0:0:0:
256,192,41911,1,0,0:0:0:0:
256,192,43846,1,0,0:0:0:0:
256,192,45395,1,0,0:0:0:0:
256,192,46169,1,8,0:0:0:0:
256,192,46943,1,8,0:0:0:0:
256,192,47330,1,8,0:0:0:0:
256,192,47717,1,8,0:0:0:0:
256,192,48104,1,8,0:0:0:0:
256,192,48298,1,8,0:0:0:0:
256,192,48491,1,8,0:0:0:0:
256,192,48879,1,8,0:0:0:0:
256,192,50040,1,4,0:0:0:0:
256,192,50621,1,0,0:0:0:0:
256,192,50814,1,8,0:0:0:0:
256,192,51201,1,0,0:0:0:0:
256,192,51588,1,8,0:0:0:0:
256,192,51782,1,0,0:0:0:0:
256,192,52169,1,0,0:0:0:0:
256,192,52362,1,8,0:0:0:0:
256,192,52750,1,0,0:0:0:0:
256,192,53137,1,0,0:0:0:0:
256,192,53911,1,8,0:0:0:0:
256,192,54104,1,8,0:0:0:0:
256,192,54298,1,0,0:0:0:0:
256,192,54685,1,8,0:0:0:0:
256,192,54879,1,0,0:0:0:0:
256,192,55266,1,0,0:0:0:0:
256,192,55459,1,8,0:0:0:0:
256,192,55846,1,8,0:0:0:0:
256,192,56233,1,0,0:0:0:0:
256,192,57008,1,8,0:0:0:0:
256,192,57201,1,0,0:0:0:0:
256,192,57588,1,8,0:0:0:0:
256,192,57975,1,0,0:0:0:0:
256,192,58362,1,0,0:0:0:0:
256,192,58556,1,8,0:0:0:0:
256,192,58943,1,8,0:0:0:0:
256,192,59330,1,0,0:0:0:0:
256,192,59717,1,8,0:0:0:0:
256,192,59911,1,0,0:0:0:0:
256,192,60104,1,8,0:0:0:0:
256,192,60685,1,8,0:0:0:0:
256,192,61072,1,0,0:0:0:0:
256,192,61459,1,0,0:0:0:0:
256,192,61653,1,8,0:0:0:0:
256,192,62814,1,8,0:0:0:0:
256,192,63201,1,8,0:0:0:0:
256,192,63975,1,8,0:0:0:0:
256,192,64362,1,8,0:0:0:0:
256,192,64750,1,8,0:0:0:0:
256,192,65524,1,0,0:0:0:0:
256,192,65911,1,8,0:0:0:0:
256,192,66104,1,0,0:0:0:0:
256,192,66298,1,8,0:0:0:0:
256,192,66685,1,0,0:0:0:0:
256,192,66879,1,0,0:0:0:0:
256,192,67072,1,8,0:0:0:0:
256,192,67459,1,0,0:0:0:0:
256,192,67846,1,8,0:0:0:0:
256,192,68621,1,0,0:0:0:0:
256,192,69008,1,0,0:0:0:0:
256,192,69201,1,0,0:0:0:0:
256,192,69395,1,8,0:0:0:0:
256,192,69782,1,0,0:0:0:0:
256,192,70169,1,8,0:0:0:0:
256,192,70556,1,0,0:0:0:0:
256,192,70943,1,8,0:0:0:0:
256,192,71137,1,8,0:0:0:0:
256,192,71330,1,0,0:0:0:0:
256,192,71717,1,0,0:0:0:0:
256,192,72491,1,8,0:0:0:0:
256,192,72685,1,8,0:0:0:0:
256,192,72879,1,0,0:0:0:0:
256,192,73266,1,8,0:0:0:0:
256,192,73653,1,0,0:0:0:0:
256,192,74040,1,8,0:0:0:0:
256,192,74233,1,0,0:0:0:0:
256,192,74427,1,8,0:0:0:0:
256,192,74814,1,0,0:0:0:0:
256,192,75201,1,0,0:0:0:0:
256,192,75588,1,8,0:0:0:0:
256,192,75782,1,8,0:0:0:0:
256,192,75976,1,0,0:0:0:0:
256,192,76363,1,0,0:0:0:0:
256,192,77137,1,8,0:0:0:0:
256,192,77524,1,8,0:0:0:0:
256,192,77911,1,0,0:0:0:0:
256,192,78104,1,8,0:0:0:0:
256,192,78298,1,0,0:0:0:0:
256,192,78685,1,8,0:0:0:0:
256,192,79072,1,0,0:0:0:0:
256,192,79459,1,8,0:0:0:0:
256,192,79846,1,0,0:0:0:0:
256,192,80233,1,8,0:0:0:0:
256,192,80427,1,0,0:0:0:0:
256,192,80621,1,0,0:0:0:0:
256,192,81008,1,0,0:0:0:0:
256,192,81782,1,8,0:0:0:0:
256,192,81975,1,8,0:0:0:0:
256,192,82169,1,0,0:0:0:0:
256,192,82556,1,8,0:0:0:0:
256,192,82750,1,0,0:0:0:0:
256,192,83137,1,0,0:0:0:0:
256,192,83330,1,8,0:0:0:0:
256,192,83717,1,8,0:0:0:0:
256,192,84104,1,0,0:0:0:0:
256,192,84298,1,8,0:0:0:0:
256,192,84491,1,0,0:0:0:0:
256,192,84879,1,8,0:0:0:0:
256,192,85072,1,0,0:0:0:0:
256,192,85459,1,0,0:0:0:0:
256,192,85653,1,8,0:0:0:0:
256,192,86040,1,0,0:0:0:0:
256,192,86233,1,0,0:0:0:0:
256,192,86427,1,8,0:0:0:0:
256,192,87201,1,0,0:0:0:0:
256,192,87395,1,8,0:0:0:0:
256,192,87588,1,8,0:0:0:0:
256,192,87975,1,8,0:0:0:0:
256,192,88169,1,0,0:0:0:0:
256,192,88556,1,0,0:0:0:0:
256,192,88750,1,0,0:0:0:0:
256,192,89137,1,8,0:0:0:0:
256,192,89524,1,8,0:0:0:0:
256,192,89911,1,8,0:0:0:0:
256,192,90298,1,0,0:0:0:0:
256,192,91846,1,0,0:0:0:0:
256,192,92621,1,8,0:0:0:0:
256,192,93395,1,0,0:0:0:0:
256,192,94169,1,8,0:0:0:0:
256,192,94556,1,0,0:0:0:0:
256,192,96491,1,0,0:0:0:0:
256,192,98040,1,0,0:0:0:0:
256,192,98814,1,8,0:0:0:0:
256,192,99588,1,8,0:0:0:0:
256,192,99975,1,8,0:0:0:0:
256,192,100362,1,8,0:0:0:0:
256,192,100749,1,8,0:0:0:0:
256,192,100943,1,8,0:0:0:0:
256,192,101136,1,8,0:0:0:0:
256,192,101524,1,8,0:0:0:0:
256,192,102685,1,4,0:0:0:0:
256,192,103266,1,0,0:0:0:0:
256,192,103459,1,8,0:0:0:0:
256,192,103846,1,0,0:0:0:0:
256,192,104233,1,8,0:0:0:0:
256,192,104427,1,0,0:0:0:0:
256,192,104814,1,0,0:0:0:0:
256,192,105007,1,8,0:0:0:0:
256,192,105395,1,0,0:0:0:0:
256,192,105782,1,0,0:0:0:0:
256,192,106556,1,8,0:0:0:0:
256,192,106749,1,8,0:0:0:0:
256,192,106943,1,0,0:0:0:0:
256,192,107330,1,8,0:0:0:0:
256,192,107524,1,0,0:0:0:0:
256,192,107911,1,0,0:0:0:0:
256,192,108104,1,8,0:0:0:0:
256,192,108491,1,8,0:0:0:0:
256,192,108878,1,0,0:0:0:0:
256,192,109653,1,8,0:0:0:0:
256,192,109846,1,0,0:0:0:0:
256,192,110233,1,8,0:0:0:0:
256,192,110620,1,0,0:0:0:0:
256,192,111007,1,0,0:0:0:0:
256,192,111201,1,8,0:0:0:0:
256,192,111588,1,8,0:0:0:0:
256,192,111975,1,0,0:0:0:0:
256,192,112362,1,8,0:0:0:0:
256,192,112556,1,0,0:0:0:0:
256,192,112749,1,8,0:0:0:0:
256,192,113330,1,8,0:0:0:0:
256,192,113717,1,0,0:0:0:0:
256,192,114298,1,8,0:0:0:0:
256,192,114491,1,8,0:0:0:0:
256,192,114685,1,8,0:0:0:0:
256,192,115072,1,4,0:0:0:0:
256,192,115846,1,8,0:0:0:0:
256,192,116040,1,0,0:0:0:0:
256,192,116621,1,0,0:0:0:0:
256,192,116814,1,0,0:0:0:0:
256,192,117394,1,8,0:0:0:0:
256,192,117588,1,0,0:0:0:0:
256,192,117782,1,8,0:0:0:0:
256,192,118169,1,0,0:0:0:0:
256,192,118556,1,8,0:0:0:0:
256,192,118943,1,8,0:0:0:0:
256,192,119136,1,8,0:0:0:0:
256,192,119330,1,0,0:0:0:0:
256,192,119717,1,8,0:0:0:0:
256,192,119911,1,0,0:0:0:0:
256,192,120298,1,0,0:0:0:0:
256,192,120491,1,8,0:0:0:0:
256,192,120878,1,8,0:0:0:0:
256,192,121265,1,0,0:0:0:0:
256,192,122040,1,8,0:0:0:0:
256,192,122233,1,0,0:0:0:0:
256,192,122620,1,8,0:0:0:0:
256,192,123008,1,0,0:0:0:0:
256,192,123395,1,0,0:0:0:0:
256,192,123589,1,8,0:0:0:0:
256,192,123976,1,8,0:0:0:0:
256,192,124363,1,0,0:0:0:0:
256,192,124750,1,8,0:0:0:0:
256,192,124944,1,0,0:0:0:0:
256,192,125137,1,8,0:0:0:0:
256,192,125718,1,8,0:0:0:0:
256,192,126105,1,0,0:0:0:0:
256,192,126685,1,8,0:0:0:0:
256,192,127072,1,8,0:0:0:0:
256,192,127266,1,8,0:0:0:0:
256,192,127459,1,0,0:0:0:0:
256,192,127846,1,8,0:0:0:0:
256,192,128233,1,8,0:0:0:0:
256,192,129008,1,8,0:0:0:0:
256,192,129394,1,8,0:0:0:0:
256,192,129782,1,8,0:0:0:0:
256,192,130169,1,0,0:0:0:0:
256,192,130362,1,0,0:0:0:0:
256,192,130556,1,8,0:0:0:0:
256,192,130984,1,8,0:0:0:0:
256,192,131413,1,0,0:0:0:0:
256,192,131841,1,8,0:0:0:0:
256,192,132270,1,4,0:0:0:0:
256,192,133127,1,8,0:0:0:0:
256,192,133556,1,0,0:0:0:0:
256,192,134413,1,0,0:0:0:0:
256,192,134841,1,8,0:0:0:0:
256,192,135698,1,0,0:0:0:0:
256,192,136127,1,0,0:0:0:0:
256,192,136556,1,8,0:0:0:0:
256,192,137198,1,0,0:0:0:0:
256,192,137841,1,8,0:0:0:0:
256,192,138270,1,0,0:0:0:0:
256,192,139127,1,0,0:0:0:0:
256,192,139984,1,8,0:0:0:0:
256,192,140413,1,0,0:0:0:0:
256,192,140841,1,8,0:0:0:0:
256,192,141698,1,8,0:0:0:0:
256,192,142556,1,0,0:0:0:0:
256,192,143413,1,8,0:0:0:0:
256,192,144270,1,8,0:0:0:0:
256,192,144841,1,0,0:0:0:0:
256,192,145127,1,8,0:0:0:0:
256,192,145984,1,8,0:0:0:0:
256,192,146841,1,8,0:0:0:0:
256,192,147698,1,4,0:0:0:0:
256,192,148055,1,0,0:0:0:0:
256,192,148555,1,8,0:0:0:0:
256,192,148983,1,0,0:0:0:0:
256,192,149412,1,8,0:0:0:0:
256,192,150269,1,8,0:0:0:0:
256,192,150697,1,0,0:0:0:0:
256,192,151126,1,0,0:0:0:0:
256,192,151983,1,8,0:0:0:0:
256,192,152412,1,0,0:0:0:0:
256,192,152840,1,8,0:0:0:0:
256,192,153126,1,0,0:0:0:0:
256,192,153697,1,8,0:0:0:0:
256,192,153912,1,0,0:0:0:0:
256,192,154126,1,8,0:0:0:0:
256,192,154340,1,0,0:0:0:0:
256,192,154554,1,0,0:0:0:0:
256,192,155412,1,8,0:0:0:0:
256,192,155840,1,0,0:0:0:0:
256,192,156269,1,0,0:0:0:0:
256,192,157126,1,8,0:0:0:0:
256,192,157983,1,0,0:0:0:0:
256,192,158269,1,8,0:0:0:0:
256,192,158554,1,8,0:0:0:0:
256,192,158840,1,8,0:0:0:0:
256,192,159269,1,0,0:0:0:0:
256,192,159697,1,8,0:0:0:0:
256,192,159912,1,0,0:0:0:0:
256,192,160340,1,0,0:0:0:0:
256,192,160554,1,8,0:0:0:0:
256,192,160769,1,8,0:0:0:0:
256,192,160983,1,8,0:0:0:0:
256,192,161269,1,8,0:0:0:0:
256,192,162185,1,8,0:0:0:0:
256,192,162572,1,8,0:0:0:0:
256,192,162959,1,4,0:0:0:0:
256,192,163540,1,0,0:0:0:0:
256,192,163733,1,8,0:0:0:0:
256,192,164120,1,0,0:0:0:0:
256,192,164507,1,8,0:0:0:0:
256,192,164701,1,0,0:0:0:0:
256,192,165088,1,0,0:0:0:0:
256,192,165281,1,8,0:0:0:0:
256,192,165669,1,0,0:0:0:0:
256,192,166056,1,0,0:0:0:0:
256,192,166830,1,8,0:0:0:0:
256,192,167023,1,8,0:0:0:0:
256,192,167217,1,0,0:0:0:0:
256,192,167604,1,8,0:0:0:0:
256,192,167798,1,0,0:0:0:0:
256,192,168185,1,0,0:0:0:0:
256,192,168378,1,8,0:0:0:0:
256,192,168765,1,8,0:0:0:0:
256,192,169152,1,0,0:0:0:0:
256,192,169927,1,8,0:0:0:0:
256,192,170120,1,0,0:0:0:0:
256,192,170507,1,8,0:0:0:0:
256,192,170894,1,0,0:0:0:0:
256,192,171281,1,0,0:0:0:0:
256,192,171475,1,8,0:0:0:0:
256,192,171862,1,8,0:0:0:0:
256,192,172249,1,0,0:0:0:0:
256,192,172636,1,8,0:0:0:0:
256,192,172830,1,0,0:0:0:0:
256,192,173023,1,8,0:0:0:0:
256,192,173604,1,8,0:0:0:0:
256,192,173991,1,0,0:0:0:0:
256,192,174572,1,8,0:0:0:0:
256,192,175346,1,4,0:0:0:0:
256,192,176120,1,8,0:0:0:0:
256,192,176314,1,0,0:0:0:0:
256,192,176895,1,0,0:0:0:0:
256,192,177088,1,0,0:0:0:0:
256,192,177668,1,8,0:0:0:0:
256,192,177862,1,0,0:0:0:0:
256,192,178056,1,8,0:0:0:0:
256,192,178443,1,0,0:0:0:0:
256,192,178830,1,8,0:0:0:0:
256,192,179217,1,8,0:0:0:0:
256,192,179410,1,8,0:0:0:0:
256,192,179604,1,0,0:0:0:0:
256,192,179991,1,8,0:0:0:0:
256,192,180185,1,0,0:0:0:0:
256,192,180572,1,0,0:0:0:0:
256,192,180765,1,8,0:0:0:0:
256,192,181152,1,8,0:0:0:0:
256,192,181539,1,0,0:0:0:0:
256,192,182314,1,8,0:0:0:0:
256,192,182507,1,0,0:0:0:0:
256,192,182894,1,8,0:0:0:0:
256,192,183282,1,0,0:0:0:0:
256,192,183669,1,0,0:0:0:0:
256,192,183863,1,8,0:0:0:0:
256,192,184250,1,8,0:0:0:0:
256,192,184637,1,0,0:0:0:0:
256,192,185024,1,8,0:0:0:0:
256,192,185218,1,0,0:0:0:0:
256,192,185411,1,8,0:0:0:0:
256,192,185992,1,8,0:0:0:0:
256,192,186379,1,0,0:0:0:0:
256,192,186959,1,8,0:0:0:0:
256,192,187346,1,8,0:0:0:0:
256,192,187540,1,8,0:0:0:0:
256,192,187733,1,0,0:0:0:0:
256,192,188120,1,8,0:0:0:0:
256,192,188507,1,8,0:0:0:0:
256,192,189281,1,8,0:0:0:0:
256,192,189669,1,8,0:0:0:0:
256,192,190056,1,0,0:0:0:0:
