osu file format v14

[General]
AudioFilename: audio.mp3
AudioLeadIn: 0
PreviewTime: 49072
Countdown: 0
SampleSet: Soft
StackLeniency: 0.3
Mode: 0
LetterboxInBreaks: 0
WidescreenStoryboard: 1

[Editor]
Bookmarks: 18431,25798,37580,49959,71863,72250,86573,86960,90191,102597,103411,119089,178784
DistanceSpacing: 1.5
BeatDivisor: 8
GridSize: 4
TimelineZoom: 1.7

[Metadata]
Title:GIANTS (feat. Becky G, Keke Palmer, SOYEON, DUCKWRTH, Thutmose)
TitleUnicode:GIANTS (feat. Becky G, Keke Palmer, 소연, DUCKWRTH, Thutmose)
Artist:True Damage
ArtistUnicode:True Damage
Creator:Sylas
Version:Prestige
Source:League of Legends
Tags:(G)I-DLE Akali Yasuo Qiyana Senna Ekko salty Sanzu_Alternate hip-hop rap video game riot games music team popstars kda worlds 2019 english korean spanish saltylucario saltking huonguithu thekoala hip hop
BeatmapID:2229381
BeatmapSetID:1063804

[Difficulty]
HPDrainRate:6
CircleSize:4
OverallDifficulty:8.8
ApproachRate:9.5
SliderMultiplier:1.5
SliderTickRate:1

[Events]
//Background and Video events
Video,0,"giants.mp4"
0,0,"akali.jpg",0,0
//Break Periods
//Storyboard Layer 0 (Background)
//Storyboard Layer 1 (Fail)
//Storyboard Layer 2 (Pass)
//Storyboard Layer 3 (Foreground)
//Storyboard Layer 4 (Overlay)
//Storyboard Sound Samples

[TimingPoints]
492,387.096774193548,4,2,1,50,1,0
6685,-133.333333333333,4,2,1,50,0,0
11717,-66.6666666666667,4,2,1,50,0,0
12870,-58.8235294117647,4,2,1,50,0,0
14621,-50,4,2,1,50,0,0
16362,-29.4117647058824,4,2,1,50,0,0
16750,-58.8235294117647,4,2,1,50,0,0
17137,-50,4,2,1,50,0,0
19072,-58.8235294117647,4,2,1,50,0,0
20814,-50,4,2,1,50,0,0
22556,-28.5714285714286,4,2,1,50,0,0
22943,-58.8235294117647,4,2,1,50,0,0
23330,-50,4,2,1,50,0,0
25249,-83.3333333333333,4,2,1,50,0,0
25266,-66.6666666666667,4,2,1,50,0,0
30665,-66.6666666666667,4,2,1,50,0,0
31439,-58.8235294117647,4,2,1,50,0,0
34169,-33.3333333333333,4,2,1,50,0,0
34556,-58.8235294117647,4,2,1,50,0,0
36491,-35.7142857142857,4,2,1,50,0,0
37241,-66.6666666666667,4,2,1,50,0,0
37628,-250,4,2,1,50,0,0
41911,-500,4,2,1,50,0,0
42685,-250,4,2,1,50,0,0
43818,-166.666666666667,4,2,1,50,0,0
46913,-100,4,2,1,65,0,0
48621,-33.3333333333333,4,2,1,65,0,0
49814,-71.4285714285714,4,2,1,65,0,0
50040,-55.5555555555556,4,2,1,75,0,1
56233,-50,4,2,1,75,0,1
61266,-100,4,2,1,75,0,1
61362,-58.8235294117647,4,2,1,75,0,1
61459,-43.4782608695652,4,2,1,75,0,1
61556,-33.3333333333333,4,2,1,75,0,1
61653,-66.6666666666667,4,2,1,75,0,1
62427,-66.6666666666667,4,2,1,55,0,0
63072,-66.6666666666667,4,2,1,5,0,0
63201,-500,4,2,1,55,0,0
63588,-500,4,2,1,5,0,0
63975,-66.6666666666667,4,2,1,55,0,0
64233,-66.6666666666667,4,2,1,5,0,0
64362,-100,4,2,1,55,0,0
64621,-66.6666666666667,4,2,1,5,0,0
64750,-500,4,2,1,55,0,0
65072,-500,4,2,1,8,0,0
65137,-58.8235294117647,4,2,1,55,0,0
65524,-50,4,2,1,55,0,0
65782,-50,4,2,1,5,0,0
65911,-58.8235294117647,4,2,1,55,0,0
66556,-58.8235294117647,4,2,1,5,0,0
66685,-58.8235294117647,4,2,1,55,0,0
68233,-33.3333333333333,4,2,1,55,0,0
68621,-58.8235294117647,4,2,1,55,0,0
68911,-58.8235294117647,4,2,1,5,0,0
69008,-58.8235294117647,4,2,1,55,0,0
69685,-58.8235294117647,4,2,1,5,0,0
69782,-58.8235294117647,4,2,1,55,0,0
70459,-58.8235294117647,4,2,1,5,0,0
70556,-58.8235294117647,4,2,1,55,0,0
70943,-71.4285714285714,4,2,1,55,0,0
71040,-50,4,2,1,55,0,0
76266,-50,4,2,1,5,0,0
76362,-50,4,2,1,55,0,0
80169,-50,4,2,1,5,0,0
80207,-41.6666666666667,4,2,1,55,0,0
80717,-50,4,2,1,55,0,0
80981,-50,4,2,1,55,0,0
82169,-33.3333333333333,4,2,1,55,0,0
82362,-43.4782608695652,4,2,1,55,0,0
83330,-40,4,2,1,55,0,0
83475,-40,4,2,1,5,0,0
83524,-33.3333333333333,4,2,1,55,0,0
83669,-33.3333333333333,4,2,1,5,0,0
83717,-28.5714285714286,4,2,1,55,0,0
83862,-28.5714285714286,4,2,1,5,0,0
83911,-25,4,2,1,55,0,0
84056,-25,4,2,1,5,0,0
84104,-43.4782608695652,4,2,1,55,0,0
90265,-250,4,2,1,55,0,0
94556,-500,4,2,1,55,0,0
95330,-250,4,2,1,55,0,0
95717,-500,4,2,1,55,0,0
96455,-166.666666666667,4,2,1,55,0,0
99550,-100,4,2,1,65,0,0
101137,-50,4,2,1,65,0,0
102685,-55.5555555555556,4,2,1,75,0,1
108879,-50,4,2,1,75,0,1
109846,-50,4,2,1,75,0,1
110233,-50,4,2,1,75,0,1
114298,-40,4,2,1,75,0,0
114443,-40,4,2,1,5,0,0
114491,-33.3333333333333,4,2,1,75,0,0
114637,-33.3333333333333,4,2,1,5,0,0
114685,-28.5714285714286,4,2,1,75,0,0
114830,-28.5714285714286,4,2,1,5,0,0
114879,-25,4,2,1,75,0,0
115024,-25,4,2,1,5,0,0
115072,-50,4,2,1,75,0,1
118169,-45.4545454545455,4,2,1,75,0,1
122233,-45.4545454545455,4,2,1,75,0,1
122621,-45.4545454545455,4,2,1,75,0,1
127266,-55.5555555555556,4,2,1,75,0,1
127362,-38.4615384615385,4,2,1,75,0,1
127459,-28.5714285714286,4,2,1,65,0,0
127588,-28.5714285714286,4,2,1,5,0,0
127717,-28.5714285714286,4,2,1,65,0,0
127846,-58.8235294117647,4,2,1,65,0,0
128104,-58.8235294117647,4,2,1,5,0,0
128233,-500,4,2,1,65,0,0
128621,-500,4,2,1,5,0,0
129008,-58.8235294117647,4,2,1,65,0,0
129266,-58.8235294117647,4,2,1,5,0,0
129395,-100,4,2,1,65,0,0
129653,-100,4,2,1,5,0,0
129782,-500,4,2,1,65,0,0
130040,-500,4,2,1,5,0,0
130169,-66.6666666666667,4,2,1,65,0,0
130556,428.571428571429,4,2,1,55,1,0
131466,-100,4,2,1,5,0,0
131841,-100,4,2,1,55,0,0
132163,-100,4,2,1,5,0,0
132270,-333.333333333333,4,2,1,55,0,0
133127,-100,4,2,1,55,0,0
133556,-333.333333333333,4,2,1,55,0,0
136984,-142.857142857143,4,2,1,55,0,0
138270,-333.333333333333,4,2,1,55,0,0
138341,-100,4,2,1,5,0,0
138484,-100,4,2,1,55,0,0
138556,-66.6666666666667,4,2,1,5,0,0
138698,-66.6666666666667,4,2,1,55,0,0
138770,-50,4,2,1,5,0,0
138913,-43.4782608695652,4,2,1,55,0,0
138984,-100,4,2,1,5,0,0
139127,-125,4,2,1,55,0,0
145984,-100,4,2,1,55,0,0
146056,-100,4,2,1,5,0,0
146413,-66.6666666666667,4,2,1,55,0,0
146484,-50,4,2,1,5,0,0
146841,-50,4,2,1,55,0,0
146913,-50,4,2,1,5,0,0
147260,387.096774193548,4,2,1,55,1,0
147270,-76.9230769230769,4,2,1,55,0,0
147698,428.571428571429,4,2,1,55,1,0
147698,-66.6666666666667,4,2,1,55,0,0
148037,388.60103626943,4,2,1,55,1,0
148555,428.571428571429,4,2,1,55,1,0
149412,428.571428571429,4,2,1,55,1,0
149412,-76.9230769230769,4,2,1,55,0,0
150270,-50,4,2,1,55,0,0
150698,-76.9230769230769,4,2,1,55,0,0
161413,387.096774193548,4,2,1,65,1,0
162961,-50,4,2,1,80,0,1
168187,-45.4545454545455,4,2,1,80,0,1
169154,-45.4545454545455,4,2,1,80,0,1
170122,-50,4,2,1,80,0,1
170509,-45.4545454545455,4,2,1,80,0,1
173993,-40,4,2,1,80,0,1
174138,-40,4,2,1,5,0,1
174187,-33.3333333333333,4,2,1,80,0,1
174332,-33.3333333333333,4,2,1,5,0,1
174380,-27.7777777777778,4,2,1,80,0,1
174525,-27.7777777777778,4,2,1,5,0,1
174574,-50,4,2,1,80,0,0
175348,-45.4545454545455,4,2,1,80,0,1
180574,-41.6666666666667,4,2,1,80,0,1
182509,-41.6666666666667,4,2,1,80,0,1
182896,-41.6666666666667,4,2,1,80,0,1
187735,-62.5,4,2,1,80,0,0
188412,-62.5,4,2,1,5,0,0
188509,-500,4,2,1,80,0,0
189283,-43.4782608695652,4,2,1,80,0,0
189606,-43.4782608695652,4,2,1,5,0,0
189671,-33.3333333333333,4,2,1,80,0,0
189993,-33.3333333333333,4,2,1,5,0,0
190058,-1000,4,2,1,80,0,0

[Colours]
Combo1 : 235,163,65
Combo2 : 63,63,199
Combo3 : 203,34,227

[HitObjects]
196,190,5524,6,0,P|164:181|147:187,1,37.5,0|0,0:0|0:0,0:0:0:0:
180,158,5717,2,0,P|151:174|143:190,1,37.5,0|0,0:0|0:0,0:0:0:0:
77,196,5911,6,0,P|77:159|94:126,1,75,0|0,0:0|0:0,0:0:0:0:
166,263,6298,1,0,0:0:0:0:
166,263,6685,6,0,P|222:263|276:276,1,112.500004291535,0|0,1:2|0:0,0:0:0:0:
307,348,7266,1,0,1:2:0:0:
340,234,7459,2,0,P|352:281|346:306,1,56.2500021457673,8|0,0:0|0:0,0:0:0:0:
233,367,7846,6,0,P|176:366|122:353,1,112.500004291535,0|0,1:2|0:0,0:0:0:0:
307,348,8427,2,0,P|361:335|417:334,1,112.500004291535,0|0,1:2|0:0,0:0:0:0:
501,366,9008,5,8,0:0:0:0:
501,366,9201,1,0,0:0:0:0:
480,297,9395,2,0,L|485:242,1,28.1250010728836,0|0,1:2|0:0,0:0:0:0:
510,202,9588,2,0,L|501:159,1,28.1250010728836,0|0,0:0|0:0,0:0:0:0:
505,92,10362,5,0,1:2:0:0:
427,170,10556,2,0,P|396:153|358:146,1,56.2500021457673,8|0,0:2|0:0,0:0:0:0:
308,75,10943,2,0,P|387:68|439:51,1,112.500004291535,0|0,1:2|0:0,0:0:0:0:
302,177,11524,5,8,0:3:0:0:
288,164,11588,5,8,0:3:0:0:
271,155,11653,5,8,0:3:0:0:
251,148,11717,6,0,P|249:201|261:234,1,56.2500021457673,8|0,0:3|0:0,0:0:0:0:
310,255,11911,2,0,P|346:293|377:308,1,56.2500021457673,8|0,0:3|0:0,0:0:0:0:
422,278,12104,1,8,0:2:0:0:
422,278,12491,6,0,P|417:247|425:219,2,37.5000014305115,0|0|0,0:0|0:0|0:0,0:0:0:0:
400,348,12685,2,0,P|405:379|397:407,2,37.5000014305115,0|0|0,0:0|0:0|0:0,0:0:0:0:
310,255,12879,6,0,B|201:275|201:275|196:295|196:295|68:319,1,255.000004863739,6|0,1:2|0:0,0:0:0:0:
80,305,13459,2,0,L|170:288,1,63.7500012159348,0|0,1:2|0:0,0:0:0:0:
310,255,13653,1,8,0:2:0:0:
155,217,13846,6,0,P|164:186|164:155,1,63.7500012159348,2|0,0:0|0:0,0:0:0:0:
240,140,14040,2,0,P|224:112|201:90,1,63.7500012159348,2|0,1:2|0:0,0:0:0:0:
243,27,14233,2,0,P|212:18|181:19,1,63.7500012159348,2|0,0:0|0:0,0:0:0:0:
126,73,14427,1,2,0:0:0:0:
310,255,14621,6,0,B|318:196|368:178|406:181|406:181|407:171|407:171|406:181|406:181|443:185|492:212|489:284,1,300,2|0,1:2|1:2,0:0:0:0:
275,332,15201,1,8,0:2:0:0:
429,340,15395,6,0,L|342:320,1,75,0|0,0:0|0:0,0:0:0:0:
116,259,15588,2,0,B|124:231|152:222|191:229|191:229|231:238|231:238|232:231|232:231|231:238|231:238|324:258,1,225,2|0,1:2|0:0,0:0:0:0:
138,335,15975,6,0,B|176:328|210:290|196:213|196:213|175:101,1,225,2|0,1:2|0:0,0:0:0:0:
137,82,16362,6,0,B|159:70|162:49|162:49|173:69|212:72,2,85.0000016212464,2|2|2,0:0|0:0|0:0,0:0:0:0:
182,140,16556,1,2,1:2:0:0:
7,42,16750,6,0,L|210:71,1,191.250003647804,8|0,0:2|0:0,0:0:0:0:
432,150,17137,6,0,B|396:103|348:83|269:83|269:83|263:119|228:151|182:140,1,300,2|0,1:2|0:0,0:0:0:0:
291,302,17717,2,0,B|280:235|318:172|318:172|358:183|394:224|394:224|379:255|382:298,1,300,2|0,1:2|0:0,0:0:0:0:
204,318,18298,2,0,L|109:337,1,75,8|0,0:2|0:0,0:0:0:0:
60,181,18491,6,0,B|96:174|96:174|160:163|174:242|188:319|252:307|252:307|294:301,1,300,10|0,0:2|0:0,0:0:0:0:
498,324,19072,6,0,B|465:234|409:210|348:241|348:241|371:265|371:293,1,255.000004863739,2|0,1:2|0:0,0:0:0:0:
342,153,19653,1,0,1:2:0:0:
380,302,19846,6,0,P|392:273|387:233,1,63.7500012159348,10|0,0:2|0:0,0:0:0:0:
236,275,20040,2,0,P|207:263|176:265,1,63.7500012159348,2|0,0:0|0:0,0:0:0:0:
313,258,20233,2,0,P|301:229|278:209,1,63.7500012159348,2|0,1:2|0:0,0:0:0:0:
194,342,20427,1,2,0:0:0:0:
342,153,20814,6,0,B|286:105|221:94|221:94|224:82|224:82|222:94|222:94|157:86|85:112,1,300,2|0,1:2|1:2,0:0:0:0:
175,252,21395,1,8,0:2:0:0:
11,84,21588,2,0,P|7:130|39:179,1,75,0|0,0:0|0:0,0:0:0:0:
175,252,21782,6,0,B|272:232|272:232|297:245|297:245|428:217,1,225,2|0,1:2|0:0,0:0:0:0:
488,108,22169,2,0,B|439:68|439:68|440:158|440:158|474:181|479:249,1,225,2|0,1:2|0:0,0:0:0:0:
361,281,22556,6,0,B|345:269|345:269|356:229|411:220,2,87.500000834465,2|2|2,0:0|0:0|0:0,0:0:0:0:
434,286,22750,1,2,1:2:0:0:
246,322,22943,6,0,L|461:280,1,191.250003647804,8|0,0:2|0:0,0:0:0:0:
281,160,23330,6,0,B|254:132|251:100|251:100|217:150|248:215|248:215|275:283|238:333,1,300,2|0,1:2|0:0,0:0:0:0:
337,94,23911,2,0,P|338:61|366:6,1,75,2|2,1:2|0:0,0:0:0:0:
123,66,24104,6,0,P|109:55|78:53,1,37.5,2|0,0:0|0:0,0:0:0:0:
113,72,24201,2,0,P|95:67|66:79,1,37.5,2|0,0:0|0:0,0:0:0:0:
105,85,24298,2,0,P|87:88|66:111,1,37.5,2|0,0:0|0:0,0:0:0:0:
101,117,24395,2,0,P|86:127|76:157,1,37.5,2|0,0:0|0:0,0:0:0:0:
145,172,24491,5,8,0:2:0:0:
455,170,24685,5,10,0:2:0:0:
420,164,24749,5,8,0:2:0:0:
391,181,24814,5,8,0:2:0:0:
377,211,24878,5,10,0:2:0:0:
92,245,25072,5,8,0:3:0:0:
100,259,25136,5,8,0:3:0:0:
114,267,25201,5,8,0:3:0:0:
131,266,25266,6,0,P|160:265|200:276,1,56.2500021457673,14|0,1:2|0:0,0:0:0:0:
224,201,25459,2,0,P|245:220|265:256,1,56.2500021457673,2|0,0:0|0:0,0:0:0:0:
312,180,25653,5,2,0:0:0:0:
295,255,25750,1,2,0:0:0:0:
278,330,25846,1,2,1:2:0:0:
266,72,26040,6,0,L|255:16,1,56.2500021457673,10|0,0:2|0:0,0:0:0:0:
342,100,26233,2,0,L|373:53,1,56.2500021457673,2|0,0:0|0:0,0:0:0:0:
312,180,26427,5,2,1:2:0:0:
389,165,26523,1,2,0:0:0:0:
466,150,26620,1,2,0:0:0:0:
191,139,26814,6,0,P|145:139|110:153,1,56.2500021457673,2|0,0:0|0:0,0:0:0:0:
159,303,27008,5,2,1:2:0:0:
170,231,27104,1,2,0:0:0:0:
97,220,27201,1,2,0:0:0:0:
87,293,27298,1,2,0:0:0:0:
129,262,27395,1,2,0:0:0:0:
249,341,27588,6,0,B|310:313|295:385|389:337,1,112.500004291535,10|2,0:2|0:0,0:0:0:0:
467,239,27879,1,2,0:0:0:0:
394,215,27976,1,2,1:2:0:0:
337,267,28073,1,2,0:0:0:0:
410,291,28169,1,2,0:0:0:0:
394,215,28266,1,2,0:0:0:0:
320,191,28362,2,0,L|242:198,1,56.2500021457673,2|0,1:2|0:0,0:0:0:0:
418,62,28556,5,2,0:0:0:0:
406,138,28652,1,2,0:0:0:0:
394,215,28749,1,2,0:0:0:0:
344,38,28943,5,2,1:2:0:0:
332,114,29039,1,2,0:0:0:0:
320,191,29136,1,10,0:2:0:0:
221,92,29330,5,2,0:0:0:0:
233,168,29426,1,2,0:0:0:0:
245,245,29523,1,2,1:2:0:0:
146,128,29718,5,2,0:0:0:0:
158,204,29814,1,2,0:0:0:0:
170,281,29911,1,2,0:0:0:0:
62,49,30104,5,2,1:2:0:0:
50,125,30200,1,2,0:0:0:0:
38,202,30298,2,0,L|25:284,1,56.2500021457673,2|0,0:0|0:0,0:0:0:0:
110,344,30491,5,2,1:2:0:0:
170,281,30588,1,2,0:0:0:0:
256,304,30685,1,10,0:2:0:0:
401,265,30879,6,0,P|414:269|436:263,1,28.1250010728836,2|0,0:0|0:0,0:0:0:0:
338,316,31072,6,0,P|344:329|364:340,1,28.1250010728836,2|0,0:0|0:0,0:0:0:0:
256,304,31266,6,0,P|252:318|258:339,1,28.1250010728836,2|0,1:2|0:0,0:0:0:0:
421,185,31459,6,0,P|418:140|403:109,1,63.7500012159348,0|0,1:2|0:0,0:0:0:0:
470,65,31653,1,2,0:0:0:0:
414,47,31749,1,2,0:0:0:0:
358,65,31846,1,2,0:0:0:0:
312,103,31943,1,2,0:0:0:0:
259,127,32040,1,2,1:2:0:0:
200,124,32136,1,2,0:0:0:0:
146,99,32233,6,0,B|131:84|127:52|127:52|103:218,1,191.250003647804,10|0,0:2|0:0,0:0:0:0:
28,200,32621,2,0,L|37:136,1,63.7500012159348,0|0,1:2|0:0,0:0:0:0:
86,272,32814,2,0,L|95:335,2,42.5000008106232,2|0|0,0:0|0:0|0:0,0:0:0:0:
181,201,33008,6,0,L|171:264,1,63.7500012159348,2|0,0:0|0:0,0:0:0:0:
160,360,33201,1,2,1:2:0:0:
229,339,33298,1,2,0:0:0:0:
300,357,33395,2,0,L|363:366,1,63.7500012159348,2|0,0:0|0:0,0:0:0:0:
374,292,33588,2,0,L|310:282,1,63.7500012159348,2|0,1:2|0:0,0:0:0:0:
154,125,33782,6,0,B|209:110|239:144|239:144|245:138|245:138|239:144|239:144|267:176|328:159,1,191.250003647804,10|0,0:2|0:0,0:0:0:0:
368,105,34169,2,0,B|351:91|332:90|332:90|357:77|384:78,2,75.000002861023,2|0|0,1:2|0:0|0:0,0:0:0:0:
384,177,34362,1,2,0:0:0:0:
493,80,34556,6,0,L|330:112,1,127.50000243187,2|2,1:2|0:0,0:0:0:0:
333,236,34846,5,2,0:0:0:0:
384,177,34943,2,0,L|547:209,1,127.50000243187,2|2,0:0|1:2,0:0:0:0:
384,295,35233,5,2,0:0:0:0:
333,236,35330,2,0,L|170:268,1,127.50000243187,10|2,0:2|0:0,0:0:0:0:
333,354,35621,5,2,0:0:0:0:
384,295,35717,1,2,1:2:0:0:
333,236,35814,1,2,0:0:0:0:
384,177,35911,1,2,0:0:0:0:
333,118,36008,1,2,0:0:0:0:
384,59,36104,6,0,L|459:73,1,63.7500012159348,2|0,0:0|0:0,0:0:0:0:
256,123,36298,2,0,P|260:89|283:60,2,42.5000008106232,2|0|0,1:2|0:0|0:0,0:0:0:0:
310,19,36491,6,0,P|234:14|190:56,1,104.999996795654,2|0,0:0|0:0,0:0:0:0:
133,235,36685,2,0,P|57:240|13:198,1,104.999996795654,2|0,1:2|0:0,0:0:0:0:
89,167,36879,6,0,B|162:130|229:214|229:214|296:298|379:225,1,314.999990386963,10|0,0:2|0:0,0:0:0:0:
308,179,37266,1,2,0:0:0:0:
434,215,37459,5,8,0:3:0:0:
423,192,37523,5,8,0:3:0:0:
404,176,37588,5,8,0:3:0:0:
381,170,37653,6,0,P|379:112|391:42,1,120,2|0,0:0|0:0,0:0:0:0:
388,50,39201,5,2,0:0:0:0:
287,102,39491,1,2,0:0:0:0:
199,24,39782,1,2,0:0:0:0:
277,20,39975,5,2,0:0:0:0:
256,175,40266,1,2,0:0:0:0:
277,20,40556,1,2,0:0:0:0:
166,188,40846,6,0,P|136:177|113:179,1,45,2|0,0:0|0:0,0:0:0:0:
71,235,41330,1,2,0:0:0:0:
158,284,41524,2,0,P|148:263|136:253,1,30,2|0,0:0|0:0,0:0:0:0:
62,345,41911,6,0,P|87:319|91:306,1,45,2|0,0:0|0:0,0:0:0:0:
158,284,42685,6,0,P|162:288|164:293,6,10,0|0|0|0|0|0|0,0:0|0:0|0:0|0:0|0:0|0:0|0:0,0:0:0:0:
158,284,43846,6,0,B|257:267|225:342|329:321,1,179.999994506836,2|0,0:0|0:0,0:0:0:0:
326,321,45395,5,2,0:0:0:0:
285,222,45685,1,2,0:0:0:0:
326,321,45975,1,2,0:0:0:0:
360,179,46169,5,2,0:0:0:0:
244,304,46459,1,2,0:0:0:0:
411,342,46750,1,2,0:0:0:0:
285,222,46943,6,0,P|232:216|192:231,1,75,10|0,0:0|1:2,0:0:0:0:
126,340,47330,2,0,P|73:346|33:331,1,75,8|0,0:0|1:2,0:0:0:0:
92,261,47717,1,10,0:0:0:0:
92,261,48104,5,10,0:0:0:0:
242,355,48298,1,8,0:0:0:0:
184,201,48491,5,8,0:0:0:0:
221,134,48621,2,0,P|185:122|148:133,2,75.000002861023,8|8|8,0:0|0:0|0:0,0:0:0:0:
183,278,48879,5,0,3:0:0:0:
183,278,49846,5,8,0:0:0:0:
201,264,49910,5,10,0:0:0:0:
223,255,49975,5,8,0:0:0:0:
246,248,50040,6,0,B|337:262|337:262|348:276|348:276|477:295,1,202.499993820191,6|0,1:2|0:0,0:0:0:0:
511,299,50427,1,0,0:0:0:0:
338,187,50621,2,0,L|272:178,1,67.4999979400635,2|0,0:0|0:0,0:0:0:0:
414,209,50814,6,0,L|481:219,1,67.4999979400635,10|0,0:0|0:0,0:0:0:0:
477,142,51008,2,0,L|411:133,1,67.4999979400635,2|0,1:2|0:0,0:0:0:0:
272,178,51201,2,0,B|152:164|216:273|59:239,1,202.499993820191,2|0,0:0|0:0,0:0:0:0:
126,97,51588,6,0,P|123:130|114:163,1,67.4999979400635,2|0,0:0|0:0,0:0:0:0:
261,320,51782,2,0,P|252:287|248:253,1,67.4999979400635,0|0,1:2|0:0,0:0:0:0:
272,178,51975,1,2,0:0:0:0:
174,330,52169,6,0,P|138:339|91:342,1,67.4999979400635,2|0,0:0|0:0,0:0:0:0:
332,272,52362,2,0,P|365:275|398:284,1,67.4999979400635,10|0,0:0|0:0,0:0:0:0:
401,362,52556,2,0,P|367:358|334:349,1,67.4999979400635,2|0,0:0|0:0,0:0:0:0:
471,235,52750,2,0,P|479:267|483:301,1,67.4999979400635,2|0,0:0|0:0,0:0:0:0:
321,157,52943,5,0,1:2:0:0:
321,157,53040,1,0,1:2:0:0:
384,107,53137,6,0,B|296:119|296:119|293:110|293:110|296:119|296:119|151:138,1,202.499993820191,6|0,1:2|0:0,0:0:0:0:
126,142,53524,1,0,0:0:0:0:
157,1,53717,2,0,L|153:77,1,67.4999979400635,2|0,1:2|0:0,0:0:0:0:
175,206,53911,6,0,L|171:273,1,67.4999979400635,10|0,0:0|0:0,0:0:0:0:
96,288,54104,2,0,L|99:220,1,67.4999979400635,2|0,0:0|0:0,0:0:0:0:
202,131,54298,2,0,P|277:131|272:254,1,202.499993820191,2|0,1:2|0:0,0:0:0:0:
96,288,54685,6,0,L|99:220,1,67.4999979400635,2|0,0:0|0:0,0:0:0:0:
175,206,54879,2,0,L|171:273,1,67.4999979400635,0|0,1:2|0:0,0:0:0:0:
149,345,55072,1,2,0:0:0:0:
100,109,55266,6,0,P|109:77|131:51,1,67.4999979400635,2|0,0:0|0:0,0:0:0:0:
259,215,55459,2,0,P|291:224|317:246,1,67.4999979400635,10|0,0:0|0:0,0:0:0:0:
201,130,55653,6,0,P|231:113|264:111,1,67.4999979400635,2|0,1:2|0:0,0:0:0:0:
239,314,55846,2,0,P|255:344|257:378,1,67.4999979400635,2|0,0:0|0:0,0:0:0:0:
21,165,56040,5,8,0:3:0:0:
10,146,56104,5,8,0:3:0:0:
3,124,56169,5,8,0:3:0:0:
3,101,56233,6,0,B|60:74|103:113|103:113|99:120|99:120|147:161|215:124,1,225,6|0,1:2|0:0,0:0:0:0:
245,67,56621,2,0,P|193:54|161:70,1,75,2|0,0:0|0:0,0:0:0:0:
279,137,56814,2,0,P|316:98|318:62,1,75,0|0,0:0|0:0,0:0:0:0:
239,314,57008,5,8,0:0:0:0:
284,241,57201,2,0,P|229:231|154:302,1,150,2|0,1:2|0:0,0:0:0:0:
459,338,57588,6,0,B|482:281|455:169|455:169|447:218|393:244,1,225,2|0,0:0|0:0,0:0:0:0:
371,256,57975,2,0,P|365:182|382:161,1,75,2|0,1:2|0:0,0:0:0:0:
399,122,58169,1,0,0:0:0:0:
239,314,58362,6,0,L|133:327,1,75,2|0,0:0|0:0,0:0:0:0:
248,114,58556,2,0,L|354:127,1,75,10|0,0:0|0:0,0:0:0:0:
227,229,58750,6,0,L|121:242,1,75,2|0,0:0|0:0,0:0:0:0:
261,28,58943,2,0,L|367:41,1,75,2|0,0:0|0:0,0:0:0:0:
158,148,59137,5,0,1:2:0:0:
158,148,59233,1,0,1:2:0:0:
83,106,59330,6,0,B|25:100|25:100|9:181|71:273,1,225,6|0,1:2|0:0,0:0:0:0:
128,288,59717,2,0,P|136:253|114:208,1,75,2|0,0:0|0:0,0:0:0:0:
70,333,59911,2,0,P|96:357|146:360,1,75,0|0,1:2|0:0,0:0:0:0:
308,259,60104,5,8,0:0:0:0:
343,328,60298,2,0,B|262:361|276:288|189:324,1,150,2|0,0:0|1:2,0:0:0:0:
446,131,60685,6,0,B|437:102|417:85|417:85|394:124|395:158|395:158|388:158|388:158|395:157|395:157|398:196|426:247,1,225,2|0,0:0|0:0,0:0:0:0:
430,308,61072,2,0,P|462:307|481:257,1,75,2|0,1:2|0:0,0:0:0:0:
290,98,61266,6,0,P|284:110|285:121,1,18.75,2|0,0:0|0:0,0:0:0:0:
265,103,61362,2,0,P|271:120|282:130,1,31.8750006079674,2|0,0:0|0:0,0:0:0:0:
241,134,61459,2,0,P|262:144|282:143,1,43.1250008225441,2|0,0:0|0:0,0:0:0:0:
242,185,61556,2,0,P|278:171|299:147,1,56.2500021457673,2|0,0:0|0:0,0:0:0:0:
282,249,61653,6,0,P|312:182|272:40,1,225.000008583069,8|2,0:0|0:0,0:0:0:0:
197,21,62233,1,2,0:0:0:0:
197,21,62814,5,2,0:2:0:0:
224,103,62943,2,0,P|169:88|113:86,1,112.500004291535,2|0,0:2|0:0,0:0:0:0:
45,62,63201,6,0,P|37:79|40:92,1,30,2|0,0:2|0:0,0:0:0:0:
138,225,63975,5,2,0:2:0:0:
114,87,64104,2,0,P|100:136|68:192,1,112.500004291535,2|0,0:2|0:0,0:0:0:0:
173,155,64362,5,2,0:2:0:0:
168,292,64491,2,0,P|156:256|137:224,1,75,2|0,0:2|0:0,0:0:0:0:
250,113,64750,6,0,L|275:117,1,25,2|0,0:2|0:0,0:0:0:0:
285,111,65137,6,0,L|243:104,4,42.5000008106232,0|0|0|0|0,0:0|0:0|0:0|0:0|0:0,0:0:0:0:
415,128,65524,6,0,B|388:105|382:74|382:74|366:160|366:160|358:158|358:158|366:159|366:159|352:245,1,250,4|0,0:2|0:0,0:0:0:0:
386,335,65911,5,2,0:0:0:0:
353,240,66040,1,2,0:0:0:0:
288,316,66169,1,2,0:0:0:0:
487,268,66298,6,0,B|363:245|420:341|264:312,1,212.500004053116,10|0,0:0|0:0,0:0:0:0:
146,268,66685,5,2,1:2:0:0:
197,340,66814,1,2,0:0:0:0:
235,257,66943,1,2,0:0:0:0:
135,279,67072,5,2,0:0:0:0:
212,342,67201,1,2,0:0:0:0:
228,244,67330,1,2,0:0:0:0:
132,294,67459,5,2,0:0:0:0:
228,338,67588,1,2,0:0:0:0:
217,233,67717,1,2,0:0:0:0:
120,372,67846,5,10,0:0:0:0:
302,308,67975,1,2,0:0:0:0:
154,183,68104,1,2,0:0:0:0:
358,368,68233,6,0,B|394:382|420:364|420:364|421:341,2,75.000002861023,2|0|8,0:2|0:0|0:3,0:0:0:0:
376,295,68426,5,8,0:3:0:0:
399,283,68491,5,8,0:3:0:0:
425,279,68555,5,8,0:3:0:0:
451,282,68621,6,0,B|481:297|495:318|495:318|506:234|469:188,1,191.250003647804,0|0,1:2|0:0,0:0:0:0:
404,133,69008,6,0,P|389:153|386:173,1,31.8750006079674,2|0,0:0|0:0,0:0:0:0:
381,133,69104,2,0,P|375:157|381:176,1,31.8750006079674,0|0,0:0|0:0,0:0:0:0:
364,141,69201,2,0,P|375:189|402:220,1,63.7500012159348,0|0,1:2|0:0,0:0:0:0:
467,79,69395,6,0,P|417:48|256:38,1,212.500004053116,10|0,0:0|0:0,0:0:0:0:
173,29,69782,5,2,1:2:0:0:
214,120,69911,1,2,0:0:0:0:
267,35,70040,1,2,0:0:0:0:
123,120,70169,6,0,B|151:163|122:222|122:222|95:270|119:330,1,212.500004053116,2|0,0:0|0:0,0:0:0:0:
252,350,70556,5,2,0:0:0:0:
206,221,70685,1,2,0:0:0:0:
118,324,70814,1,2,0:0:0:0:
368,279,70943,6,0,L|372:227,1,52.4999983978272,8|0,0:0|0:0,0:0:0:0:
299,203,71137,2,0,L|292:277,1,75,8|0,0:0|0:0,0:0:0:0:
421,78,71330,6,0,P|428:52|424:28,1,37.5,8|10,0:3|0:3,0:0:0:0:
407,61,71427,2,0,P|402:35|389:14,1,37.5,8|10,3:0|0:3,0:0:0:0:
374,37,71524,2,0,P|359:15|338:3,1,37.5,10|8,0:3|0:3,0:0:0:0:
329,38,71621,2,0,P|306:24|282:21,1,37.5,8|8,0:3|0:3,0:0:0:0:
280,94,71717,5,6,1:2:0:0:
504,45,71911,1,2,0:0:0:0:
211,17,72104,1,2,0:0:0:0:
421,78,72298,1,2,1:2:0:0:
156,105,72491,6,0,P|143:140|153:176,1,75,10|0,0:0|0:0,0:0:0:0:
348,185,72685,2,0,P|361:150|352:115,1,75,2|0,0:0|0:0,0:0:0:0:
150,301,72879,5,2,1:2:0:0:
251,145,73072,1,2,0:0:0:0:
258,358,73266,6,0,P|248:322|261:287,1,75,2|0,0:0|0:0,0:0:0:0:
41,252,73459,2,0,P|50:287|37:322,1,75,2|0,1:2|0:0,0:0:0:0:
150,301,73653,5,2,0:0:0:0:
55,115,73846,1,2,0:0:0:0:
348,191,74040,6,0,P|361:156|352:120,1,75,10|0,0:0|0:0,0:0:0:0:
155,105,74233,2,0,P|143:139|152:175,1,75,2|0,1:2|0:0,0:0:0:0:
312,272,74427,2,0,P|346:284|382:275,1,75,2|0,0:0|0:0,0:0:0:0:
296,47,74621,5,8,0:3:0:0:
273,35,74685,5,8,0:3:0:0:
248,34,74750,5,8,0:3:0:0:
225,43,74814,5,2,1:2:0:0:
348,191,75008,1,2,0:0:0:0:
454,20,75201,6,0,P|486:24|505:49,2,37.5,2|0|0,0:0|0:0|0:0,0:0:0:0:
460,98,75395,1,2,1:2:0:0:
306,13,75588,6,0,P|321:49|326:94,1,75,10|0,0:0|0:0,0:0:0:0:
435,268,75782,2,0,P|440:231|455:196,1,75,2|0,0:0|0:0,0:0:0:0:
256,143,75975,2,0,B|137:108|176:216|21:167,1,225,2|0,1:2|0:0,0:0:0:0:
88,78,76362,5,0,0:0:0:0:
88,78,77137,6,0,L|100:186,1,75,2|0,0:0|0:0,0:0:0:0:
107,245,77330,2,0,L|119:353,1,75,2|0,0:0|0:0,0:0:0:0:
88,78,77524,1,10,0:0:0:0:
218,344,77717,5,8,0:0:0:0:
240,320,77781,5,8,0:0:0:0:
270,305,77846,5,8,0:0:0:0:
303,301,77911,6,0,L|403:313,1,75,6|2,1:2|0:0,0:0:0:0:
475,323,78104,1,2,0:0:0:0:
389,216,78298,6,0,B|314:222,1,75,2|0,0:0|0:0,0:0:0:0:
228,232,78491,1,2,0:0:0:0:
501,149,78685,5,10,0:0:0:0:
488,236,78782,1,2,0:0:0:0:
475,323,78879,1,2,0:0:0:0:
228,232,79072,6,0,P|226:176|246:148,1,75,2|0,1:2|0:0,0:0:0:0:
337,106,79266,1,2,0:0:0:0:
28,247,79459,5,2,0:0:0:0:
133,297,79588,1,2,1:2:0:0:
133,297,79653,1,2,0:0:0:0:
133,297,79717,1,0,0:0:0:0:
142,173,79846,1,2,0:0:0:0:
2,168,79975,6,0,B|31:145|72:173|72:173|104:198|151:166,1,150,2|0,0:0|0:0,0:0:0:0:
278,137,80233,6,0,B|286:107|249:81|203:104|192:174|270:221,2,179.999994506836,10|0|0,0:0|0:0|0:0,0:0:0:0:
371,62,80814,6,0,P|379:41|382:21,1,37.5,2|0,1:2|0:0,0:0:0:0:
373,74,80911,2,0,P|389:58|400:42,1,37.5,2|0,1:2|0:0,0:0:0:0:
374,84,81008,6,0,P|416:72|472:39,1,75,2|0,1:2|0:0,0:0:0:0:
507,186,81201,2,0,P|473:170|436:160,1,75,2|0,0:0|0:0,0:0:0:0:
512,100,81395,1,0,0:0:0:0:
327,333,81588,5,2,1:2:0:0:
341,251,81685,1,2,0:0:0:0:
355,169,81782,6,0,P|316:169|286:190,1,75,10|0,0:0|0:0,0:0:0:0:
214,308,81975,2,0,P|173:307|141:285,1,75,2|0,0:0|0:0,0:0:0:0:
223,34,82169,6,0,P|212:137|188:183,1,112.500004291535,2|0,1:2|0:0,0:0:0:0:
39,287,82362,5,2,0:0:0:0:
121,258,82459,1,2,0:0:0:0:
199,230,82556,6,0,P|267:236|297:252,1,86.2500016450882,2|0,0:0|0:0,0:0:0:0:
117,93,82750,2,0,P|74:94|33:109,1,86.2500016450882,2|0,1:2|0:0,0:0:0:0:
100,177,82943,5,0,0:0:0:0:
413,56,83137,2,0,P|420:103|435:141,1,86.2500016450882,2|0,1:2|0:0,0:0:0:0:
326,198,83330,6,0,B|400:182|378:244|463:227,1,140.625,8|0,0:3|0:0,0:0:0:0:
465,225,83524,6,0,B|376:206|401:278|302:259,1,168.750006437302,8|0,0:3|0:3,0:3:0:0:
297,254,83717,6,0,B|396:231|368:316|479:293,1,196.875001877546,8|0,0:3|0:0,0:0:0:0:
491,288,83911,6,0,B|371:262|405:361|276:334,1,225,8|0,0:3|0:3,0:3:0:0:
228,283,84104,6,0,P|221:217|242:183,1,86.2500016450882,4|0,1:2|0:0,0:0:0:0:
322,56,84298,2,0,P|320:119|299:153,1,86.2500016450882,2|0,0:0|0:0,0:0:0:0:
176,55,84491,5,2,0:0:0:0:
234,9,84588,1,2,0:0:0:0:
248,83,84685,2,0,P|202:126|163:135,1,86.2500016450882,2|0,1:2|1:2,1:2:0:0:
51,182,84879,6,0,P|94:178|134:194,1,86.2500016450882,10|0,0:2|0:0,0:0:0:0:
228,283,85072,2,0,P|161:333|48:310,1,172.500003290176,2|0,0:0|1:2,0:0:0:0:
322,212,85459,6,0,L|439:227,1,86.2500016450882,2|0,0:0|0:0,0:0:0:0:
328,371,85653,1,2,0:0:0:0:
385,318,85750,1,2,0:0:0:0:
313,293,85846,2,0,L|227:282,1,86.2500016450882,2|0,1:2|0:0,0:0:0:0:
473,199,86040,6,0,P|489:159|482:117,1,86.2500016450882,2|0,0:0|0:0,0:0:0:0:
235,199,86233,2,0,P|219:239|226:281,1,86.2500016450882,2|0,0:0|0:0,0:0:0:0:
411,151,86427,6,0,P|387:105|334:83,1,86.2500016450882,10|0,0:2|0:0,0:0:0:0:
150,295,86621,2,0,P|173:340|226:362,1,86.2500016450882,2|0,1:2|0:0,0:0:0:0:
405,30,86814,6,0,P|355:14|303:36,1,86.2500016450882,2|0,0:0|0:0,0:0:0:0:
313,293,87008,2,0,P|327:316|345:331,2,43.1250008225441
352,205,87201,5,0,1:2:0:0:
129,78,87395,6,0,L|30:89,1,86.2500016450882,2|0,0:0|0:0,0:0:0:0:
99,158,87588,2,0,L|184:148,1,86.2500016450882,2|0,0:0|0:0,0:0:0:0:
274,28,87782,2,0,L|188:18,1,86.2500016450882,2|0,1:2|0:0,0:0:0:0:
243,218,87975,6,0,P|267:183|269:114,1,86.2500016450882,10|0,0:2|0:0,0:0:0:0:
43,87,88169,2,0,P|19:122|17:191,1,86.2500016450882,2|0,0:0|0:0,0:0:0:0:
129,78,88362,1,0,1:2:0:0:
94,312,88556,6,0,P|87:269|62:234,1,86.2500016450882,10|0,0:3|0:0,0:0:0:0:
211,140,88750,2,0,P|217:182|242:217,1,86.2500016450882,10|0,0:3|0:0,0:0:0:0:
373,282,88943,5,8,0:3:0:0:
397,266,89007,5,8,0:3:0:0:
424,258,89072,5,8,0:3:0:0:
453,258,89136,5,10,0:2:0:0:
184,356,89427,5,8,0:2:0:0:
168,263,89524,1,10,0:2:0:0:
344,27,89814,5,8,0:2:0:0:
328,120,89911,1,10,0:2:0:0:
328,120,90298,6,0,B|390:104|380:150|448:135,1,120,2|0,0:0|0:0,0:0:0:0:
443,135,91846,5,2,0:0:0:0:
420,263,92137,1,2,0:0:0:0:
443,135,92427,1,2,0:0:0:0:
492,203,92621,5,2,0:0:0:0:
328,267,92911,1,2,0:0:0:0:
466,378,93201,1,2,0:0:0:0:
283,204,93491,6,0,P|256:233|253:250,1,45,2|0,0:0|0:0,0:0:0:0:
328,267,93975,1,2,0:0:0:0:
181,230,94169,2,0,P|183:259|188:272,1,30,2|0,0:0|0:0,0:0:0:0:
123,304,94556,6,0,P|135:320|157:330,1,45,2|0,0:0|0:0,0:0:0:0:
83,235,95330,6,0,L|43:241,1,30,0|0,0:0|0:0,0:0:0:0:
80,162,95717,6,0,L|36:168,1,45,0|0,0:0|0:0,0:0:0:0:
139,81,96491,6,0,P|203:120|306:122,1,179.999994506836,2|0,0:0|0:0,0:0:0:0:
305,122,98040,5,2,0:0:0:0:
204,216,98330,1,2,0:0:0:0:
382,180,98621,1,2,0:0:0:0:
216,125,98814,5,2,0:0:0:0:
252,297,99104,1,2,0:0:0:0:
216,125,99395,1,2,0:0:0:0:
362,311,99588,6,0,L|464:317,1,75,10|0,0:0|1:2,0:0:0:0:
293,206,99975,2,0,L|218:201,1,75,8|0,0:0|1:2,0:0:0:0:
163,275,100362,1,10,0:0:0:0:
163,275,100750,5,10,0:0:0:0:
254,123,100943,1,8,0:0:0:0:
65,180,101137,5,8,0:0:0:0:
160,134,101266,2,0,L|101:114,2,50,8|8|8,0:0|0:0|0:0,0:0:0:0:
72,284,101524,5,0,3:0:0:0:
72,284,102298,5,8,0:0:0:0:
209,277,102427,1,8,0:0:0:0:
87,260,102556,1,8,0:0:0:0:
294,289,102685,6,0,B|302:235|265:203|235:198|235:198|124:179,1,202.499993820191,6|0,1:2|0:0,0:0:0:0:
209,277,103072,1,0,0:0:0:0:
372,331,103266,2,0,P|381:267|368:234,1,67.4999979400635,2|0,0:0|0:0,0:0:0:0:
209,277,103459,6,0,P|200:341|213:374,1,67.4999979400635,10|0,0:0|0:0,0:0:0:0:
285,354,103653,2,0,P|294:290|281:257,1,67.4999979400635,2|0,1:2|0:0,0:0:0:0:
142,184,103846,6,0,B|233:168|233:168|235:176|235:176|233:168|233:168|263:161|294:131|291:86,1,202.499993820191,2|0,0:0|0:0,0:0:0:0:
214,93,104233,6,0,L|109:110,1,67.4999979400635,2|0,0:0|0:0,0:0:0:0:
312,216,104427,2,0,L|378:226,1,67.4999979400635,0|0,1:2|0:0,0:0:0:0:
441,184,104621,1,2,0:0:0:0:
402,72,104814,6,0,P|398:113|382:133,1,67.4999979400635,2|0,0:0|0:0,0:0:0:0:
448,261,105008,2,0,P|475:280|509:281,1,67.4999979400635,10|0,0:0|0:0,0:0:0:0:
501,203,105201,2,0,P|473:184|440:183,1,67.4999979400635,2|0,0:0|0:0,0:0:0:0:
375,311,105395,2,0,P|347:329|314:330,1,67.4999979400635,2|0,0:0|0:0,0:0:0:0:
209,207,105588,5,0,1:2:0:0:
209,207,105685,1,0,1:2:0:0:
278,151,105782,6,0,B|232:132|196:161|196:161|198:175|198:175|167:211|99:197,1,202.499993820191,6|0,1:2|0:0,0:0:0:0:
125,120,106169,1,0,0:0:0:0:
195,8,106362,6,0,L|202:78,1,67.4999979400635,2|0,1:2|0:0,0:0:0:0:
41,97,106556,2,0,L|34:29,1,67.4999979400635,10|0,0:0|0:0,0:0:0:0:
118,52,106750,2,0,L|124:119,1,67.4999979400635,2|0,0:0|0:0,0:0:0:0:
47,354,106943,6,0,B|57:259|57:259|68:261|68:261|57:259|57:259|69:135,1,202.499993820191,2|0,1:2|0:0,0:0:0:0:
118,52,107330,6,0,L|124:119,1,67.4999979400635,2|0,0:0|0:0,0:0:0:0:
41,97,107524,2,0,L|34:29,1,67.4999979400635,0|0,1:2|0:0,0:0:0:0:
195,8,107717,1,2,0:0:0:0:
221,262,107911,6,0,P|240:290|268:310,1,67.4999979400635,2|0,0:0|0:0,0:0:0:0:
332,149,108104,2,0,P|360:130|380:103,1,67.4999979400635,10|0,0:0|0:0,0:0:0:0:
300,229,108298,6,0,P|333:235|367:230,1,67.4999979400635,2|0,1:2|0:0,0:0:0:0:
300,71,108491,2,0,P|306:38|301:5,1,67.4999979400635,2|0,0:0|0:0,0:0:0:0:
142,230,108685,5,8,0:3:0:0:
136,251,108749,5,8,0:3:0:0:
136,274,108814,5,8,0:3:0:0:
141,296,108879,6,0,B|194:270|242:306|242:306|246:298|246:298|242:306|242:306|289:342|349:318,1,225,6|0,1:2|0:0,0:0:0:0:
384,265,109266,2,0,L|403:160,1,75,2|0,0:0|0:0,0:0:0:0:
321,176,109459,2,0,L|307:249,1,75,0|0,0:0|0:0,0:0:0:0:
443,377,109653,5,8,0:0:0:0:
462,280,109846,2,0,L|488:132,1,150,2|0,1:2|0:0,0:0:0:0:
330,33,110233,6,0,B|223:54|223:54|216:70|216:70|102:97,1,225,2|0,0:0|0:0,0:0:0:0:
54,147,110621,2,0,L|35:42,1,75,2|0,1:2|0:0,0:0:0:0:
93,18,110814,1,0,0:0:0:0:
6,255,111008,6,0,P|33:281|69:293,1,75,2|0,0:0|0:0,0:0:0:0:
227,264,111201,2,0,P|239:229|237:192,1,75,10|0,0:0|0:0,0:0:0:0:
146,174,111395,6,0,P|134:209|137:247,1,75,2|0,0:0|0:0,0:0:0:0:
280,329,111588,2,0,P|317:332|353:320,1,75,2|0,0:0|0:0,0:0:0:0:
322,78,111782,5,0,1:2:0:0:
322,78,111879,1,0,1:2:0:0:
304,169,111975,6,0,P|321:104|453:154,1,225,6|0,1:2|0:0,0:0:0:0:
393,226,112362,2,0,P|378:191|379:148,1,75,2|0,0:0|0:0,0:0:0:0:
472,206,112556,2,0,P|471:243|456:277,1,75,0|0,1:2|0:0,0:0:0:0:
280,329,112750,5,8,0:0:0:0:
270,256,112943,2,0,B|187:256|234:341|126:327,1,150,2|0,0:0|1:2,0:0:0:0:
79,192,113330,6,0,B|120:178|120:178|130:201|130:201|187:194|235:213|280:268,1,225,2|0,0:0|0:0,0:0:0:0:
280,329,113717,2,0,P|326:310|332:249,1,75,2|0,1:2|0:0,0:0:0:0:
232,69,113911,6,0,P|221:52|217:24,1,37.5,8|0,0:3|0:0,0:0:0:0:
244,55,114008,2,0,P|241:34|249:7,1,37.5,8|0,0:3|0:0,0:0:0:0:
275,46,114104,2,0,P|280:26|299:5,1,37.5,8|0,0:3|0:0,0:0:0:0:
324,51,114201,2,0,P|337:35|363:24,1,37.5,8|0,0:3|0:0,0:0:0:0:
382,104,114298,6,0,P|318:139|248:148,1,140.625,8|0,0:3|0:0,0:0:0:0:
241,145,114491,6,0,P|328:157|405:200,1,168.750006437302,8|0,0:3|0:0,0:0:0:0:
406,205,114685,6,0,P|316:254|217:261,1,196.875001877546,8|0,0:3|0:0,0:0:0:0:
213,256,114879,6,0,P|324:272|422:339,1,225,8|0,0:3|0:0,0:0:0:0:
343,374,115072,6,0,B|308:346|256:329|202:344|202:344|157:338|125:283,1,225,4|0,1:2|0:0,0:0:0:0:
114,143,115459,2,0,P|129:194|122:254,1,75,2|0,0:0|0:0,0:0:0:0:
213,256,115653,2,0,P|215:218|228:183,1,75,2|0,0:0|0:0,0:0:0:0:
125,63,115846,6,0,P|87:65|52:78,1,75,10|0,0:0|0:0,0:0:0:0:
227,183,116040,2,0,P|262:195|299:197,1,75,2|0,1:2|0:0,0:0:0:0:
372,60,116233,6,0,P|285:14|286:109,1,225,2|0,0:0|0:0,0:0:0:0:
376,157,116621,2,0,P|394:93|498:49,2,150,2|0|0,0:0|1:2|0:0,0:0:0:0:
494,275,117201,6,0,L|420:270,1,75,2|0,0:0|0:0,0:0:0:0:
323,363,117395,2,0,L|248:357,1,75,10|0,0:0|0:0,0:0:0:0:
291,206,117588,2,0,L|365:211,1,75,2|0,0:0|0:0,0:0:0:0:
345,287,117782,6,0,L|270:281,1,75,2|0,0:0|0:0,0:0:0:0:
255,131,117975,2,0,L|329:125,1,75,2|0,1:2|0:0,0:0:0:0:
112,294,118169,6,0,B|58:316|5:290|-12:237|-12:237|2:217|40:205|70:219,1,247.500007553101,6|0,1:2|0:0,0:0:0:0:
189,274,118556,2,0,P|190:316|155:361,1,82.5000025177003,2|0,0:0|0:0,0:0:0:0:
72,220,118750,2,0,P|71:178|106:133,1,82.5000025177003,2|0,1:2|0:0,0:0:0:0:
235,208,118943,6,0,P|265:236|272:293,1,82.5000025177003,10|0,0:0|0:0,0:0:0:0:
21,109,119137,2,0,P|49:78|106:71,1,82.5000025177003,2|0,0:0|0:0,0:0:0:0:
189,274,119330,6,0,P|190:316|26:324,1,247.500007553101,2|0,1:2|0:0,0:0:0:0:
72,220,119717,2,0,L|239:253,2,165.000005035401,2|0|0,0:0|1:2|0:0,0:0:0:0:
383,264,120298,6,0,P|418:242|444:210,1,82.5000025177003,2|0,0:0|0:0,0:0:0:0:
271,119,120491,2,0,P|249:82|218:56,1,82.5000025177003,10|0,0:0|0:0,0:0:0:0:
355,172,120685,6,0,P|364:132|360:89,1,82.5000025177003,2|0,1:2|0:0,0:0:0:0:
182,137,120878,2,0,P|141:126|100:129,1,82.5000025177003,10|0,0:0|0:0,0:0:0:0:
296,332,121072,5,0,1:2:0:0:
317,349,121136,5,0,1:2:0:0:
341,361,121201,5,0,1:2:0:0:
368,367,121266,6,0,B|344:317|281:306|235:345|235:345|196:376|132:351,1,247.500007553101,6|0,1:2|0:0,0:0:0:0:
180,281,121653,2,0,P|179:238|166:182,1,82.5000025177003,2|0,0:0|0:0,0:0:0:0:
93,210,121846,2,0,P|94:253|107:309,1,82.5000025177003,0|0,0:0|0:0,0:0:0:0:
346,232,122040,5,8,0:0:0:0:
382,153,122233,2,0,P|303:158|262:226,1,165.000005035401,2|0,1:2|0:0,0:0:0:0:
87,54,122621,6,0,B|54:75|54:105|54:105|99:136|182:147|245:107,1,247.500007553101,2|0,0:0|0:0,0:0:0:0:
283,62,123008,2,0,P|255:43|191:51,1,82.5000025177003,2|0,1:2|0:0,0:0:0:0:
229,115,123201,1,0,0:0:0:0:
482,101,123395,6,0,L|470:7,1,82.5000025177003,2|0,0:0|0:0,0:0:0:0:
337,152,123588,2,0,L|347:233,1,82.5000025177003,10|0,0:0|0:0,0:0:0:0:
430,244,123782,6,0,L|419:162,1,82.5000025177003,2|0,0:0|0:0,0:0:0:0:
390,5,123975,2,0,L|400:86,1,82.5000025177003,2|0,0:0|0:0,0:0:0:0:
386,317,124169,5,0,1:2:0:0:
386,317,124266,1,0,1:2:0:0:
438,373,124362,6,0,B|400:331|337:320|337:320|338:311|338:311|337:320|337:320|273:311|215:349,1,247.500007553101,6|0,1:2|0:0,0:0:0:0:
154,365,124750,2,0,P|155:317|197:273,1,82.5000025177003,2|0,0:0|0:0,0:0:0:0:
107,251,124943,2,0,P|141:217|202:216,1,82.5000025177003,0|0,1:2|0:0,0:0:0:0:
265,65,125137,5,8,0:0:0:0:
307,149,125330,2,0,L|99:116,1,165.000005035401,2|0,0:0|1:2,0:0:0:0:
386,49,125717,6,0,B|399:9|475:19|503:71|463:181|375:218,1,247.500007553101,2|0,0:0|0:0,0:0:0:0:
352,237,126104,2,0,P|378:267|418:270,1,82.5000025177003,2|0,1:2|0:0,0:0:0:0:
414,192,126298,1,0,0:0:0:0:
205,280,126491,6,0,P|206:349|254:367,1,82.5000025177003,2|0,0:0|0:0,0:0:0:0:
313,181,126685,2,0,B|189:161|252:292|62:253,1,247.500007553101,10|0,0:0|0:0,0:0:0:0:
138,160,127072,2,0,P|136:90|88:72,1,82.5000025177003,2|0,0:0|0:0,0:0:0:0:
302,270,127266,6,0,P|302:291|319:311,1,33.7499989700318,2|0,0:0|0:0,0:0:0:0:
326,274,127362,2,0,P|338:299|371:315,1,48.7499977684022
394,247,127459,6,0,B|382:122|382:122|390:121|390:121|382:122|382:122|369:-8,1,262.500002503395,4|0,1:2|0:0,0:0:0:0:
227,138,127846,5,2,0:2:0:0:
297,68,127975,2,0,L|312:234,1,127.50000243187,2|0,0:2|0:0,0:0:0:0:
236,224,128233,6,0,P|227:217|205:216,1,30,2|0,0:2|0:0,0:0:0:0:
95,163,129008,5,2,0:2:0:0:
154,18,129137,2,0,P|157:81|177:141,1,127.50000243187,2|0,0:2|0:0,0:0:0:0:
74,80,129395,5,2,0:2:0:0:
80,235,129524,2,0,P|82:197|95:162,1,75,2|0,0:2|0:0,0:0:0:0:
177,141,129782,6,0,L|196:144,1,20,2|0,0:2|0:0,0:0:0:0:
345,95,130169,6,0,P|351:67|350:53,1,28.1250010728836,0|0,1:2|0:0,0:0:0:0:
356,106,130266,2,0,P|373:83|378:70,1,28.1250010728836,0|0,1:2|0:0,0:0:0:0:
369,130,130362,2,0,P|394:116|404:106,1,28.1250010728836,0|0,1:2|0:0,0:0:0:0:
364,176,130459,2,0,P|392:174|405:169,1,28.1250010728836,0|0,1:2|0:0,0:0:0:0:
323,239,130556,5,8,0:0:0:0:
323,239,130984,1,8,0:0:0:0:
323,239,131413,6,0,L|315:271,1,18.75
127,208,131841,1,0,0:0:0:0:
127,208,132270,6,0,L|123:172,1,29.9999990844727,4|0,1:2|0:0,0:0:0:0:
167,71,132698,5,2,0:0:0:0:
59,121,132841,1,2,0:0:0:0:
76,34,132983,1,2,0:0:0:0:
218,168,133127,2,10,L|204:226,2,37.5,2|2|0,0:0|0:0|0:0,0:0:0:0:
279,36,133556,6,0,L|271:8,2,22.4999993133545,2|0|0,0:0|1:2|1:2,0:0:0:0:
419,107,134413,5,2,1:2:0:0:
337,162,134555,1,2,0:0:0:0:
351,77,134698,1,2,0:0:0:0:
264,198,134841,5,10,0:0:0:0:
259,78,134984,1,2,0:0:0:0:
170,153,135127,1,2,0:0:0:0:
136,64,135270,1,2,0:0:0:0:
126,320,135698,6,0,P|143:312|164:310,1,29.9999990844727,0|0,1:2|0:0,0:0:0:0:
189,237,136127,5,2,0:0:0:0:
241,320,136270,1,2,0:0:0:0:
288,226,136413,1,2,0:0:0:0:
333,336,136556,1,10,0:0:0:0:
385,230,136698,1,2,0:0:0:0:
447,322,136841,1,2,0:0:0:0:
481,182,136984,1,2,0:0:0:0:
386,76,137198,6,0,B|377:62|398:41|446:59|445:107|399:163|380:176|378:214|387:236,1,209.999993591309,0|0,1:2|0:0,0:0:0:0:
305,238,138270,6,0,L|289:227,1,14.9999995422363,8|0,1:3|0:0,0:0:0:0:
242,229,138484,6,0,L|275:282,1,50,8|0,1:3|0:0,0:0:0:0:
182,302,138698,6,0,L|187:205,1,75.000002861023,8|0,1:3|0:0,0:0:0:0:
95,185,138913,6,0,L|70:311,1,115.000002193451,8|0,1:3|0:0,0:0:0:0:
248,357,139127,5,4,1:2:0:0:
248,357,139556,1,2,0:0:0:0:
337,249,139698,1,2,0:0:0:0:
342,378,139840,1,2,0:0:0:0:
248,242,139983,5,10,0:0:0:0:
327,382,140127,1,2,0:0:0:0:
345,235,140270,1,2,0:0:0:0:
421,349,140413,1,2,0:0:0:0:
422,212,140556,1,0,0:0:0:0:
419,200,140627,1,0,1:2:0:0:
422,189,140698,1,0,0:0:0:0:
486,148,140841,6,0,P|464:118|409:114,1,80,0|0,1:2|0:0,0:0:0:0:
342,34,141270,1,2,1:2:0:0:
308,133,141412,1,2,0:0:0:0:
241,37,141555,1,2,0:0:0:0:
233,170,141698,5,10,0:0:0:0:
119,58,141841,1,2,0:0:0:0:
160,200,141984,1,2,0:0:0:0:
63,183,142127,1,2,0:0:0:0:
63,183,142556,5,2,1:2:0:0:
39,101,142698,1,2,0:0:0:0:
131,228,142841,1,2,0:0:0:0:
20,258,142984,1,2,0:0:0:0:
174,353,143127,2,0,L|199:363,2,20,2|0|0,0:0|1:2|0:0,0:0:0:0:
46,364,143412,5,10,0:0:0:0:
20,258,143556,1,2,0:0:0:0:
131,228,143698,1,2,0:0:0:0:
39,101,143841,2,0,L|44:29,1,60,2|0,0:0|1:2,0:0:0:0:
260,40,144270,5,2,0:0:0:0:
224,140,144413,1,2,0:0:0:0:
349,53,144556,2,0,L|393:45,1,40,2|0,0:0|0:0,0:0:0:0:
318,179,144841,2,0,L|310:135,1,40,2|0,0:0|0:0,0:0:0:0:
448,136,145127,5,10,0:0:0:0:
391,198,145270,1,2,0:0:0:0:
445,248,145413,1,2,0:0:0:0:
405,344,145556,2,0,P|366:319|322:319,1,80,2|0,0:0|0:0,0:0:0:0:
318,179,145984,6,0,B|258:163|279:226|201:209,1,125,8|0,2:3|0:0,0:0:0:0:
164,127,146413,6,0,P|247:113|321:189,1,187.500007152558,8|0,2:3|0:0,0:0:0:0:
193,298,146841,6,0,P|171:188|68:80,1,250,8|0,2:3|0:0,0:0:0:0:
14,119,147260,5,2,0:0:0:0:
174,56,147389,1,2,0:0:0:0:
13,37,147518,1,2,0:0:0:0:
261,155,147698,6,0,P|270:106|274:45,1,75.000002861023,6|2,1:2|0:0,0:0:0:0:
79,304,148037,2,0,P|171:323|241:349,1,150,2|0,0:0|0:0,0:0:0:0:
381,220,148556,5,8,0:0:0:0:
381,220,148984,5,2,0:0:0:0:
357,197,149055,1,0,0:0:0:0:
326,189,149126,1,2,0:0:0:0:
442,164,149270,1,2,0:0:0:0:
252,216,149412,6,0,P|247:177|250:151,2,48.7499977684022,2|2|2,1:2|0:0|0:0,0:0:0:0:
392,298,149733,2,0,P|339:305|280:335,1,113.749994792938,2|0,0:0|0:0,0:0:0:0:
126,237,150127,1,0,0:0:0:0:
132,268,150197,1,0,0:0:0:0:
148,296,150270,1,8,0:0:0:0:
148,296,150698,5,2,0:0:0:0:
233,197,150840,2,0,L|221:237,1,32.4999985122681,2|2,0:0|0:0,0:0:0:0:
85,103,151127,6,0,P|72:64|49:26,1,64.9999970245363,2|0,1:2|0:0,0:0:0:0:
233,197,151447,2,0,P|296:172|350:176,1,113.749994792938,2|0,0:0|0:0,0:0:0:0:
391,293,151840,1,0,0:0:0:0:
384,313,151912,1,0,0:0:0:0:
375,333,151983,5,8,0:0:0:0:
375,333,152412,5,2,1:2:0:0:
487,208,152554,1,2,0:0:0:0:
469,347,152697,1,2,0:0:0:0:
340,134,152840,5,2,0:0:0:0:
392,341,152983,1,2,0:0:0:0:
449,93,153126,2,0,P|390:67|287:54,1,129.999994049073,2|0,0:0|0:0,0:0:0:0:
118,109,153554,1,0,0:0:0:0:
150,105,153626,1,0,0:0:0:0:
180,95,153697,5,10,0:0:0:0:
52,48,153840,1,2,0:0:0:0:
196,22,153983,1,2,0:0:0:0:
52,163,154126,5,2,0:0:0:0:
262,108,154269,1,2,0:0:0:0:
52,48,154412,1,2,0:0:0:0:
245,247,154554,5,6,1:2:0:0:
122,29,154697,1,2,0:0:0:0:
97,319,154840,1,2,0:0:0:0:
97,319,155197,2,0,L|54:325,2,32.4999985122681,0|2|0,0:0|0:0|0:0,0:0:0:0:
239,298,155412,5,10,0:0:0:0:
95,240,155554,1,2,0:0:0:0:
251,189,155697,1,2,0:0:0:0:
172,336,155840,2,0,L|176:384,2,48.7499977684022,2|2|2,1:2|0:0|0:0,1:2:0:0:
183,110,156269,6,0,L|180:150,1,32.4999985122681,2|0,0:0|0:0,0:0:0:0:
277,299,156412,2,0,L|279:266,1,32.4999985122681,2|0,0:0|0:0,0:0:0:0:
375,135,156554,2,0,L|377:167,1,32.4999985122681,2|0,0:0|0:0,0:0:0:0:
432,222,156697,1,0,0:0:0:0:
432,222,156912,5,0,0:0:0:0:
398,217,156983,1,0,0:0:0:0:
365,212,157054,1,0,0:0:0:0:
332,208,157126,5,10,0:0:0:0:
460,138,157269,1,2,0:0:0:0:
333,292,157412,5,10,0:0:0:0:
301,107,157554,1,2,0:0:0:0:
430,304,157697,2,0,L|427:349,1,32.4999985122681,10|2,0:0|0:0,0:0:0:0:
227,278,157983,6,0,L|145:287,1,64.9999970245363,14|0,1:2|0:0,0:0:0:0:
301,107,158269,1,8,0:0:0:0:
282,343,158412,1,0,0:0:0:0:
159,140,158554,6,0,L|108:136,2,32.4999985122681,10|0|2,0:0|1:2|0:0,0:0:0:0:
374,41,158840,1,10,0:0:0:0:
205,207,158983,1,2,0:0:0:0:
446,122,159126,5,10,0:0:0:0:
330,257,159269,2,0,P|358:291|367:310,1,64.9999970245363,2|10,1:2|0:0,0:0:0:0:
374,41,159554,1,2,0:0:0:0:
181,339,159697,5,10,0:3:0:0:
209,343,159769,1,8,0:3:0:0:
238,340,159840,1,10,0:3:0:0:
264,329,159912,1,8,0:0:0:0:
116,178,160126,6,0,L|69:178,2,32.4999985122681,2|0|0,0:0|0:0|0:0,0:0:0:0:
302,102,160340,5,8,0:3:0:0:
266,79,160412,1,10,0:3:0:0:
223,78,160483,1,8,0:3:0:0:
186,98,160554,6,0,L|200:175,1,48.7499977684022,10|0,0:2|0:0,0:0:0:0:
341,321,160769,2,0,L|331:272,1,48.7499977684022,8|0,0:2|0:0,0:0:0:0:
382,45,160983,5,10,0:2:0:0:
116,178,161126,1,10,0:2:0:0:
416,334,161269,1,10,0:2:0:0:
416,334,162187,5,8,1:3:0:0:
488,331,162316,1,8,1:3:0:0:
447,268,162445,1,8,1:3:0:0:
402,353,162574,5,8,1:3:0:0:
512,330,162703,1,8,1:3:0:0:
435,246,162832,1,8,1:3:0:0:
309,361,162961,6,0,B|215:347|215:347|187:361|187:361|63:342,1,225,6|0,1:2|0:0,0:0:0:0:
39,284,163348,1,0,0:0:0:0:
263,273,163542,2,0,L|189:263,1,75,2|0,0:0|0:0,0:0:0:0:
62,126,163735,6,0,L|137:137,1,75,10|0,0:0|0:0,0:0:0:0:
125,212,163929,2,0,L|50:201,1,75,2|0,1:2|0:0,0:0:0:0:
157,56,164122,2,0,B|223:66|223:66|221:57|221:57|222:66|222:66|315:78,1,150,2|0,0:0|0:0,0:0:0:0:
399,92,164413,1,0,0:0:0:0:
356,21,164509,6,0,P|388:100|408:224,1,150,2|0,0:0|0:0,0:0:0:0:
454,265,164800,1,0,0:0:0:0:
484,193,164896,1,2,0:0:0:0:
329,293,165090,6,0,P|336:235|352:200,1,75,2|0,0:0|0:0,0:0:0:0:
207,142,165283,2,0,P|200:200|184:235,1,75,10|0,0:0|0:0,0:0:0:0:
255,305,165477,2,0,P|313:298|348:282,1,75,2|0,0:0|0:0,0:0:0:0:
395,151,165671,2,0,P|359:140|321:138,1,75,2|0,0:0|0:0,0:0:0:0:
104,223,165864,5,0,1:2:0:0:
104,223,165961,1,0,1:2:0:0:
158,302,166058,6,0,B|121:251|141:199|141:199|129:195|129:195|141:199|141:199|158:153|212:139,1,225,6|0,1:2|0:0,0:0:0:0:
316,120,166445,1,0,0:0:0:0:
72,49,166638,2,0,P|90:72|96:134,1,75,2|0,1:2|0:0,0:0:0:0:
288,187,166832,6,0,P|293:150|315:119,1,75,10|0,0:0|0:0,0:0:0:0:
234,74,167025,2,0,P|228:110|206:141,1,75,2|0,0:0|0:0,0:0:0:0:
261,287,167219,6,0,P|344:256|475:238,1,150,2|0,1:2|0:0,0:0:0:0:
305,47,167509,1,0,0:0:0:0:
234,74,167606,6,0,P|212:104|206:140,1,75,2|0,0:0|0:0,0:0:0:0:
288,187,167800,2,0,P|309:156|315:120,1,75,0|0,1:2|0:0,0:0:0:0:
163,28,167993,2,0,P|111:27|70:38,1,75,2|0,0:0|0:0,0:0:0:0:
151,316,168187,6,0,P|192:337|251:334,1,82.5000025177003,2|0,0:0|0:0,0:0:0:0:
206,140,168380,2,0,P|223:108|231:58,1,82.5000025177003,10|0,0:0|0:0,0:0:0:0:
214,240,168574,6,0,P|249:231|291:201,1,82.5000025177003,2|0,1:2|0:0,0:0:0:0:
130,75,168767,2,0,P|116:30|71:-6,1,82.5000025177003,2|0,0:0|0:0,0:0:0:0:
23,271,168961,5,8,0:3:0:0:
51,284,169025,5,8,0:3:0:0:
81,295,169090,5,8,0:3:0:0:
110,303,169154,6,0,P|204:316|293:298,1,165.000005035401,6|0,1:2|0:0,0:0:0:0:
431,155,169445,1,0,0:0:0:0:
370,195,169542,6,0,P|383:261|415:293,1,82.5000025177003,2|0,0:0|0:0,0:0:0:0:
468,257,169735,2,0,P|455:323|423:355,1,82.5000025177003
259,375,169929,5,8,0:0:0:0:
329,317,170122,2,0,P|261:279|175:341,1,150,2|0,1:2|0:0,0:0:0:0:
81,375,170509,6,0,B|60:272|132:328|105:184,1,165.000005035401,2|0,0:0|0:0,0:0:0:0:
93,63,170800,1,0,0:0:0:0:
54,134,170896,2,0,L|195:143,1,82.5000025177003,2|0,1:2|0:0,0:0:0:0:
230,84,171090,1,0,0:0:0:0:
230,84,171283,6,0,L|175:22,1,82.5000025177003,2|0,0:0|0:0,0:0:0:0:
368,223,171477,2,0,L|429:168,1,82.5000025177003,10|0,0:0|0:0,0:0:0:0:
333,42,171671,6,0,L|328:125,1,82.5000025177003,2|0,0:0|0:0,0:0:0:0:
327,321,171864,2,0,L|409:326,1,82.5000025177003,2|0,0:0|0:0,0:0:0:0:
129,239,172058,5,0,1:2:0:0:
129,239,172154,1,0,1:2:0:0:
208,213,172251,6,0,B|200:287|200:287|208:304|208:304|195:384,1,165.000005035401,6|0,1:2|0:0,0:0:0:0:
63,374,172542,1,0,0:0:0:0:
118,321,172638,2,0,L|136:188,1,82.5000025177003,2|0,0:0|0:0,0:0:0:0:
56,213,172832,2,0,L|44:294,1,82.5000025177003,0|0,1:2|0:0,0:0:0:0:
157,67,173025,5,8,0:0:0:0:
35,101,173219,2,0,B|116:84|85:166|190:140,1,165.000005035401,2|0,0:0|1:2,0:0:0:0:
372,61,173606,6,0,B|365:18|327:3|327:3|277:44|284:118|333:165,1,247.500007553101,2|0,0:0|0:0,0:0:0:0:
381,327,173993,6,0,B|405:317|405:317|376:292|289:304,1,140.625,2|0,1:2|0:0,0:0:0:0:
282,303,174187,6,0,B|258:293|258:293|298:261|364:268|417:286,1,168.750006437302,10|0,2:3|0:0,0:0:0:0:
406,277,174380,6,0,B|430:267|430:267|374:226|303:233|245:256,1,202.499993820191,10|0,2:3|0:0,0:0:0:0:
176,266,174574,5,10,2:3:0:0:
176,266,175154,5,8,0:3:0:0:
198,232,175218,5,8,0:3:0:0:
213,194,175283,5,8,0:3:0:0:
220,154,175348,6,0,B|187:133|187:133|173:148|173:148|68:136,1,165.000005035401,4|0,1:2|0:0,0:0:0:0:
0,86,175638,1,0,0:0:0:0:
78,54,175735,2,0,L|68:135,1,82.5000025177003,2|0,0:0|0:0,0:0:0:0:
4,214,175929,2,0,L|13:295,1,82.5000025177003,2|0,0:0|0:0,0:0:0:0:
174,273,176122,6,0,L|164:191,1,82.5000025177003,10|0,0:0|0:0,0:0:0:0:
86,213,176316,2,0,L|95:294,1,82.5000025177003,2|0,1:2|0:0,0:0:0:0:
268,357,176509,6,0,L|290:161,1,165.000005035401,2|0,0:0|0:0,0:0:0:0:
300,86,176800,1,0,0:0:0:0:
225,142,176896,2,0,P|315:119|365:185,2,165.000005035401,2|0|0,0:0|1:2|0:0,0:0:0:0:
380,373,177477,6,0,P|434:371|474:346,1,82.5000025177003,2|0,0:0|0:0,0:0:0:0:
438,150,177671,2,0,P|384:152|344:177,1,82.5000025177003,10|0,0:0|0:0,0:0:0:0:
406,300,177864,2,0,P|421:262|420:221,1,82.5000025177003,2|0,0:0|0:0,0:0:0:0:
359,164,178058,2,0,P|343:201|344:242,1,82.5000025177003,2|0,0:0|0:0,0:0:0:0:
512,119,178251,2,0,P|472:82|426:71,1,82.5000025177003,2|0,1:2|0:0,0:0:0:0:
227,213,178445,6,0,B|151:220|151:220|150:232|150:232|49:242,1,165.000005035401,6|0,1:2|0:0,0:0:0:0:
12,134,178735,1,0,0:0:0:0:
73,86,178832,2,0,P|89:123|83:163,1,82.5000025177003,2|0,0:0|0:0,0:0:0:0:
216,290,179025,2,0,P|210:249|226:212,1,82.5000025177003,2|0,1:2|0:0,0:0:0:0:
120,26,179219,6,0,P|82:9|42:15,1,82.5000025177003,10|0,0:0|0:0,0:0:0:0:
7,266,179412,2,0,P|44:282|84:276,1,82.5000025177003,2|0,0:0|0:0,0:0:0:0:
236,85,179606,6,0,P|273:68|385:117,1,165.000005035401,2|0,1:2|0:0,0:0:0:0:
412,234,179896,1,0,0:0:0:0:
326,191,179993,2,0,P|404:207|471:163,2,165.000005035401,2|0|0,0:0|1:2|0:0,0:0:0:0:
164,262,180574,6,0,P|171:309|223:355,1,89.9999972534181,2|0,0:0|0:0,0:0:0:0:
106,97,180767,2,0,P|61:102|26:129,1,89.9999972534181,10|0,0:0|0:0,0:0:0:0:
101,192,180961,6,0,P|73:227|68:271,1,89.9999972534181,2|0,1:2|0:0,0:0:0:0:
177,35,181154,2,0,P|138:6|69:10,1,89.9999972534181,10|0,0:0|0:0,0:0:0:0:
304,286,181348,5,0,1:2:0:0:
304,286,181445,1,0,1:2:0:0:
412,234,181542,6,0,B|384:193|354:181|354:181|358:171|358:171|354:180|354:180|311:163|262:179,1,179.999994506836,6|0,1:2|0:0,0:0:0:0:
386,313,181832,1,0,0:0:0:0:
462,298,181929,2,0,P|492:249|483:193,1,89.9999972534181,2|0,0:0|0:0,0:0:0:0:
386,313,182122,2,0,P|413:363|466:383,1,89.9999972534181,0|0,0:0|0:0,0:0:0:0:
394,62,182316,5,8,0:0:0:0:
483,95,182509,2,0,B|390:51|417:143|299:102,1,179.999994506836,2|0,1:2|0:0,0:0:0:0:
51,66,182896,6,0,B|66:16|157:26|164:88|121:163,1,179.999994506836,2|0,0:0|0:0,0:0:0:0:
89,226,183187,1,0,0:0:0:0:
53,155,183283,2,0,L|50:52,1,89.9999972534181,2|0,1:2|0:0,0:0:0:0:
177,212,183477,1,0,0:0:0:0:
177,212,183671,6,0,L|174:301,1,89.9999972534181,2|0,0:0|0:0,0:0:0:0:
408,143,183864,2,0,L|318:140,1,89.9999972534181,10|0,0:0|0:0,0:0:0:0:
265,211,184058,6,0,L|326:276,1,89.9999972534181,2|0,0:0|0:0,0:0:0:0:
358,0,184251,2,0,L|292:61,1,89.9999972534181,2|0,0:0|0:0,0:0:0:0:
399,322,184445,5,0,1:2:0:0:
399,322,184542,1,0,1:2:0:0:
476,279,184638,6,0,B|446:292|429:302|421:347|421:347|399:358|369:363|320:349,1,179.999994506836,6|0,1:2|0:0,0:0:0:0:
173,336,184929,1,0,0:0:0:0:
261,370,185025,2,0,P|273:306|309:268,1,89.9999972534181,2|0,0:0|0:0,0:0:0:0:
198,252,185219,2,0,P|186:316|150:354,1,89.9999972534181,0|0,1:2|0:0,0:0:0:0:
66,132,185412,5,8,0:0:0:0:
108,262,185606,2,0,P|132:182|259:170,1,179.999994506836,2|0,0:0|1:2,0:0:0:0:
453,73,185993,6,0,B|442:40|423:24|423:24|365:37|353:99|384:149,1,179.999994506836,2|0,0:0|0:0,0:0:0:0:
413,238,186283,1,0,0:0:0:0:
445,160,186380,2,0,P|457:91|443:52,1,89.9999972534181,2|0,1:2|0:0,0:0:0:0:
244,24,186574,1,0,0:0:0:0:
244,24,186767,6,0,P|238:68|251:111,1,89.9999972534181,2|0,0:0|0:0,0:0:0:0:
405,325,186961,2,0,P|417:282|412:237,1,89.9999972534181,10|0,0:0|0:0,0:0:0:0:
158,153,187154,6,0,P|185:188|224:209,1,89.9999972534181,0|0,1:2|0:0,0:0:0:0:
512,217,187348,2,0,P|484:181|445:160,1,89.9999972534181,2|0,0:0|0:0,0:0:0:0:
99,335,187542,5,10,0:3:0:0:
144,341,187606,5,8,0:3:0:0:
189,347,187671,5,8,0:3:0:0:
235,353,187735,5,4,1:2:0:0:
158,153,188122,5,2,0:2:0:0:
113,238,188251,2,0,P|193:224|267:219,1,120,2|0,0:2|0:0,0:0:0:0:
306,221,188509,6,0,L|304:205,2,15,10|0|0,0:2|1:0|0:0,0:0:0:0:
167,57,189283,5,2,0:2:0:0:
39,122,189412,2,0,B|130:88|114:172|237:122,1,172.500003290176,2|0,0:2|0:0,0:0:0:0:
76,199,189671,5,2,0:2:0:0:
233,272,189800,2,0,B|127:233|146:330|5:272,1,225.000008583069,2|0,0:2|0:0,0:0:0:0:
188,376,190058,6,0,P|184:356|186:340,1,35,2|0,0:2|0:0,0:0:0:0:
