osu file format v14

[General]
AudioFilename: audio.mp3
AudioLeadIn: 0
PreviewTime: 49072
Countdown: 0
SampleSet: Soft
StackLeniency: 0.4
Mode: 0
LetterboxInBreaks: 0
WidescreenStoryboard: 0

[Editor]
Bookmarks: 18431,37580,49959,90191,102597
DistanceSpacing: 0.9
BeatDivisor: 6
GridSize: 8
TimelineZoom: 1.4

[Metadata]
Title:GIANTS (feat. Becky G, Keke Palmer, SOYEON, DUCKWRTH, Thutmose)
TitleUnicode:GIANTS (feat. Becky G, Keke Palmer, 소연, DUCKWRTH, Thutmose)
Artist:True Damage
ArtistUnicode:True Damage
Creator:Sylas
Version:Extra
Source:League of Legends
Tags:(G)I-DLE Akali Yasuo Qiyana Senna Ekko salty Sanzu_Alternate hip-hop rap video game riot games music team popstars kda worlds 2019 english korean spanish saltylucario saltking huonguithu thekoala hip hop
BeatmapID:2227419
BeatmapSetID:1063804

[Difficulty]
HPDrainRate:6
CircleSize:4
OverallDifficulty:8.5
ApproachRate:9.2
SliderMultiplier:1.5
SliderTickRate:1

[Events]
//Background and Video events
0,0,"truedamage.jpg",0,0
Video,0,"giants.mp4"
//Break Periods
//Storyboard Layer 0 (Background)
//Storyboard Layer 1 (Fail)
//Storyboard Layer 2 (Pass)
//Storyboard Layer 3 (Foreground)
//Storyboard Layer 4 (Overlay)
//Storyboard Sound Samples

[TimingPoints]
492,387.096774193548,4,2,1,50,1,0
6686,-133.333333333333,4,2,1,50,0,0
12870,-100,4,2,1,50,0,0
25249,-83.3333333333333,4,2,1,50,0,0
30665,-66.6666666666667,4,2,1,50,0,0
31439,-83.3333333333333,4,2,1,50,0,0
37241,-66.6666666666667,4,2,1,50,0,0
37628,-200,4,2,1,50,0,0
43818,-133.333333333333,4,2,1,50,0,0
46913,-100,4,2,1,65,0,0
49814,-71.4285714285714,4,2,1,65,0,0
50040,-71.4285714285714,4,2,1,75,0,1
57164,-58.8235294117647,4,2,1,75,0,1
57589,-71.4285714285714,4,2,1,75,0,1
62427,-90.9090909090909,4,2,1,55,0,0
76266,-90.9090909090909,4,2,1,5,0,0
76362,-90.9090909090909,4,2,1,55,0,0
80207,-66.6666666666667,4,2,1,55,0,0
80981,-83.3333333333333,4,2,1,55,0,0
90008,-83.3333333333333,4,2,1,5,0,0
90265,-200,4,2,1,55,0,0
96455,-133.333333333333,4,2,1,55,0,0
99550,-100,4,2,1,65,0,0
102685,-71.4285714285714,4,2,1,75,0,1
109846,-58.8235294117647,4,2,1,75,0,1
110233,-71.4285714285714,4,2,1,75,0,1
114298,-71.4285714285714,4,2,1,75,0,0
115072,-66.6666666666667,4,2,1,75,0,1
122233,-55.5555555555556,4,2,1,75,0,1
122621,-66.6666666666667,4,2,1,75,0,1
127459,-66.6666666666667,4,2,1,65,0,0
130556,428.571428571429,4,2,1,55,1,0
131413,-71.4285714285714,4,2,1,55,0,0
131466,-100,4,2,1,5,0,0
131734,-100,4,2,1,55,0,0
132163,-100,4,2,1,5,0,0
132270,-100,4,2,1,55,0,0
138341,-100,4,2,1,5,0,0
138484,-100,4,2,1,55,0,0
138556,-100,4,2,1,5,0,0
138698,-100,4,2,1,55,0,0
138770,-100,4,2,1,5,0,0
138913,-100,4,2,1,55,0,0
138984,-100,4,2,1,5,0,0
139127,-100,4,2,1,55,0,0
145984,-50,4,2,1,55,0,0
146056,-50,4,2,1,5,0,0
146413,-50,4,2,1,55,0,0
146484,-50,4,2,1,5,0,0
146841,-50,4,2,1,55,0,0
146913,-50,4,2,1,5,0,0
147260,387.096774193548,4,2,1,55,1,0
147270,-76.9230769230769,4,2,1,55,0,0
147698,428.571428571429,4,2,1,55,1,0
147698,-71.4285714285714,4,2,1,55,0,0
148037,388.60103626943,4,2,1,55,1,0
148555,428.571428571429,4,2,1,55,1,0
149412,428.571428571429,4,2,1,55,1,0
149412,-76.9230769230769,4,2,1,55,0,0
161413,387.096774193548,4,2,1,65,1,0
162961,-66.6666666666667,4,2,1,80,0,1
170122,-52.6315789473684,4,2,1,80,0,1
170509,-66.6666666666667,4,2,1,80,0,1
174574,-66.6666666666667,4,2,1,80,0,0
175348,-62.5,4,2,1,80,0,1
182509,-50,4,2,1,80,0,1
182896,-62.5,4,2,1,80,0,1
187735,-71.4285714285714,4,2,1,80,0,0
190058,-133.333333333333,4,2,1,80,0,0

[Colours]
Combo1 : 235,163,65
Combo2 : 63,63,199
Combo3 : 203,34,227

[HitObjects]
115,144,6686,6,0,P|114:213|155:252,1,112.500004291535,0|0,1:2|0:0,0:0:0:0:
183,177,7266,1,0,1:2:0:0:
50,309,7460,2,0,B|116:291|91:336|164:317,2,112.500004291535,8|0|0,0:0|0:0|0:0,0:0:0:0:
140,243,8427,5,0,1:2:0:0:
140,243,8815,1,0,0:0:0:0:
244,336,9008,2,0,P|234:289|222:263,1,56.2500021457673,8|0,0:0|0:0,0:0:0:0:
282,227,9395,2,0,P|261:213|248:208,1,28.1250010728836,0|0,1:2|0:0,0:0:0:0:
258,140,9589,2,0,P|234:144|221:151,1,28.1250010728836,0|0,0:0|0:0,0:0:0:0:
216,70,10363,5,0,1:2:0:0:
331,167,10557,2,0,P|372:155|399:134,1,56.2500021457673,8|0,0:2|0:0,0:0:0:0:
387,71,10944,1,0,1:2:0:0:
387,71,11524,6,0,L|379:40,3,18.7500007152558,8|8|8|8,0:3|0:3|0:3|0:3,0:0:0:0:
435,213,11911,1,8,0:3:0:0:
480,27,12105,1,8,0:2:0:0:
200,298,12879,5,6,1:2:0:0:
196,258,12976,1,2,0:0:0:0:
177,223,13073,1,2,0:0:0:0:
123,279,13266,1,2,0:0:0:0:
283,320,13460,5,2,1:2:0:0:
280,280,13556,1,2,0:0:0:0:
271,240,13653,1,10,0:2:0:0:
257,202,13750,1,0,0:0:0:0:
238,167,13847,1,2,0:0:0:0:
123,279,14040,1,2,1:2:0:0:
384,330,14234,1,2,0:0:0:0:
384,330,14621,6,0,P|390:291|400:274,1,37.5,2|2,1:2|0:0,0:0:0:0:
438,240,14815,1,2,0:0:0:0:
333,181,15008,1,2,1:2:0:0:
327,143,15105,1,2,0:0:0:0:
314,109,15202,1,10,0:2:0:0:
481,61,15395,1,2,0:0:0:0:
468,95,15492,1,2,0:0:0:0:
462,133,15589,1,2,1:2:0:0:
249,37,15782,1,2,0:0:0:0:
406,49,15975,6,0,P|323:97|303:126,1,112.5
246,138,16362,2,0,P|238:114|238:93,2,25,2|0|0,0:0|0:0|0:0,0:0:0:0:
309,180,16556,1,0,1:2:0:0:
114,70,16750,6,0,P|128:118|129:206,1,112.5,10|0,0:2|0:0,0:0:0:0:
20,292,17137,2,0,B|90:253|80:323|181:278,1,150,2|0,1:2|0:0,0:0:0:0:
128,217,17718,2,0,P|99:208|76:208,1,37.5,2|2,1:2|0:0,0:0:0:0:
164,284,17911,1,2,0:0:0:0:
212,166,18105,1,2,0:0:0:0:
253,336,18299,6,0,P|248:305|251:282,1,37.5,10|0,0:2|0:0,0:0:0:0:
329,324,18492,2,0,P|328:305|324:287,1,37.5,10|0,0:2|0:0,0:0:0:0:
277,230,18686,1,2,0:0:0:0:
457,361,18879,2,0,P|404:368|368:387,1,75,2|0,0:0|1:2,0:0:0:0:
512,121,19266,5,2,0:0:0:0:
410,293,19460,1,2,0:0:0:0:
353,103,19653,1,2,1:2:0:0:
457,361,19847,5,10,0:2:0:0:
436,103,20040,1,2,0:0:0:0:
339,305,20234,1,2,1:2:0:0:
268,99,20427,2,0,P|226:112|144:124,1,112.5,2|0,0:0|0:0,0:0:0:0:
64,82,20815,6,0,P|72:113|72:148,1,37.5,2|0,1:2|0:0,0:0:0:0:
125,39,21008,1,2,0:0:0:0:
66,240,21202,1,2,1:2:0:0:
220,30,21395,5,10,0:2:0:0:
175,281,21589,1,2,0:0:0:0:
125,39,21782,1,2,1:2:0:0:
184,293,21976,1,2,0:0:0:0:
346,55,22169,6,0,P|411:59|431:66,1,75,0|0,1:2|0:0,0:0:0:0:
455,133,22459,2,0,L|446:183,1,37.5
364,256,22653,5,2,0:0:0:0:
357,265,22750,1,2,1:2:0:0:
346,55,22944,1,10,0:2:0:0:
451,260,23137,1,2,0:0:0:0:
261,83,23331,1,2,1:2:0:0:
277,310,23524,1,2,0:0:0:0:
346,55,23718,5,2,0:0:0:0:
372,81,23815,1,2,0:0:0:0:
394,111,23911,1,2,1:2:0:0:
183,50,24105,1,2,0:0:0:0:
314,251,24298,5,2,0:0:0:0:
324,206,24395,1,0,0:0:0:0:
329,160,24492,1,10,0:2:0:0:
188,134,24685,6,0,P|200:147|207:151,3,25,10|8|8|10,0:2|0:2|0:2|0:2,0:0:0:0:
366,27,25072,1,8,0:3:0:0:
460,196,25266,6,0,P|461:231|460:255,1,44.999998626709,14|0,1:2|0:0,0:0:0:0:
414,303,25460,2,0,P|413:338|414:362,1,44.999998626709,2|0,0:0|0:0,0:0:0:0:
379,222,25653,1,2,0:0:0:0:
337,204,25750,1,2,0:0:0:0:
293,202,25847,1,2,1:2:0:0:
195,143,26040,6,0,P|202:191|204:211,1,44.999998626709,10|0,0:2|0:0,0:0:0:0:
247,262,26234,2,0,P|240:310|238:330,1,44.999998626709,2|0,0:0|0:0,0:0:0:0:
277,121,26427,1,2,1:2:0:0:
253,83,26524,1,2,0:0:0:0:
216,57,26621,1,2,0:0:0:0:
134,94,26815,6,0,P|86:101|66:103,1,44.999998626709,2|0,0:0|0:0,0:0:0:0:
10,179,27008,1,2,1:2:0:0:
54,176,27105,1,2,0:0:0:0:
94,196,27202,1,2,0:0:0:0:
119,233,27298,1,2,0:0:0:0:
123,277,27395,1,2,0:0:0:0:
47,318,27589,6,0,P|42:266|45:241,1,44.999998626709,10|0,0:2|0:0,0:0:0:0:
205,222,27782,1,2,0:0:0:0:
248,218,27879,1,2,0:0:0:0:
293,230,27976,1,2,1:2:0:0:
330,254,28073,1,2,0:0:0:0:
371,274,28169,1,2,0:0:0:0:
415,278,28266,1,2,0:0:0:0:
460,270,28363,6,0,P|465:224|477:190,1,44.999998626709,2|0,1:2|0:0,0:0:0:0:
432,153,28556,1,2,0:0:0:0:
432,108,28653,1,2,0:0:0:0:
441,64,28750,1,2,0:0:0:0:
344,121,28944,5,2,1:2:0:0:
316,85,29040,1,2,0:0:0:0:
270,80,29137,1,10,0:2:0:0:
225,158,29331,5,2,0:0:0:0:
180,162,29427,1,2,0:0:0:0:
138,178,29524,1,2,1:2:0:0:
42,99,29718,6,0,P|53:139|53:171,1,44.999998626709,2|2,0:0|0:0,0:0:0:0:
68,219,29911,1,2,0:0:0:0:
125,35,30104,1,2,1:2:0:0:
79,310,30298,6,0,P|30:309|-2:309,1,44.999998626709,2|0,0:0|0:0,0:0:0:0:
201,244,30492,1,2,1:2:0:0:
245,250,30589,1,2,0:0:0:0:
288,263,30685,2,0,P|346:260|376:253,1,56.2500021457673,10|0,0:2|0:0,0:0:0:0:
400,181,30879,5,2,0:0:0:0:
198,114,31073,5,2,0:0:0:0:
240,330,31266,5,2,1:2:0:0:
323,35,31460,6,0,P|317:95|323:140,1,89.9999972534181,0|2,1:2|0:0,0:0:0:0:
356,201,31750,1,2,0:0:0:0:
333,162,31847,1,2,0:0:0:0:
298,134,31944,1,2,0:0:0:0:
255,123,32040,1,2,1:2:0:0:
211,129,32137,1,2,0:0:0:0:
172,151,32234,6,0,P|114:164|66:152,1,89.9999972534181,10|0,0:2|0:0,0:0:0:0:
249,216,32621,1,0,1:2:0:0:
128,37,32815,2,0,P|125:72|119:102,1,44.999998626709,2|0,0:0|0:0,0:0:0:0:
85,159,33008,5,2,0:0:0:0:
231,44,33202,1,2,1:2:0:0:
275,41,33298,1,2,0:0:0:0:
317,57,33395,1,2,0:0:0:0:
407,41,33589,2,0,P|396:75|395:101,1,44.999998626709,2|0,1:2|0:0,0:0:0:0:
402,193,33782,6,0,P|444:163|515:165,1,89.9999972534181,10|0,0:2|0:0,0:0:0:0:
306,157,34169,2,0,L|271:154,3,29.9999990844727,2|0|0|2,1:2|0:0|0:0|0:0,0:0:0:0:
468,359,34556,6,0,P|474:319|481:293,1,44.999998626709,2|0,1:2|0:0,0:0:0:0:
386,271,34750,1,2,0:0:0:0:
345,289,34847,1,2,0:0:0:0:
300,292,34944,1,2,0:0:0:0:
221,351,35137,5,2,1:2:0:0:
209,308,35234,1,2,0:0:0:0:
170,287,35331,1,10,0:2:0:0:
52,308,35524,5,2,0:0:0:0:
96,302,35621,1,2,0:0:0:0:
136,283,35718,1,2,1:2:0:0:
167,251,35815,1,2,0:0:0:0:
186,210,35911,1,2,0:0:0:0:
189,165,36008,1,2,0:0:0:0:
178,122,36105,1,2,0:0:0:0:
78,94,36298,6,0,P|97:137|103:155,1,44.999998626709,2|0,1:2|0:0,0:0:0:0:
151,41,36492,1,2,0:0:0:0:
262,265,36685,1,2,1:2:0:0:
422,54,36879,2,0,P|413:106|456:183,1,134.999995880127,10|0,0:2|0:0,0:0:0:0:
408,249,37266,6,0,B|463:250|465:185|363:180|312:256,1,168.750006437302,2|0,0:0|0:0,0:0:0:0:
244,213,37653,6,0,P|242:252|212:366,1,150,2|0,0:0|0:0,0:0:0:0:
304,352,39201,5,2,0:0:0:0:
364,275,39491,1,2,0:0:0:0:
268,260,39782,1,2,0:0:0:0:
391,345,39975,5,2,0:0:0:0:
372,201,40266,1,2,0:0:0:0:
353,58,40556,1,2,0:0:0:0:
167,236,40847,6,0,P|184:190|191:142,1,93.75,2|2,0:0|0:0,0:0:0:0:
122,94,41524,2,0,L|77:105,1,37.5,2|0,0:0|0:0,0:0:0:0:
216,49,41911,6,0,P|257:65|335:76,2,112.5,2|0|0,0:0|0:0|0:0,0:0:0:0:
425,46,43847,6,0,P|424:106|462:215,1,168.750006437302,2|0,0:0|0:0,0:0:0:0:
400,282,44621,1,0,0:0:0:0:
180,230,45395,5,2,0:0:0:0:
276,338,45685,1,2,0:0:0:0:
400,282,45975,1,2,0:0:0:0:
241,159,46169,5,2,0:0:0:0:
186,325,46459,1,2,0:0:0:0:
341,376,46750,1,2,0:0:0:0:
119,206,46944,6,0,P|136:151|141:114,1,75,10|0,0:0|1:2,0:0:0:0:
258,249,47331,2,0,P|275:304|280:341,1,75,8|0,0:0|1:2,0:0:0:0:
236,106,47718,2,0,P|228:69|216:33,1,75,10|0,0:0|1:2,0:0:0:0:
375,332,48104,5,10,0:0:0:0:
511,146,48297,1,8,0:0:0:0:
319,142,48491,5,8,0:0:0:0:
361,194,48620,1,8,0:0:0:0:
386,132,48749,1,8,0:0:0:0:
356,158,48878,5,0,3:0:0:0:
356,158,49846,6,0,P|359:136|364:120,2,34.9999989318848,8|10|0,0:0|0:0|0:0,0:0:0:0:
355,275,50040,6,0,B|256:255|287:352|134:318,1,209.999993591309,6|0,1:2|0:0,0:0:0:0:
88,241,50621,2,0,P|85:278|77:315,1,52.4999983978272,2|0,0:0|0:0,0:0:0:0:
189,219,50815,5,10,0:0:0:0:
57,119,51008,1,2,1:2:0:0:
272,174,51202,2,0,P|338:157|447:178,1,157.499995193482,2|0,0:0|0:0,0:0:0:0:
488,125,51589,6,0,P|505:181|478:235,1,104.999996795654,2|0,0:0|1:2,0:0:0:0:
356,310,51976,1,2,0:0:0:0:
224,91,52169,5,2,0:0:0:0:
271,322,52363,1,10,0:0:0:0:
398,58,52556,1,2,0:0:0:0:
445,289,52750,1,2,0:0:0:0:
322,114,52943,2,0,L|311:41,1,52.4999983978272,0|0,1:2|1:2,0:0:0:0:
271,322,53137,6,0,P|223:274|58:262,1,209.999993591309,6|0,1:2|0:0,0:0:0:0:
12,362,53718,2,0,P|32:316|34:296,1,52.4999983978272,2|0,1:2|0:0,0:0:0:0:
28,168,53911,5,10,0:0:0:0:
134,342,54105,1,2,0:0:0:0:
107,138,54298,2,0,P|100:82|108:24,1,104.999996795654,2|0,1:2|0:0,0:0:0:0:
375,197,54685,6,0,P|343:152|240:165,1,157.499995193482,2|0,0:0|0:0,0:0:0:0:
298,219,55073,1,2,0:0:0:0:
461,71,55266,5,2,0:0:0:0:
342,312,55460,1,10,0:0:0:0:
284,58,55653,1,2,1:2:0:0:
486,270,55847,1,2,0:0:0:0:
269,183,56040,2,0,L|232:190,2,34.9999989318848,8|8|8,0:3|0:3|0:3,0:0:0:0:
376,128,56234,6,0,L|348:279,1,104.999996795654,6|0,1:2|0:0,0:0:0:0:
157,234,56621,2,0,P|155:142|265:91,1,209.999993591309,2|8,0:0|0:0,0:0:0:0:
478,275,57202,6,0,B|373:250|413:333|287:307,1,191.250003647804,2|0,1:2|0:0,0:0:0:0:
236,257,57589,6,0,P|219:299|234:355,1,104.999996795654,2|0,0:0|0:0,0:0:0:0:
419,178,57976,2,0,P|397:121|317:57,1,157.499995193482,2|0,1:2|0:0,0:0:0:0:
250,62,58363,5,2,0:0:0:0:
380,271,58556,1,10,0:0:0:0:
462,49,58750,1,2,0:0:0:0:
223,132,58944,1,2,0:0:0:0:
489,298,59137,2,0,P|483:244|496:211,1,52.4999983978272,0|0,1:2|1:2,0:0:0:0:
314,200,59331,6,0,P|241:204|183:221,1,104.999996795654,6|0,1:2|0:0,0:0:0:0:
462,49,59718,2,0,P|420:125|398:272,1,209.999993591309,2|0,0:0|0:0,0:0:0:0:
209,277,60298,6,0,P|178:214|76:197,1,157.499995193482,2|0,0:0|0:0,0:0:0:0:
32,239,60685,6,0,L|52:373,1,104.999996795654,2|0,0:0|0:0,0:0:0:0:
195,56,61073,1,2,1:2:0:0:
58,87,61266,5,2,0:0:0:0:
109,88,61363,1,2,0:0:0:0:
153,116,61460,1,2,0:0:0:0:
203,130,61556,1,2,0:0:0:0:
195,56,61653,5,8,0:0:0:0:
195,56,62815,6,0,L|259:66,1,55.0000016784668,2|0,0:2|0:0,0:0:0:0:
195,56,63202,2,0,L|273:210,1,165.000005035401,2|0,0:2|0:0,0:0:0:0:
471,329,63976,6,0,L|407:339,1,55.0000016784668,2|0,0:2|0:0,0:0:0:0:
471,329,64363,2,0,L|418:290,1,55.0000016784668,2|0,0:2|0:0,0:0:0:0:
471,329,64750,2,0,L|444:156,1,165.000005035401,2|0,0:2|0:0,0:0:0:0:
95,271,65524,6,0,B|155:252|142:312|217:284,1,110.000003356934,4|0,0:2|0:0,0:0:0:0:
258,240,65911,2,0,L|274:157,1,55.0000016784668,2|2,0:0|0:0,0:0:0:0:
187,210,66169,1,2,0:0:0:0:
270,328,66298,6,0,P|321:306|395:307,1,110.000003356934,10|0,0:0|0:0,0:0:0:0:
453,279,66685,2,0,P|450:328|440:365,1,55.0000016784668,2|2,1:2|0:0,0:0:0:0:
393,230,66944,1,2,0:0:0:0:
512,156,67073,5,2,0:0:0:0:
460,207,67202,1,2,0:0:0:0:
435,127,67331,1,2,0:0:0:0:
368,159,67460,1,2,0:0:0:0:
311,114,67589,1,2,0:0:0:0:
256,170,67718,1,2,0:0:0:0:
166,122,67847,6,0,L|175:43,1,55.0000016784668,10|0,0:0|0:0,0:0:0:0:
212,237,68105,1,2,0:0:0:0:
63,127,68234,2,0,L|72:206,1,55.0000016784668,2|0,0:2|0:0,0:0:0:0:
142,307,68491,2,0,L|146:260,1,27.5000008392334,8|8,0:3|0:3,0:3:0:0:
89,359,68621,6,0,P|157:340|239:351,1,123.75000377655,0|0,1:2|0:0,0:0:0:0:
284,319,69008,2,0,P|283:347|280:384,2,41.2500012588501,2|0|0,0:0|0:0|1:2,0:0:0:0:
369,337,69395,6,0,P|368:272|403:194,1,110.000003356934,10|0,0:0|0:0,0:0:0:0:
434,165,69782,1,2,1:2:0:0:
338,150,69911,1,2,0:0:0:0:
435,154,70040,1,2,0:0:0:0:
377,80,70169,6,0,P|303:71|253:95,1,110.000003356934,2|0,0:0|0:0,0:0:0:0:
218,145,70556,1,2,0:0:0:0:
187,74,70685,1,2,0:0:0:0:
201,149,70815,1,2,0:0:0:0:
115,111,70943,6,0,P|120:152|128:163,1,41.2500012588501,8|0,0:0|0:0,0:0:0:0:
119,294,71137,2,0,P|114:253|106:242,1,41.2500012588501,8|0,0:0|0:0,0:0:0:0:
55,207,71330,2,0,P|51:193|49:185,2,20.6250006294251,2|0|0,0:0|0:0|0:0,0:0:0:0:
12,272,71524,1,10,0:3:0:0:
245,353,71718,5,6,1:2:0:0:
256,121,71911,1,2,0:0:0:0:
152,293,72105,1,2,0:0:0:0:
337,227,72298,1,2,1:2:0:0:
116,53,72492,5,10,0:0:0:0:
227,258,72685,1,2,0:0:0:0:
261,66,72879,1,2,1:2:0:0:
116,159,73073,1,2,0:0:0:0:
380,303,73266,5,2,0:0:0:0:
261,66,73460,1,2,1:2:0:0:
227,258,73653,1,2,0:0:0:0:
351,127,73847,1,2,0:0:0:0:
304,348,74040,5,10,0:0:0:0:
179,105,74234,1,2,1:2:0:0:
156,368,74427,1,2,0:0:0:0:
273,121,74621,2,0,P|269:97|262:82,2,27.5000008392334,8|8|8,0:3|0:3|0:3,0:0:0:0:
319,230,74815,5,2,1:2:0:0:
156,185,75008,1,2,0:0:0:0:
395,167,75202,2,0,P|399:143|402:136,2,20.6250006294251,2|0|0,0:0|0:0|0:0,0:0:0:0:
354,309,75395,1,2,1:2:0:0:
228,127,75589,5,10,0:0:0:0:
400,242,75782,1,2,0:0:0:0:
106,245,75976,2,0,L|247:259,1,123.75000377655,2|0,1:2|0:0,0:0:0:0:
301,265,76363,1,0,0:0:0:0:
301,265,77137,6,0,P|299:218|291:197,1,41.2500012588501,2|0,0:0|0:0,0:0:0:0:
318,153,77331,2,0,P|283:121|262:111,1,41.2500012588501,2|0,0:0|0:0,0:0:0:0:
231,69,77524,5,10,0:0:0:0:
120,208,77717,2,0,L|84:213,2,27.5000008392334,8|8|8,0:0|0:0|0:0,0:0:0:0:
199,193,77911,5,6,1:2:0:0:
194,248,78008,1,2,0:0:0:0:
151,283,78105,1,2,0:0:0:0:
110,93,78298,6,0,L|114:140,1,41.2500012588501,2|0,0:0|0:0,0:0:0:0:
120,208,78491,1,2,0:0:0:0:
68,6,78685,5,10,0:0:0:0:
123,17,78782,1,2,0:0:0:0:
179,29,78879,1,2,0:0:0:0:
292,24,79073,6,0,L|279:85,1,41.2500012588501,2|2,1:2|0:0,0:0:0:0:
261,140,79266,1,0,0:0:0:0:
453,80,79459,5,2,0:0:0:0:
385,146,79588,2,0,L|392:177,2,27.5000008392334,2|2|0,0:0|1:2|0:0,0:0:0:0:
478,233,79846,1,2,0:0:0:0:
440,335,79975,1,2,0:0:0:0:
371,250,80234,6,0,B|271:233|341:331|185:305,1,168.750006437302,10|0,0:0|0:0,0:0:0:0:
219,320,80621,2,0,P|252:322|292:350,1,56.2500021457673,2|0,0:0|0:0,0:0:0:0:
92,352,80815,5,2,1:2:0:0:
97,295,80911,1,2,1:2:0:0:
101,237,81009,6,0,P|104:206|103:178,1,44.999998626709,2|0,1:2|0:0,0:0:0:0:
186,139,81202,2,0,P|181:101|183:68,1,44.999998626709,2|0,0:0|0:0,0:0:0:0:
125,47,81395,1,0,0:0:0:0:
202,221,81589,5,2,1:2:0:0:
255,206,81685,1,2,0:0:0:0:
307,190,81782,1,10,0:0:0:0:
270,56,81976,1,2,0:0:0:0:
312,286,82169,6,0,L|318:351,1,44.999998626709,2|0,1:2|0:0,0:0:0:0:
393,355,82363,1,2,0:0:0:0:
432,316,82459,1,2,0:0:0:0:
434,261,82556,6,0,P|427:218|426:199,1,44.999998626709,2|0,0:0|0:0,0:0:0:0:
471,159,82750,2,0,P|478:116|479:97,1,44.999998626709,2|0,1:2|0:0,0:0:0:0:
397,62,82943,1,0,0:0:0:0:
397,62,83137,2,0,L|362:68,2,22.4999993133545,2|0|0,1:2|0:0|0:0,0:0:0:0:
472,30,83331,5,8,0:3:0:0:
156,36,83525,5,8,0:3:0:0:
456,221,83718,5,8,0:3:0:0:
156,221,83911,5,8,0:3:0:0:
296,45,84105,6,0,P|303:70|322:112,1,44.999998626709,4|0,1:2|0:0,0:0:0:0:
259,154,84298,2,0,P|252:179|233:221,1,44.999998626709,2|0,0:0|0:0,0:0:0:0:
319,277,84492,1,2,0:0:0:0:
360,238,84589,1,2,0:0:0:0:
384,188,84685,2,0,P|378:168|363:135,1,44.999998626709,2|0,1:2|0:0,0:0:0:0:
203,82,84879,5,10,0:2:0:0:
319,277,85073,2,0,P|376:309|434:307,1,89.9999972534181,2|0,0:0|1:2,0:0:0:0:
122,324,85460,6,0,P|127:285|124:264,1,44.999998626709,2|0,0:0|0:0,0:0:0:0:
68,213,85653,1,2,0:0:0:0:
43,161,85750,1,2,0:0:0:0:
32,105,85847,2,0,P|32:80|37:57,1,44.999998626709,2|0,1:2|0:0,0:0:0:0:
128,155,86040,5,2,0:0:0:0:
33,298,86234,1,2,0:0:0:0:
110,82,86427,1,10,0:2:0:0:
212,332,86621,1,2,1:2:0:0:
190,81,86815,1,2,0:0:0:0:
296,284,87008,2,0,L|324:287,2,22.4999993133545,2|0|0,0:0|0:0|0:0,0:0:0:0:
203,242,87201,6,0,L|131:251,1,44.999998626709,0|0,1:2|0:0,0:0:0:0:
328,194,87395,1,2,0:0:0:0:
212,332,87589,1,2,0:0:0:0:
211,133,87782,1,2,1:2:0:0:
421,249,87976,6,0,L|493:258,1,44.999998626709,10|0,0:2|0:0,0:0:0:0:
293,116,88169,1,2,0:0:0:0:
331,299,88363,1,0,1:2:0:0:
405,113,88556,6,0,P|405:91|400:68,3,29.9999990844727,10|8|8|10,0:3|0:3|0:3|0:3,0:0:0:0:
239,269,88943,2,0,P|237:283|237:298,2,29.9999990844727,8|8|8,0:3|0:3|0:3,0:0:0:0:
291,208,89137,5,10,0:2:0:0:
160,162,89427,5,8,0:2:0:0:
160,162,89524,1,10,0:2:0:0:
103,289,89814,5,8,0:2:0:0:
103,289,89911,2,0,L|111:366,1,44.999998626709,10|0,0:2|0:0,0:0:0:0:
172,251,90298,6,0,B|247:235|235:316|312:301,1,150,2|0,0:0|0:0,0:0:0:0:
305,191,91846,5,2,0:0:0:0:
341,82,92137,1,2,0:0:0:0:
229,106,92427,1,2,0:0:0:0:
390,155,92621,5,2,0:0:0:0:
274,31,92911,1,2,0:0:0:0:
133,107,93201,1,2,0:0:0:0:
370,225,93492,6,0,P|405:239|461:235,1,93.75,2|2,0:0|0:0,0:0:0:0:
501,169,94169,2,0,P|506:137|506:121,1,37.5,2|0,0:0|0:0,0:0:0:0:
419,153,94556,6,0,P|397:130|311:120,1,112.5,2|0,0:0|0:0,0:0:0:0:
246,112,95331,2,0,P|247:130|251:149,1,37.5,0|0,0:0|0:0,0:0:0:0:
309,199,95718,1,0,0:0:0:0:
309,199,96492,6,0,B|228:176|261:276|145:245,1,168.750006437302,2|0,0:0|0:0,0:0:0:0:
86,204,97266,1,0,0:0:0:0:
134,63,98040,5,2,0:0:0:0:
146,148,98330,1,2,0:0:0:0:
158,233,98621,1,2,0:0:0:0:
255,31,98814,5,2,0:0:0:0:
234,167,99104,1,2,0:0:0:0:
215,303,99395,1,2,0:0:0:0:
374,242,99589,6,0,P|438:224|478:223,1,75,10|0,0:0|1:2,0:0:0:0:
234,167,99976,2,0,P|170:185|130:186,1,75,8|0,0:0|1:2,0:0:0:0:
348,331,100362,1,10,0:0:0:0:
348,331,100750,5,10,0:0:0:0:
166,302,100944,1,8,0:0:0:0:
286,96,101137,5,8,0:0:0:0:
277,191,101266,2,0,L|273:236,2,25,8|8|8,0:0|0:0|0:0,0:0:0:0:
286,96,101524,5,0,3:0:0:0:
286,96,102298,5,8,0:0:0:0:
281,150,102427,5,8,0:0:0:0:
277,192,102556,5,8,0:0:0:0:
123,292,102685,6,0,B|94:277|93:256|93:256|136:223|197:240|244:284,1,209.999993591309,6|0,1:2|0:0,0:0:0:0:
323,374,103266,2,0,P|330:320|341:290,1,52.4999983978272,2|0,0:0|0:0,0:0:0:0:
306,234,103460,5,10,0:0:0:0:
474,353,103653,1,2,1:2:0:0:
423,44,103847,2,0,P|430:123|427:228,1,157.499995193482,2|0,0:0|0:0,0:0:0:0:
376,253,104233,6,0,P|425:275|481:252,1,104.999996795654,2|0,0:0|1:2,0:0:0:0:
308,62,104621,1,2,0:0:0:0:
236,306,104814,5,2,0:0:0:0:
429,201,105008,1,10,0:0:0:0:
229,91,105201,1,2,0:0:0:0:
313,350,105395,1,2,0:0:0:0:
308,62,105588,2,0,L|309:-4,1,52.4999983978272,0|0,1:2|1:2,0:0:0:0:
122,167,105782,6,0,B|226:142|178:260|332:231,1,209.999993591309,6|0,1:2|0:0,0:0:0:0:
404,103,106362,2,0,L|408:46,1,52.4999983978272,2|0,1:2|0:0,0:0:0:0:
291,145,106556,1,10,0:0:0:0:
459,295,106750,1,2,0:0:0:0:
486,55,106943,2,0,P|421:22|315:35,1,157.499995193482,2|0,1:2|0:0,0:0:0:0:
227,110,107330,6,0,P|149:142|90:89,1,157.499995193482,2|0,0:0|0:0,0:0:0:0:
163,65,107717,1,2,0:0:0:0:
281,246,107911,5,2,0:0:0:0:
54,181,108104,1,10,0:0:0:0:
240,24,108298,1,2,1:2:0:0:
207,292,108491,1,2,0:0:0:0:
163,65,108685,2,0,L|165:21,2,34.9999989318848,8|8|8,0:3|0:3|0:3,0:0:0:0:
267,112,108879,6,0,P|326:120|395:143,1,104.999996795654,6|0,1:2|0:0,0:0:0:0:
207,292,109266,2,0,P|165:240|16:239,1,209.999993591309,2|8,0:0|0:0,0:0:0:0:
321,226,109846,6,0,P|309:310|396:351,1,191.250003647804,2|0,1:2|0:0,0:0:0:0:
447,277,110233,6,0,L|457:153,1,104.999996795654,2|0,0:0|0:0,0:0:0:0:
200,37,110621,2,0,L|213:204,1,157.499995193482,2|0,1:2|0:0,0:0:0:0:
226,286,111008,5,2,0:0:0:0:
345,25,111201,1,10,0:0:0:0:
371,274,111395,1,2,0:0:0:0:
200,37,111588,1,2,0:0:0:0:
300,307,111782,2,0,L|306:370,1,52.4999983978272,0|0,1:2|1:2,0:0:0:0:
169,136,111975,6,0,P|93:115|39:114,1,104.999996795654,6|0,1:2|0:0,0:0:0:0:
300,307,112362,2,0,B|404:284|367:382|519:336,1,209.999993591309,2|8,0:0|0:0,0:0:0:0:
421,27,112943,6,0,P|411:104|425:194,1,157.499995193482,2|0,0:0|0:0,0:0:0:0:
450,256,113330,6,0,P|412:221|330:222,1,104.999996795654,2|0,0:0|0:0,0:0:0:0:
166,359,113717,2,0,P|209:301|238:188,1,157.499995193482,2|8,1:2|0:3,0:0:0:0:
216,97,114104,5,8,0:3:0:0:
165,109,114201,1,8,0:3:0:0:
115,120,114298,5,8,0:3:0:0:
396,120,114491,5,8,0:3:0:0:
115,263,114685,5,8,0:3:0:0:
396,263,114878,5,8,0:3:0:0:
253,8,115072,6,0,B|227:94|305:73|268:186,1,168.750006437302,4|0,1:2|0:0,0:0:0:0:
201,138,115459,1,2,0:0:0:0:
382,56,115653,1,2,0:0:0:0:
227,245,115846,5,10,0:0:0:0:
159,20,116040,1,2,1:2:0:0:
329,278,116233,2,0,P|346:212|376:151,1,112.500004291535,2|0,0:0|0:0,0:0:0:0:
83,43,116621,2,0,P|116:120|135:202,1,168.750006437302,2|0,0:0|0:0,0:0:0:0:
129,277,117008,1,0,0:0:0:0:
212,53,117201,5,2,0:0:0:0:
34,203,117395,1,10,0:0:0:0:
269,239,117588,1,2,0:0:0:0:
83,43,117782,1,2,0:0:0:0:
53,308,117975,1,2,1:2:0:0:
212,53,118169,6,0,P|281:44|374:86,1,168.750006437302,6|0,1:2|0:0,0:0:0:0:
411,151,118556,1,2,0:0:0:0:
189,219,118750,1,2,1:2:0:0:
450,274,118943,6,0,P|467:202|500:139,1,112.500004291535,10|2,0:0|0:0,0:0:0:0:
157,112,119330,2,0,P|178:163|189:218,1,112.500004291535,2|0,1:2|0:0,0:0:0:0:
332,374,119717,2,0,P|391:307|528:321,1,225.000008583069,2|0,0:0|0:0,0:0:0:0:
212,322,120298,5,2,0:0:0:0:
326,165,120491,2,0,L|337:86,1,56.2500021457673,10|0,0:0|0:0,0:0:0:0:
288,251,120685,1,2,1:2:0:0:
149,56,120879,2,0,L|156:111,1,56.2500021457673,10|0,0:0|0:0,0:0:0:0:
197,225,121072,2,0,L|147:218,2,37.5000014305115,0|0|0,1:2|1:2|1:2,0:0:0:0:
326,165,121266,6,0,P|391:154|450:174,1,112.500004291535,6|0,1:2|0:0,0:0:0:0:
200,332,121653,2,0,P|162:278|8:272,1,225.000008583069,2|8,0:0|0:0,0:0:0:0:
300,53,122233,6,0,P|288:170|303:304,1,202.499993820191,2|0,1:2|0:0,0:0:0:0:
351,314,122621,6,0,P|416:325|475:305,1,112.500004291535,2|0,0:0|0:0,0:0:0:0:
300,53,123008,2,0,B|194:34|254:114|123:89,1,168.750006437302,2|0,1:2|0:0,0:0:0:0:
79,49,123395,5,2,0:0:0:0:
354,198,123588,1,10,0:0:0:0:
67,179,123782,1,2,0:0:0:0:
366,68,123975,1,2,0:0:0:0:
79,49,124169,2,0,L|5:44,1,56.2500021457673,0|0,1:2|1:2,0:0:0:0:
170,217,124362,6,0,L|161:339,1,112.500004291535,6|0,1:2|0:0,0:0:0:0:
339,131,124750,2,0,B|357:95|357:95|301:57|213:75|156:129,1,225.000008583069,2|8,0:0|0:0,0:0:0:0:
317,220,125330,6,0,B|416:238|382:157|511:185,1,168.750006437302,2|0,0:0|0:0,0:0:0:0:
461,267,125717,6,0,P|441:328|431:396,1,112.500004291535,2|0,0:0|0:0,0:0:0:0:
192,232,126104,2,0,P|174:138|143:47,1,168.750006437302,2|0,1:2|0:0,0:0:0:0:
75,25,126491,5,2,0:0:0:0:
296,168,126685,2,0,P|360:128|413:127,1,112.500004291535,10|0,0:0|1:2,0:0:0:0:
43,138,127072,5,2,0:0:0:0:
262,32,127266,2,0,P|259:66|254:103,1,56.2500021457673,2|0,0:0|0:0,0:0:0:0:
207,317,127459,5,4,1:2:0:0:
207,317,127846,6,0,L|142:265,1,75.000002861023,2|2,0:2|0:2,0:0:0:0:
207,317,128233,2,0,L|176:54,1,225.000008583069,2|0,0:2|0:0,0:0:0:0:
385,308,129008,6,0,L|466:318,1,75.000002861023,2|0,0:2|0:0,0:0:0:0:
385,308,129395,2,0,L|450:257,1,75.000002861023,2|0,0:2|0:0,0:0:0:0:
385,308,129782,2,0,L|412:103,1,168.750006437302,2|0,0:2|0:0,0:0:0:0:
468,69,130169,5,0,1:2:0:0:
434,55,130266,1,0,1:2:0:0:
383,60,130362,1,0,1:2:0:0:
328,105,130459,1,0,1:2:0:0:
245,129,130556,5,8,0:0:0:0:
245,129,130984,1,8,0:0:0:0:
245,129,131413,6,0,P|247:149|256:166,1,26.2499991989136
245,129,131841,2,0,B|177:118|219:168|114:150,1,112.5,0|0,0:0|0:0,0:0:0:0:
71,107,132270,6,0,P|101:169|119:237,1,100,4|0,1:2|0:0,0:0:0:0:
95,279,132698,1,2,0:0:0:0:
140,219,132841,1,2,0:0:0:0:
189,298,132984,1,2,0:0:0:0:
249,196,133127,2,0,L|252:131,2,37.5,10|2|2,0:0|0:0|0:0,0:0:0:0:
426,259,133556,2,0,P|482:227|510:217,2,75,2|0|0,0:0|1:2|1:2,0:0:0:0:
328,133,134413,5,2,1:2:0:0:
321,259,134556,1,2,0:0:0:0:
249,196,134699,1,2,0:0:0:0:
189,298,134842,1,10,0:0:0:0:
140,219,134985,1,2,0:0:0:0:
95,279,135128,1,2,0:0:0:0:
56,208,135270,2,0,P|69:156|72:92,1,100,2|0,0:0|0:0,0:0:0:0:
280,67,135698,6,0,P|233:62|166:104,1,100,0|0,1:2|0:0,0:0:0:0:
184,163,136127,1,2,0:0:0:0:
265,150,136270,1,2,0:0:0:0:
279,245,136413,1,2,0:0:0:0:
349,148,136556,1,10,0:0:0:0:
370,264,136698,1,2,0:0:0:0:
461,227,136841,1,2,0:0:0:0:
440,302,136984,1,2,0:0:0:0:
316,332,137198,6,0,B|180:250|155:396|19:324,1,300,0|0,1:2|0:0,0:0:0:0:
89,111,138270,6,0,P|81:130|82:143,1,25,8|0,1:3|0:0,0:0:0:0:
248,101,138484,6,0,P|267:109|280:108,1,25,8|0,1:3|0:0,0:0:0:0:
169,132,138698,6,0,P|176:151|186:159,1,25,8|0,1:3|0:0,0:0:0:0:
271,22,138913,6,0,P|290:14|298:4,1,25,8|0,1:3|0:0,0:0:0:0:
348,197,139127,6,0,P|369:134|396:94,1,100,4|0,1:2|0:0,0:0:0:0:
458,70,139556,1,2,0:0:0:0:
445,160,139698,1,2,0:0:0:0:
510,198,139841,1,2,0:0:0:0:
437,245,139984,1,10,0:0:0:0:
458,350,140127,1,2,0:0:0:0:
376,311,140270,1,2,0:0:0:0:
301,362,140413,6,0,P|245:359|187:368,1,100,2|0,0:0|0:0,0:0:0:0:
136,310,140841,1,0,1:2:0:0:
376,311,141270,5,2,1:2:0:0:
458,350,141413,1,2,0:0:0:0:
437,245,141556,1,2,0:0:0:0:
510,198,141699,1,10,0:0:0:0:
445,160,141842,1,2,0:0:0:0:
458,70,141984,1,2,0:0:0:0:
373,107,142127,1,2,0:0:0:0:
373,107,142556,5,2,1:2:0:0:
300,64,142698,1,2,0:0:0:0:
324,175,142841,1,2,0:0:0:0:
275,96,142983,1,2,0:0:0:0:
247,208,143127,2,0,L|256:272,1,50,2|0,0:0|0:0,0:0:0:0:
160,175,143413,5,10,0:0:0:0:
177,81,143556,1,2,0:0:0:0:
69,135,143698,1,2,0:0:0:0:
98,63,143841,2,0,P|58:59|21:63,1,75,2|0,0:0|1:2,0:0:0:0:
275,96,144270,5,2,0:0:0:0:
320,166,144412,1,2,0:0:0:0:
300,64,144556,2,0,P|276:22|259:10,1,50,2|0,0:0|0:0,0:0:0:0:
414,183,144841,2,0,P|438:141|455:129,1,50,2|0,0:0|0:0,0:0:0:0:
376,93,145127,5,10,0:0:0:0:
320,166,145270,1,2,0:0:0:0:
368,252,145413,1,2,0:0:0:0:
296,337,145556,2,0,P|246:308|171:305,1,100,2|0,0:0|0:0,0:0:0:0:
92,271,145984,6,0,L|85:327,1,50,8|0,2:3|0:0,0:0:0:0:
92,271,146413,6,0,L|143:247,1,50,8|0,2:3|0:0,0:0:0:0:
92,271,146841,6,0,L|46:236,1,50,8|0,2:3|0:0,0:0:0:0:
366,252,147260,5,2,0:0:0:0:
324,168,147389,1,2,0:0:0:0:
376,93,147518,1,2,0:0:0:0:
443,169,147698,6,0,L|453:254,1,69.9999978637696,6|2,1:2|0:0,1:2:0:0:
284,271,148037,2,0,P|204:258|147:282,1,112.5,2|0,0:0|0:0,0:0:0:0:
42,354,148555,1,8,0:0:0:0:
42,354,148983,5,2,0:0:0:0:
95,263,149126,1,2,0:0:0:0:
27,185,149269,1,2,0:0:0:0:
6,262,149412,6,0,P|19:287|29:309,2,48.7499977684022,2|2|0,1:2|0:0|1:2,0:0:0:0:
87,124,149733,2,0,P|154:142|206:149,1,113.749994792938,2|0,0:0|0:0,0:0:0:0:
271,230,150126,5,0,0:0:0:0:
271,230,150197,1,0,0:0:0:0:
271,230,150269,2,0,P|319:210|383:211,2,64.9999970245363,8|0|0,0:0|0:0|0:0,0:0:0:0:
419,271,150697,5,2,0:0:0:0:
315,323,150840,2,0,L|325:354,1,32.4999985122681,2|2,0:0|0:0,0:0:0:0:
473,194,151126,6,0,P|461:147|455:95,1,64.9999970245363,2|0,1:2|0:0,0:0:0:0:
342,208,151447,2,0,P|334:303|323:360,1,146.249993305207,2|0,0:0|0:0,0:0:0:0:
222,186,151984,1,8,0:0:0:0:
222,186,152412,5,2,1:2:0:0:
165,108,152554,1,2,0:0:0:0:
138,232,152697,1,2,0:0:0:0:
257,115,152840,5,2,0:0:0:0:
93,158,152983,1,2,0:0:0:0:
227,286,153126,2,0,P|297:269|397:275,1,129.999994049073,2|0,0:0|0:0,0:0:0:0:
444,285,153554,2,0,P|440:297|440:324,1,32.4999985122681
492,212,153697,5,10,0:0:0:0:
404,193,153840,1,2,0:0:0:0:
354,268,153983,1,2,0:0:0:0:
484,192,154126,5,2,0:0:0:0:
435,116,154269,1,2,0:0:0:0:
346,134,154412,1,2,0:0:0:0:
495,178,154554,5,6,1:2:0:0:
376,60,154697,1,2,0:0:0:0:
286,193,154840,2,0,B|214:176|245:250|125:211,1,129.999994049073,2|0,0:0|0:0,0:0:0:0:
15,154,155269,5,2,0:0:0:0:
120,155,155412,1,10,0:0:0:0:
72,242,155554,1,2,0:0:0:0:
6,139,155697,5,2,0:0:0:0:
5,284,155840,2,0,P|8:334|12:353,2,48.7499977684022,2|2|2,1:2|0:0|0:0,0:0:0:0:
226,294,156269,5,2,0:0:0:0:
109,183,156412,1,2,0:0:0:0:
126,367,156554,1,2,0:0:0:0:
126,367,156912,2,0,L|80:372,2,32.4999985122681
226,294,157126,6,0,L|311:304,1,64.9999970245363,10|2,0:0|0:0,0:0:0:0:
223,150,157412,2,0,L|171:218,1,64.9999970245363,10|2,0:0|0:0,0:0:0:0:
346,212,157697,2,0,L|323:159,1,32.4999985122681,10|2,0:0|0:0,0:0:0:0:
170,69,157983,5,14,1:2:0:0:
263,220,158126,1,0,0:0:0:0:
376,85,158269,2,0,P|372:26|349:-5,1,64.9999970245363,8|0,0:0|0:0,0:0:0:0:
236,19,158554,5,10,0:0:0:0:
252,134,158697,1,2,0:0:0:0:
376,85,158840,5,10,0:0:0:0:
224,34,158983,1,2,0:0:0:0:
312,179,159126,1,10,0:0:0:0:
443,137,159269,5,2,1:2:0:0:
376,245,159412,1,10,0:0:0:0:
485,261,159554,1,2,0:0:0:0:
318,350,159697,6,8,L|277:361,2,32.4999985122681,8|8|8,0:3|0:3|0:3,0:3:0:0:
362,238,159912,2,0,L|343:134,1,97.4999955368044,10|2,0:0|0:0,0:0:0:0:
122,95,160269,6,0,L|116:131,1,32.4999985122681,10|8,0:3|0:3,0:3:0:0:
100,206,160412,1,10,0:3:0:0:
100,206,160483,1,8,0:3:0:0:
100,206,160554,6,0,L|178:189,1,48.7499977684022,10|0,0:2|0:0,0:0:0:0:
262,116,160769,2,0,L|214:105,1,48.7499977684022,10|0,0:2|0:0,0:0:0:0:
20,84,160983,5,10,0:2:0:0:
58,296,161126,1,10,0:2:0:0:
272,316,161269,1,10,0:2:0:0:
272,316,162187,5,8,1:3:0:0:
230,212,162316,5,8,1:3:0:0:
312,179,162445,5,8,1:3:0:0:
292,99,162574,5,8,1:3:0:0:
340,63,162703,5,8,1:3:0:0:
331,29,162832,5,8,1:3:0:0:
467,230,162961,6,0,B|340:217|403:329|248:314,1,225.000008583069,6|0,1:2|0:0,0:0:0:0:
142,223,163542,2,0,P|154:186|165:136,1,56.2500021457673,2|0,0:0|0:0,0:0:0:0:
184,306,163735,5,10,0:0:0:0:
103,94,163929,1,2,1:2:0:0:
50,362,164122,2,0,P|25:270|23:165,1,168.750006437302,2|0,0:0|0:0,0:0:0:0:
103,94,164509,6,0,P|148:76|226:84,1,112.500004291535,2|0,0:0|1:2,0:0:0:0:
14,48,164896,1,2,0:0:0:0:
142,223,165090,1,2,0:0:0:0:
270,21,165283,5,10,0:0:0:0:
46,168,165477,1,2,0:0:0:0:
329,224,165671,1,2,0:0:0:0:
211,78,165864,2,0,P|217:113|220:164,1,56.2500021457673,0|0,1:2|1:2,0:0:0:0:
129,308,166058,6,0,P|210:245|365:230,1,225.000008583069,6|0,1:2|0:0,0:0:0:0:
469,290,166638,2,0,L|458:345,1,56.2500021457673,2|0,1:2|0:0,0:0:0:0:
512,109,166832,5,10,0:0:0:0:
388,272,167025,1,2,0:0:0:0:
410,28,167219,2,0,L|430:138,1,112.500004291535,2|0,1:2|0:0,0:0:0:0:
315,351,167606,6,0,P|243:330|127:331,1,168.750006437302,2|0,0:0|0:0,0:0:0:0:
78,351,167993,1,2,0:0:0:0:
275,220,168187,1,2,0:0:0:0:
3,136,168380,5,10,0:0:0:0:
149,327,168574,1,2,1:2:0:0:
216,74,168767,1,2,0:0:0:0:
122,169,168961,2,0,L|76:166,2,37.5000014305115,8|8|8,0:3|0:3|0:3,0:0:0:0:
216,74,169154,6,0,P|284:84|334:109,1,112.500004291535,6|0,1:2|0:0,0:0:0:0:
506,229,169542,2,0,B|379:204|452:332|267:303,1,225.000008583069,2|8,0:0|0:0,0:0:0:0:
212,266,170122,6,0,P|248:171|329:237,1,213.749994292259,2|0,1:2|0:0,0:0:0:0:
222,362,170509,6,0,P|152:332|92:316,1,112.500004291535,2|0,0:0|0:0,0:0:0:0:
35,140,170896,2,0,P|136:107|234:63,1,168.750006437302,2|0,1:2|0:0,0:0:0:0:
251,23,171283,5,2,0:0:0:0:
127,202,171477,1,10,0:0:0:0:
358,250,171671,1,2,0:0:0:0:
193,82,171864,1,2,0:0:0:0:
295,301,172058,2,0,L|300:375,1,56.2500021457673,0|0,1:2|1:2,0:0:0:0:
431,161,172251,6,0,L|441:4,1,112.500004291535,6|0,1:2|0:0,0:0:0:0:
217,320,172638,2,0,P|257:225|358:250,1,225.000008583069,2|8,0:0|0:0,0:0:0:0:
120,307,173219,6,0,P|112:224|92:141,1,168.750006437302,2|0,0:0|0:0,0:0:0:0:
23,109,173606,2,0,P|82:64|145:91,1,112.500004291535,2|0,0:0|0:0,0:0:0:0:
339,142,173993,2,0,P|338:169|329:203,1,56.2500021457673,2|0,1:2|0:0,0:0:0:0:
258,151,174187,5,10,2:3:0:0:
477,58,174380,5,10,2:3:0:0:
320,318,174574,5,10,2:3:0:0:
320,318,175154,6,0,P|318:280|322:265,2,37.5000014305115,8|8|8,0:3|0:3|0:3,0:0:0:0:
385,175,175348,6,0,B|394:159|394:159|341:125|248:130|205:177,1,180,4|0,1:2|0:0,0:0:0:0:
194,214,175735,1,2,0:0:0:0:
432,248,175929,1,2,0:0:0:0:
150,84,176122,5,10,0:0:0:0:
385,175,176316,1,2,1:2:0:0:
78,240,176509,2,0,P|134:219|206:214,1,120,2|0,0:0|0:0,0:0:0:0:
460,324,176896,6,0,P|385:296|239:291,1,180,2|0,0:0|0:0,0:0:0:0:
218,312,177283,1,0,0:0:0:0:
439,174,177477,1,2,0:0:0:0:
273,373,177671,5,10,0:0:0:0:
295,137,177864,1,2,0:0:0:0:
460,324,178058,1,2,0:0:0:0:
178,257,178251,2,0,L|102:248,1,60,2|0,1:2|0:0,0:0:0:0:
318,124,178445,6,0,B|411:97|384:198|502:170,1,180,6|0,1:2|0:0,0:0:0:0:
460,96,178832,1,2,0:0:0:0:
347,280,179025,1,2,1:2:0:0:
210,89,179219,5,10,0:0:0:0:
268,325,179412,1,2,0:0:0:0:
318,124,179606,2,0,P|329:59|326:2,1,120,2|0,1:2|0:0,0:0:0:0:
98,261,179993,2,0,P|155:200|312:241,1,240,2|0,0:0|0:0,0:0:0:0:
71,146,180574,5,2,0:0:0:0:
264,344,180767,1,10,0:0:0:0:
244,60,180961,1,2,1:2:0:0:
172,374,181154,1,10,0:0:0:0:
178,159,181348,2,0,L|183:78,1,60,0|0,1:2|1:2,0:0:0:0:
239,280,181542,6,0,P|293:251|389:251,1,120,6|0,1:2|0:0,0:0:0:0:
512,131,181929,2,0,P|402:146|327:49,1,240,2|8,0:0|0:0,0:0:0:0:
130,257,182509,6,0,P|228:232|356:245,1,225,2|0,1:2|0:0,0:0:0:0:
254,126,182896,6,0,P|181:111|124:64,1,120,2|0,0:0|0:0,0:0:0:0:
140,325,183283,2,0,P|235:299|321:319,1,180,2|0,1:2|0:0,0:0:0:0:
372,367,183671,5,2,0:0:0:0:
76,273,183864,1,10,0:0:0:0:
378,204,184058,1,2,0:0:0:0:
140,325,184251,1,2,0:0:0:0:
315,111,184445,2,0,L|303:199,1,60,0|0,1:2|1:2,0:0:0:0:
140,325,184638,6,0,L|14:308,1,120,6|0,1:2|0:0,0:0:0:0:
236,62,185025,2,0,L|219:188,1,120,2|0,0:0|1:2,0:0:0:0:
95,30,185412,1,8,0:0:0:0:
316,234,185606,6,0,P|375:229|433:213,1,120,2|0,0:0|1:2,0:0:0:0:
124,140,185993,2,0,P|63:123|-8:120,1,120,2|0,0:0|0:0,0:0:0:0:
296,352,186380,2,0,P|313:291|316:220,1,120,2|0,1:2|0:0,0:0:0:0:
203,60,186767,1,2,0:0:0:0:
183,317,186961,5,10,0:0:0:0:
390,150,187154,1,0,1:2:0:0:
113,60,187348,1,2,0:0:0:0:
279,269,187542,2,0,L|345:274,2,40,10|8|8,0:3|0:3|0:3,0:0:0:0:
144,221,187735,5,4,1:2:0:0:
144,221,188122,2,0,P|156:175|152:134,1,69.9999978637696,2|2,0:2|0:2,0:0:0:0:
144,221,188509,2,0,P|105:156|55:115,2,104.999996795654,10|0|0,0:2|1:0|0:0,0:0:0:0:
422,301,189283,6,0,P|434:348|430:387,1,69.9999978637696,2|2,0:2|0:2,0:0:0:0:
422,301,189671,6,0,P|456:267|493:250,1,69.9999978637696,2|0,0:2|0:0,0:0:0:0:
422,301,190058,6,0,P|376:289|322:96,1,262.500010013581,2|0,0:2|0:0,0:0:0:0:
