osu file format v14

[General]
AudioFilename: audio.mp3
AudioLeadIn: 0
PreviewTime: 101891
Countdown: 0
SampleSet: Soft
StackLeniency: 0.4
Mode: 0
LetterboxInBreaks: 0
WidescreenStoryboard: 0

[Editor]
Bookmarks: 6948,13142,25529,37916,50303,62690,65787,78173,90561,102948,127722,132533,147964,161676,163224,187998,190708
DistanceSpacing: 2
BeatDivisor: 12
GridSize: 32
TimelineZoom: 2.8

[Metadata]
Title:GIANTS (feat. Becky G, Keke Palmer, SOYEON, DUCKWRTH, Thutmose)
TitleUnicode:GIANTS (feat. Becky G, Keke Palmer, SOYEON, DUCKWRTH, Thutmose)
Artist:True Damage
ArtistUnicode:True Damage
Creator:Crissa
Version:Living like GIANTS
Source:League of Legends
Tags:dmg lol ekko akali qiyana senna yasuo hazu- (g)i-dle pop english korean spanish riot games music team harloe benjamin rice the line animation [-crissaegrim-]
BeatmapID:2258374
BeatmapSetID:1079428

[Difficulty]
HPDrainRate:6
CircleSize:5
OverallDifficulty:8.6
ApproachRate:9.4
SliderMultiplier:1.6
SliderTickRate:1

[Events]
//Background and Video events
0,0,"bg1.jpg",0,0
//Break Periods
//Storyboard Layer 0 (Background)
//Storyboard Layer 1 (Fail)
//Storyboard Layer 2 (Pass)
//Storyboard Layer 3 (Foreground)
//Storyboard Layer 4 (Overlay)
//Storyboard Sound Samples

[TimingPoints]
762,387.096774193548,4,2,5,50,1,0
6955,-166.666666666667,4,2,5,40,0,0
7536,-166.666666666667,4,2,5,36,0,0
8116,-166.666666666667,4,2,5,32,0,0
8697,-166.666666666667,4,2,5,28,0,0
9278,-166.666666666667,4,2,5,24,0,0
9471,-166.666666666667,4,2,5,32,0,0
9665,-55.5555555555556,4,2,5,50,0,0
10149,-83.3333333333333,4,2,5,50,0,0
11020,-166.666666666667,4,2,5,32,0,0
11794,-166.666666666667,4,2,5,40,0,0
12859,-125,4,2,5,50,0,0
12955,-100,4,2,5,55,0,0
13052,-83.3333333333334,4,2,5,60,0,0
13149,-100,4,2,5,60,0,0
25536,-83.3333333333333,4,2,5,70,0,0
37923,-200,4,2,5,50,0,0
47020,-83.3333333333333,4,2,5,50,0,0
47214,-83.3333333333333,4,2,5,60,0,0
48375,-83.3333333333333,4,2,5,65,0,0
49343,-83.3333333333333,4,2,5,55,0,0
50117,-83.3333333333333,4,2,5,65,0,0
50310,-55.5555555555556,4,2,5,80,0,1
61584,-55.5555555555556,4,2,5,5,0,1
61632,-55.5555555555556,4,2,5,80,0,1
61681,-55.5555555555556,4,2,5,5,0,1
61729,-55.5555555555556,4,2,5,80,0,1
61778,-55.5555555555556,4,2,5,5,0,1
61826,-55.5555555555556,4,2,5,80,0,1
61874,-55.5555555555556,4,2,5,5,0,1
61923,-83.3333333333333,4,2,5,65,0,0
62504,-166.666666666667,4,2,5,55,0,0
63085,-166.666666666667,4,2,5,50,0,0
65794,-71.4285714285714,4,2,5,65,0,0
76633,-100,4,2,5,60,0,0
77407,-62.5,4,2,5,65,0,0
78181,-62.5,4,2,5,65,0,0
87085,-41.6666666666667,4,2,5,65,0,0
87278,-83.3333333333333,4,2,5,65,0,0
87472,-62.5,4,2,5,65,0,0
90568,-200,4,2,5,50,0,0
99665,-83.3333333333333,4,2,5,50,0,0
99859,-83.3333333333333,4,2,5,55,0,0
101020,-83.3333333333333,4,2,5,60,0,0
101407,-83.3333333333333,4,2,5,65,0,0
101988,-83.3333333333333,4,2,5,55,0,0
102568,-83.3333333333333,4,2,5,70,0,0
102955,-50,4,2,5,80,0,1
114568,-50,4,2,5,55,0,0
114616,-50,4,2,5,5,0,0
114761,-50,4,2,5,55,0,0
114810,-50,4,2,5,5,0,0
114955,-50,4,2,5,55,0,0
115003,-50,4,2,5,5,0,0
115149,-50,4,2,5,55,0,0
115197,-50,4,2,5,5,0,0
115342,-50,4,2,5,80,0,1
127729,-50,4,2,5,100,0,0
128117,-166.666666666667,4,2,5,60,0,0
130246,-83.3333333333333,4,2,5,70,0,0
130826,431.654676258993,4,2,5,70,1,0
131683,-100,4,2,5,65,0,0
131736,-100,4,2,5,5,0,0
132111,-100,4,2,5,65,0,0
132544,428.571428571429,4,2,5,50,1,0
132544,-125,4,2,5,70,0,0
138111,-250,4,2,5,65,0,0
138754,-250,4,2,5,60,0,0
138968,-142.857142857143,4,2,5,65,0,0
139183,-100,4,2,5,70,0,0
139397,-125,4,2,5,65,0,0
147540,387.096774193548,4,2,5,70,1,0
147972,428.571428571429,4,2,5,75,1,1
147972,-62.5,4,2,5,75,0,1
150539,-45.4545454545455,4,2,5,75,0,1
160396,-62.5,4,2,5,75,0,1
160610,-62.5,4,2,5,75,0,1
161257,-62.5,4,2,5,80,0,0
161682,387.096774193548,4,2,5,100,1,0
162262,-100,4,2,5,60,0,0
162456,-100,4,2,5,75,0,0
163230,-45.4545454545455,4,2,5,80,0,1
174843,-100,4,2,5,65,0,0
175617,-45.4545454545455,4,2,5,85,0,1
188004,-55.5555555555556,4,2,5,75,0,0
188391,-55.5555555555556,4,2,5,70,0,0
188972,-100,4,2,5,70,0,0
189552,-100,4,2,5,80,0,0
190714,-100,4,2,5,30,0,0

[Colours]
Combo1 : 118,106,255
Combo2 : 128,156,255
Combo3 : 198,162,221
Combo4 : 128,137,255
Combo5 : 255,214,128

[HitObjects]
256,192,762,12,8,5407,0:1:0:0:
77,126,5794,6,0,P|103:139|119:155,1,40,2|0,0:0|0:0,0:0:0:0:
252,83,5987,2,0,P|243:110|230:129,1,40,2|0,0:0|0:0,0:0:0:0:
363,241,6181,2,0,P|323:247|285:238,2,80,2|2|2,0:0|0:0|0:0,0:0:0:0:
58,204,6955,6,0,P|71:197|94:186,1,23.9999992675781,12|0,0:3|0:0,0:0:0:0:
119,107,7149,2,0,P|133:113|155:124,1,23.9999992675781
231,92,7342,2,0,P|235:106|241:131,1,23.9999992675781
165,295,7536,6,0,P|170:282|180:261,1,23.9999992675781,8|0,0:3|0:0,0:0:0:0:
150,192,7729,2,0,P|163:188|185:182,1,23.9999992675781,8|0,0:1|0:0,0:0:0:0:
219,117,7923,2,0,P|230:124|248:138,1,23.9999992675781
294,290,8116,6,0,P|290:278|285:258,1,23.9999992675781,8|0,0:3|0:0,0:0:0:0:
226,228,8310,2,0,P|232:217|244:201,1,23.9999992675781
234,134,8503,2,0,P|246:132|266:131,1,23.9999992675781
391,199,8697,6,0,P|381:192|367:182,1,23.9999992675781,8|0,0:3|0:0,0:0:0:0:
308,195,8891,2,0,P|306:184|305:165,1,23.9999992675781
257,131,9084,2,0,P|264:123|277:110,1,23.9999992675781
375,72,9278,1,8,0:1:0:0:
287,268,9472,6,0,P|287:282|294:298,1,23.9999992675781
371,185,9665,6,0,P|342:250|265:244,1,143.999995605469,8|0,0:3|0:0,0:0:0:0:
214,16,10149,6,0,P|234:50|247:86,1,47.9999985351563,2|0,0:0|0:0,0:0:0:0:
189,173,10366,1,0,0:0:0:0:
171,165,10487,2,0,P|190:160|206:154,2,23.9999992675781,2|0|0,0:0|0:0|0:0,0:0:0:0:
153,158,10632,1,8,0:3:0:0:
317,143,10826,5,8,0:1:0:0:
237,69,11020,2,0,P|245:84|253:100,1,23.9999992675781
194,159,11214,2,0,P|185:174|178:190,1,23.9999992675781,8|0,0:3|0:0,0:0:0:0:
237,249,11407,2,0,P|245:264|253:280,1,23.9999992675781
194,339,11601,2,0,P|185:354|178:370,1,23.9999992675781
77,270,11794,5,8,0:1:0:0:
86,272,11859,1,8,0:1:0:0:
95,274,11923,1,8,0:1:0:0:
104,276,11988,1,8,0:1:0:0:
64,147,12181,1,8,0:1:0:0:
194,339,12375,6,0,P|200:296|224:270,1,71.9999978027344,8|0,0:1|0:0,0:0:0:0:
272,339,12761,2,0,P|265:333|258:319,2,15.9999995117188,2|0|0,0:0|0:0|0:0,0:0:0:0:
324,284,12955,2,0,P|330:280|348:276,2,26.6666666666667,2|0|0,0:0|0:0|0:0,0:0:0:0:
396,344,13149,6,0,P|417:355|450:353,1,40,14|0,0:3|0:0,0:0:0:0:
426,280,13343,2,0,P|425:256|406:228,1,40,2|0,0:0|0:0,0:0:0:0:
356,286,13536,2,0,P|335:298|321:328,1,40,2|0,0:0|0:0,0:0:0:0:
168,365,13729,2,0,B|174:358|174:358|153:317,1,53.3333333333333,10|2,0:3|0:0,0:0:0:0:
134,298,13923,6,0,L|191:307,1,40,10|0,0:1|0:0,0:0:0:0:
109,227,14117,2,0,L|52:236,1,40,2|0,0:0|0:0,0:0:0:0:
134,156,14310,2,0,L|191:165,1,40,10|0,0:3|0:0,0:0:0:0:
109,85,14504,1,2,0:0:0:0:
109,85,14891,5,10,0:3:0:0:
184,77,14988,1,0,0:0:0:0:
258,69,15084,2,0,L|248:122,1,40,2|0,0:0|0:0,0:0:0:0:
40,172,15278,5,2,0:0:0:0:
115,164,15375,1,0,0:0:0:0:
12,242,15471,2,0,L|2:295,1,40,10|0,0:1|0:0,0:0:0:0:
103,383,15665,5,2,0:0:0:0:
95,308,15762,1,0,0:0:0:0:
87,234,15858,2,0,L|140:244,1,40,10|0,0:3|0:0,0:0:0:0:
154,156,16052,2,0,L|101:166,1,40,2|0,0:0|0:0,0:0:0:0:
70,104,16246,1,8,0:3:0:0:
87,234,16439,6,0,L|140:244,1,40,2|0,0:0|0:0,0:0:0:0:
236,174,16633,2,0,L|228:146,2,20,2|0|0,0:0|0:0|0:0,0:0:0:0:
227,249,16826,1,10,0:3:0:0:
297,219,16923,1,0,0:0:0:0:
345,327,17020,2,0,L|366:250,1,80,10|0,0:1|0:0,0:0:0:0:
153,344,17407,2,0,P|123:279|126:169,1,160,10|0,0:3|0:0,0:0:0:0:
306,22,17987,5,10,0:3:0:0:
323,96,18085,1,0,0:0:0:0:
340,169,18181,2,0,L|283:161,1,40,2|0,0:0|0:0,0:0:0:0:
207,67,18374,5,2,0:0:0:0:
224,141,18471,1,0,0:0:0:0:
136,46,18568,2,0,L|79:54,1,40,10|0,0:1|0:0,0:0:0:0:
144,197,18761,6,0,L|183:202,1,40,10|0,0:1|0:0,0:0:0:0:
101,255,18955,2,0,L|115:292,1,40,2|0,0:0|0:0,0:0:0:0:
29,246,19149,2,0,L|4:277,1,40,2|0,0:0|0:0,0:0:0:0:
73,189,19342,1,8,0:3:0:0:
204,320,19536,6,0,P|211:296|219:282,1,40,2|0,0:0|0:0,0:0:0:0:
183,202,19729,2,0,P|206:196|223:195,1,40,2|0,0:0|0:0,0:0:0:0:
274,124,19923,2,0,P|290:142|299:155,1,40,10|0,0:3|0:0,0:0:0:0:
492,230,20117,6,0,P|468:235|451:236,1,40,10|0,0:1|0:0,0:0:0:0:
400,307,20311,2,0,P|383:288|374:275,1,40,2|0,0:0|0:0,0:0:0:0:
287,267,20503,2,0,P|294:243|302:229,1,40,10|0,0:3|0:0,0:0:0:0:
374,84,20697,2,0,P|396:144|371:202,1,120,2|0,0:0|0:0,0:0:0:0:
266,145,21084,6,0,L|306:142,1,40,10|0,0:3|0:0,0:0:0:0:
216,84,21278,2,0,L|176:80,1,40,2|0,0:0|0:0,0:0:0:0:
266,22,21472,2,0,L|305:18,1,40,2|0,0:0|0:0,0:0:0:0:
219,215,21665,6,0,P|203:200|191:180,1,40,10|0,0:1|0:0,0:0:0:0:
266,145,21859,2,0,P|270:123|282:103,1,40,2|0,0:0|0:0,0:0:0:0:
350,150,22052,2,0,P|370:143|394:143,1,40,10|0,0:3|0:0,0:0:0:0:
361,308,22246,2,0,P|312:281|310:201,1,133.333333333333,2|0,0:0|0:0,0:0:0:0:
138,46,22761,6,0,P|162:49|186:30,1,53.3333333333333
191,15,22955,2,0,L|204:65,1,40,2|0,0:3|0:3,0:0:0:0:
56,242,23213,6,0,P|86:227|98:227,1,40,10|0,0:1|0:0,0:0:0:0:
153,181,23407,2,0,P|180:199|186:209,1,40,2|0,0:0|0:0,0:0:0:0:
265,332,23600,2,0,P|267:298|273:288,1,40,10|0,0:3|0:0,0:0:0:0:
260,217,23794,2,0,P|290:202|302:202,1,40,2|0,0:0|0:0,0:0:0:0:
383,304,23988,5,2,0:0:0:0:
369,228,24085,1,0,0:0:0:0:
356,153,24181,2,0,L|404:162,1,40,10|0,0:3|0:0,0:0:0:0:
466,331,24375,2,0,L|446:229,1,93.3333333333333,2|2,0:0|0:0,0:0:0:0:
383,223,24665,1,2,0:0:0:0:
369,228,24762,6,0,L|329:220,1,40,8|0,0:1|0:0,0:0:0:0:
239,164,24955,1,10,0:1:0:0:
226,168,25020,1,8,0:1:0:0:
213,172,25085,1,8,0:1:0:0:
200,176,25149,2,0,L|210:121,1,40,10|0,0:1|0:0,0:0:0:0:
340,28,25342,2,0,L|350:58,2,26.6666666666667,10|0|0,0:3|0:3|0:3,0:0:0:0:
353,3,25536,6,0,P|334:17|300:22,1,47.9999985351563,14|0,0:3|0:0,0:0:0:0:
270,137,25730,2,0,P|248:127|227:100,1,47.9999985351563,2|0,0:0|0:0,0:0:0:0:
118,6,25923,1,2,0:0:0:0:
151,86,26020,1,0,0:0:0:0:
80,135,26116,2,0,P|70:159|61:198,1,47.9999985351563,10|0,0:3|0:0,0:0:0:0:
177,295,26310,2,0,P|170:271|161:249,1,47.9999985351563,10|0,0:1|0:0,0:0:0:0:
23,269,26504,2,0,P|46:271|70:277,1,47.9999985351563,2|0,0:0|0:0,0:0:0:0:
133,374,26697,5,10,0:3:0:0:
177,295,26794,1,0,0:0:0:0:
244,349,26891,2,0,P|272:357|303:352,1,47.9999985351563,2|0,0:0|0:0,0:0:0:0:
393,254,27085,2,0,P|330:258|298:290,1,95.9999970703126,2|10,0:0|0:3,0:0:0:0:
369,336,27374,5,2,0:0:0:0:
408,245,27472,2,0,P|406:223|395:191,1,47.9999985351563,2|0,0:0|0:0,0:0:0:0:
289,132,27665,2,0,P|291:110|302:78,1,47.9999985351563,2|0,0:0|0:0,0:0:0:0:
471,56,27858,2,0,P|437:95|411:97,1,63.9999980468751,10|0,0:1|0:0,0:0:0:0:
416,94,28052,2,0,L|424:141,1,47.9999985351563,2|2,0:0|0:0,0:0:0:0:
499,185,28246,5,10,0:3:0:0:
492,197,28343,1,0,0:0:0:0:
421,245,28439,1,2,0:0:0:0:
428,257,28536,1,0,0:0:0:0:
505,295,28633,6,0,P|469:307|443:348,1,63.9999980468751,10|0,0:3|0:0,0:0:0:0:
446,336,28826,2,0,P|423:358|404:364,1,47.9999985351563,2|0,0:0|0:0,0:0:0:0:
302,312,29020,2,0,L|313:230,1,63.9999980468751,2|0,0:0|0:0,0:0:0:0:
322,242,29213,2,0,L|314:192,1,47.9999985351563,10|0,0:3|0:0,0:0:0:0:
181,128,29407,6,0,L|192:209,1,63.9999980468751,10|0,0:1|0:0,0:0:0:0:
200,198,29601,2,0,L|191:249,1,47.9999985351563,2|0,0:0|0:0,0:0:0:0:
95,330,29794,2,0,P|76:303|87:251,1,63.9999980468751,10|0,0:3|0:0,0:0:0:0:
81,260,29988,2,0,P|84:237|76:212,1,47.9999985351563,2|0,0:0|0:0,0:0:0:0:
3,120,30181,5,2,0:0:0:0:
195,229,30374,2,0,P|208:210|212:173,1,47.9999985351563,10|0,0:3|0:0,0:0:0:0:
140,48,30568,2,0,P|166:82|225:90,1,95.9999970703126,2|2,0:0|0:0,0:0:0:0:
299,64,30859,1,2,0:0:0:0:
213,185,30955,2,0,P|204:131|309:134,1,191.999994140625,10|0,0:1|0:0,0:0:0:0:
137,279,31536,6,0,P|148:272|166:268,3,23.9999992675781,8|0|0|0,0:3|0:0|0:0|0:0,0:0:0:0:
127,291,31730,2,0,P|121:236|94:190,1,95.9999970703126,8|2,0:3|0:0,0:0:0:0:
42,152,32020,1,2,0:0:0:0:
159,112,32117,6,0,P|136:116|114:125,1,47.9999985351563,2|0,0:0|0:0,0:0:0:0:
250,185,32310,2,0,P|227:181|205:173,1,47.9999985351563,10|0,0:3|0:0,0:0:0:0:
288,86,32503,2,0,P|195:95|210:177,1,191.999994140625,10|8,0:1|0:3,0:0:0:0:
384,33,33085,6,0,P|374:57|367:87,1,47.9999985351563,2|0,0:0|0:0,0:0:0:0:
417,216,33278,2,0,P|410:185|379:148,1,63.9999980468751,2|0,0:0|0:0,0:0:0:0:
381,155,33472,2,0,L|331:149,1,47.9999985351563,10|0,0:3|0:0,0:0:0:0:
258,248,33665,5,2,0:0:0:0:
216,130,33859,1,2,0:0:0:0:
179,310,34052,2,0,P|229:239|187:200,1,143.999995605469,10|0,0:1|0:0,0:0:0:0:
120,161,34439,2,0,L|149:155,2,23.9999992675781,8|0|0,0:3|0:0|0:0,0:0:0:0:
111,238,34632,5,2,0:3:0:0:
49,191,34730,1,2,0:0:0:0:
94,68,34826,2,0,L|122:169,1,95.9999970703126,10|2,0:3|0:0,0:0:0:0:
111,238,35117,5,0,0:0:0:0:
212,125,35213,2,0,L|183:226,1,95.9999970703126,2|10,0:0|0:3,0:0:0:0:
196,295,35504,5,0,0:0:0:0:
287,168,35601,2,8,L|370:160,1,63.9999980468751,10|0,0:1|0:0,0:1:0:0:
360,156,35794,2,0,L|408:160,1,47.9999985351563,2|0,0:0|0:0,0:0:0:0:
287,16,35988,5,10,0:3:0:0:
268,25,36085,1,0,0:0:0:0:
202,80,36181,1,2,0:0:0:0:
183,70,36278,1,2,0:0:0:0:
90,33,36375,6,0,L|106:79,1,47.9999985351563,2|0,0:0|0:0,0:0:0:0:
169,232,36568,1,10,0:3:0:0:
173,223,36633,1,0,0:0:0:0:
177,214,36697,1,0,0:0:0:0:
181,205,36761,6,0,L|196:250,1,47.9999985351563,2|0,0:0|0:0,0:0:0:0:
295,181,36955,2,0,L|310:135,1,47.9999985351563,2|0,0:0|0:0,0:0:0:0:
164,124,37149,2,0,P|207:202|294:181,1,191.999994140625,10|0,0:1|0:0,0:0:0:0:
417,28,37730,2,0,L|429:71,2,31.9999990234375
512,125,37923,6,0,P|478:122|426:185,1,120,14|0,0:3|0:0,0:0:0:0:
282,101,38697,2,0,L|293:180,1,80,10|0,0:0|0:0,0:0:0:0:
76,276,39472,5,2,0:0:0:0:
183,185,39761,2,0,P|147:198|135:199,1,50,2|2,0:0|0:0,0:0:0:0:
272,44,40246,5,10,0:0:0:0:
274,146,40503,1,2,0:0:0:0:
395,167,40794,1,2,0:0:0:0:
363,10,41020,6,0,L|341:101,1,80,2|0,0:0|0:0,0:0:0:0:
372,174,41601,1,2,0:0:0:0:
263,213,41794,6,0,P|282:220|300:230,1,40,10|2,0:0|0:0,0:0:0:0:
197,268,42181,2,0,P|224:242|162:164,1,160,2|2,0:0|0:0,0:0:0:0:
24,83,43343,1,8,0:0:0:0:
349,9,44116,6,0,P|322:26|332:109,1,120,10|0,0:3|0:0,0:0:0:0:
182,175,44891,2,0,P|216:184|261:207,1,80,8|0,0:0|0:0,0:0:0:0:
39,318,45665,5,10,0:3:0:0:
137,186,45955,2,0,P|172:180|189:169,1,50,2|2,0:0|0:0,0:0:0:0:
242,324,46439,2,0,P|260:297|292:286,1,65,10|2,0:1|0:0,0:0:0:0:
456,316,47020,2,0,L|403:324,1,47.9999985351563,2|0,0:0|0:0,0:0:0:0:
511,252,47214,5,10,0:1:0:0:
329,212,47601,1,8,0:1:0:0:
147,172,47988,1,10,0:1:0:0:
328,132,48375,5,10,0:1:0:0:
226,83,48569,1,8,0:1:0:0:
298,333,48762,5,8,0:1:0:0:
218,246,48891,2,0,L|226:216,3,31.9999990234375,8|8|8|8,0:1|0:1|0:1|0:1,0:0:0:0:
153,274,49149,1,8,0:1:0:0:
67,61,49343,6,0,P|90:65|117:80,1,47.9999985351563,2|0,0:0|0:0,0:0:0:0:
190,8,49536,2,0,P|201:28|207:58,1,47.9999985351563,2|0,0:0|0:0,0:0:0:0:
337,73,49730,2,0,P|328:94|308:117,1,47.9999985351563,2|0,0:0|0:0,0:0:0:0:
344,248,49923,2,0,P|321:254|290:252,1,47.9999985351563,2|0,0:0|0:0,0:0:0:0:
94,183,50117,5,0,1:0:0:0:
111,164,50181,1,0,1:0:0:0:
136,158,50246,1,0,1:0:0:0:
161,160,50310,6,0,P|216:165|159:32,1,287.999991210938,14|0,1:3|0:0,0:0:0:0:
86,267,50891,2,0,P|116:246|157:236,1,71.9999978027344,2|0,0:0|0:0,0:0:0:0:
316,333,51085,2,0,P|350:341|386:338,1,71.9999978027344,10|0,0:1|0:0,0:0:0:0:
468,229,51278,2,0,P|441:220|453:246,1,71.9999978027344,10|0,0:3|0:0,0:0:0:0:
508,147,51472,6,0,P|451:203|359:128,1,215.999993408203,2|0,0:0|0:0,0:0:0:0:
383,0,51859,2,0,P|396:33|392:68,1,71.9999978027344,2|0,0:0|0:0,0:0:0:0:
257,155,52052,2,0,P|284:146|272:172,1,71.9999978027344,8|0,0:3|0:0,0:0:0:0:
194,111,52246,1,2,0:0:0:0:
292,320,52439,6,0,P|304:286|332:246,1,71.9999978027344,2|0,0:0|0:0,0:0:0:0:
107,71,52633,2,0,P|142:74|176:85,1,71.9999978027344,10|0,0:1|0:0,0:0:0:0:
246,16,52826,2,0,P|265:46|277:80,1,71.9999978027344,10|0,0:0|0:0,0:0:0:0:
374,92,53020,2,0,P|361:125|342:156,1,71.9999978027344,10|0,0:0|0:0,0:0:0:0:
393,240,53213,2,0,P|354:252|347:251,2,47.9999985351563,8|0|0,0:3|0:3|0:3,0:0:0:0:
475,160,53407,6,0,P|401:196|512:203,1,287.999991210938,14|0,0:3|0:0,0:0:0:0:
300,53,53988,2,0,P|315:86|322:132,1,71.9999978027344,10|0,0:3|0:0,0:0:0:0:
285,350,54181,1,10,0:1:0:0:
144,286,54375,2,0,P|155:252|176:212,1,71.9999978027344,2|0,0:0|0:0,0:0:0:0:
102,148,54568,2,0,P|173:122|251:122,1,143.999995605469,10|0,0:3|0:0,0:0:0:0:
0,13,54955,6,0,B|106:-24|101:82|203:39,1,215.999993408203,2|0,0:0|0:0,0:0:0:0:
268,0,55343,1,2,0:0:0:0:
102,148,55536,6,0,P|134:130|179:121,1,71.9999978027344,2|0,0:0|0:0,0:0:0:0:
349,55,55730,2,0,P|334:87|329:123,1,71.9999978027344,10|0,0:1|0:0,0:0:0:0:
250,181,55923,2,0,P|266:212|291:238,1,71.9999978027344,10|0,0:3|0:0,0:0:0:0:
288,336,56117,2,0,P|323:342|359:338,1,71.9999978027344,2|0,0:0|0:0,0:0:0:0:
491,169,56310,5,0,1:0:0:0:
472,164,56375,1,0,1:0:0:0:
453,165,56439,1,0,1:0:0:0:
435,172,56504,6,0,P|464:115|332:44,1,215.999993408203,14|0,1:3|0:0,0:0:0:0:
256,159,56891,2,0,P|326:154|382:110,1,143.999995605469,2|0,0:0|0:0,0:0:0:0:
178,116,57278,1,8,0:1:0:0:
380,322,57472,6,0,P|307:259|257:253,1,143.999995605469,10|0,0:3|0:0,0:0:0:0:
511,352,57859,2,0,P|507:280|440:156,1,215.999993408203,2|0,0:0|0:0,0:0:0:0:
295,90,58246,2,0,P|334:132|314:47,1,215.999993408203,10|0,0:3|0:0,0:0:0:0:
252,38,58632,6,0,P|270:70|285:109,1,71.9999978027344,2|0,0:0|0:0,0:0:0:0:
323,304,58826,2,0,P|288:293|252:288,1,71.9999978027344,10|0,0:1|0:0,0:0:0:0:
212,186,59020,2,0,P|182:207|156:231,1,71.9999978027344,10|0,0:0|0:0,0:0:0:0:
50,200,59213,2,0,P|48:235|52:271,1,71.9999978027344,10|0,0:0|0:0,0:0:0:0:
191,357,59407,2,0,P|174:333|157:313,2,47.9999985351563,8|0|0,0:3|0:0|0:0,0:0:0:0:
278,384,59601,6,0,P|211:284|295:236,1,215.999993408203,14|0,0:3|0:0,0:0:0:0:
354,256,59988,1,2,0:0:0:0:
445,131,60181,2,0,P|423:129|449:117,1,71.9999978027344,8|0,0:3|0:0,0:0:0:0:
391,339,60374,1,8,0:1:0:0:
342,165,60568,6,0,P|254:122|193:114,1,143.999995605469,2|8,0:0|0:3,0:0:0:0:
245,383,60955,2,0,P|192:311|182:184,1,215.999993408203,2|0,0:0|0:0,0:0:0:0:
270,154,61343,2,0,P|255:182|248:227,1,71.9999978027344,10|0,0:3|0:0,0:0:0:0:
454,372,61536,6,0,L|493:387,1,35.9999989013672,2|0,0:0|0:0,0:0:0:0:
459,307,61633,2,0,L|498:292,1,35.9999989013672,2|0,0:0|0:0,0:0:0:0:
419,255,61729,2,0,L|437:217,1,35.9999989013672,2|0,0:0|0:0,0:0:0:0:
354,243,61826,2,0,L|343:202,1,35.9999989013672,2|0,0:0|0:0,0:0:0:0:
298,277,61923,6,0,P|235:296|174:197,1,191.999994140625,10|2,0:1|0:0,0:0:0:0:
270,178,62504,2,0,L|247:220,1,47.9999985351563,2|0,0:0|0:0,0:0:0:0:
126,59,63084,6,0,L|143:101,1,31.9999990234375,2|2,0:0|0:0,0:0:0:0:
103,30,63472,2,0,L|142:126,1,95.9999970703126,2|0,0:0|0:0,0:0:0:0:
369,168,64246,5,2,0:0:0:0:
310,315,64374,1,2,0:0:0:0:
358,168,64633,5,2,0:0:0:0:
310,285,64761,1,2,0:0:0:0:
259,35,65020,6,0,P|287:32|261:56,1,83.9999974365235,10|0,0:0|0:0,0:0:0:0:
262,71,65407,2,0,L|268:91,2,11.9999996337891,2|0|0,0:0|0:0|0:0,0:0:0:0:
169,46,65601,2,0,L|175:26,2,11.9999996337891
83,86,65794,6,0,P|122:63|152:163,1,167.999994873047,8|0,0:3|0:0,0:0:0:0:
118,189,66181,1,2,0:0:0:0:
265,242,66278,2,0,L|185:254,1,69.9999978637696,2|0,0:0|0:0,0:0:0:0:
403,157,66568,2,0,P|324:150|300:71,1,149.333328776042,10|0,0:1|0:0,0:0:0:0:
385,18,66955,5,10,0:3:0:0:
370,94,67052,2,0,P|406:77|445:78,1,69.9999978637696,2|0,0:0|0:0,0:0:0:0:
325,210,67342,5,2,0:0:0:0:
246,167,67471,1,2,0:0:0:0:
296,93,67601,1,0,0:0:0:0:
330,224,67730,5,2,0:0:0:0:
251,181,67859,1,2,0:0:0:0:
174,227,67988,1,0,0:0:0:0:
93,92,68117,5,10,0:1:0:0:
95,183,68246,1,2,0:0:0:0:
97,274,68375,1,2,0:0:0:0:
15,139,68503,2,0,P|42:137|70:116,1,55.9999982910157,10|0,0:3|0:0,0:0:0:0:
120,31,68697,5,8,0:1:0:0:
137,44,68762,1,8,0:1:0:0:
157,51,68826,1,8,0:1:0:0:
179,52,68891,5,8,0:3:0:0:
47,224,69278,5,2,0:0:0:0:
87,278,69374,2,0,P|110:288|162:295,1,74.6666643880209,2|2,0:0|0:0,0:0:0:0:
257,206,69665,2,0,P|335:179|408:228,1,149.333328776042,10|0,0:1|0:0,0:0:0:0:
451,349,70052,5,10,0:3:0:0:
462,260,70181,1,2,0:0:0:0:
473,171,70310,1,0,0:0:0:0:
391,206,70439,2,0,P|394:126|426:93,1,111.999996582031,2|8,0:0|0:3,0:0:0:0:
380,295,70826,5,2,0:0:0:0:
292,274,70955,1,2,0:0:0:0:
203,253,71085,1,0,0:0:0:0:
328,148,71213,5,10,0:1:0:0:
310,136,71310,2,0,L|252:144,1,55.9999982910157,0|8,0:0|0:1,0:0:0:0:
122,30,71601,6,0,P|148:50|163:83,1,55.9999982910157,2|0,0:0|0:0,0:0:0:0:
139,182,71794,1,2,0:0:0:0:
129,202,71859,1,0,0:0:0:0:
130,224,71923,1,0,0:0:0:0:
143,242,71987,6,0,P|176:264|197:294,1,55.9999982910157,10|0,0:3|0:0,0:0:0:0:
275,318,72181,2,0,P|242:340|220:368,1,55.9999982910157,2|0,0:0|0:0,0:0:0:0:
228,161,72375,6,0,P|267:156|302:166,1,55.9999982910157,2|0,0:0|0:0,0:0:0:0:
390,182,72568,2,0,P|366:197|348:218,1,55.9999982910157,10|0,0:3|0:0,0:0:0:0:
138,338,72762,6,0,P|121:319|107:285,1,55.9999982910157,10|0,0:1|0:0,0:0:0:0:
215,229,72955,2,0,P|198:248|184:282,1,55.9999982910157,2|0,0:0|0:0,0:0:0:0:
13,251,73149,6,0,P|45:241|73:225,1,55.9999982910157,10|0,0:3|0:0,0:0:0:0:
138,157,73343,2,0,P|106:147|78:131,1,55.9999982910157,2|0,0:0|0:0,0:0:0:0:
7,42,73536,5,2,0:0:0:0:
241,11,73730,2,0,P|216:27|189:55,1,55.9999982910157,10|0,0:3|0:0,0:0:0:0:
265,162,73923,2,0,P|240:146|213:118,1,55.9999982910157,2|0,0:0|0:0,0:0:0:0:
402,122,74117,2,0,P|372:123|334:134,1,55.9999982910157,2|0,0:0|0:0,0:0:0:0:
193,289,74310,6,0,P|201:262|214:237,1,55.9999982910157,10|0,0:1|0:0,0:0:0:0:
273,337,74504,2,0,P|249:351|228:371,1,55.9999982910157,10|0,0:3|0:0,0:0:0:0:
89,367,74697,2,0,P|116:360|144:359,1,55.9999982910157,2|0,0:0|0:0,0:0:0:0:
110,277,74891,5,0,0:0:0:0:
106,265,74955,1,0,0:0:0:0:
102,253,75020,1,0,0:0:0:0:
98,241,75085,1,10,0:3:0:0:
299,264,75278,6,0,P|321:243|338:219,1,55.9999982910157,2|0,0:0|0:0,0:0:0:0:
351,121,75472,2,0,P|367:143|388:162,1,55.9999982910157,2|0,0:0|0:0,0:0:0:0:
473,185,75665,1,10,0:3:0:0:
226,182,75859,6,0,P|259:172|282:157,1,55.9999982910157,10|0,0:1|0:0,0:0:0:0:
245,39,76052,2,0,P|264:67|286:84,1,55.9999982910157,2|0,0:0|0:0,0:0:0:0:
386,12,76246,2,0,P|365:39|414:153,1,167.999994873047,10|0,0:3|0:0,0:0:0:0:
444,74,76632,5,2,0:0:0:0:
380,297,76826,2,0,L|367:252,1,40,2|0,0:0|0:0,0:0:0:0:
390,298,77020,2,0,L|377:253,1,40,2|0,0:0|0:0,0:0:0:0:
350,166,77214,1,2,0:0:0:0:
153,340,77407,6,0,L|171:275,1,64,2|0,0:0|0:0,0:0:0:0:
156,97,77601,2,0,L|138:158,1,64,2|0,0:0|0:0,0:0:0:0:
161,348,77794,2,0,L|179:283,1,64,10|0,0:1|0:0,0:0:0:0:
145,94,77988,5,8,0:1:0:0:
133,90,78052,1,8,0:1:0:0:
123,88,78117,1,8,0:1:0:0:
113,85,78181,5,10,0:3:0:0:
199,41,78278,1,0,0:0:0:0:
254,119,78375,2,0,L|243:185,1,64,2|0,0:0|0:0,0:0:0:0:
118,236,78568,2,0,L|129:173,1,64,2|2,0:0|0:0,0:0:0:0:
230,183,78761,1,8,0:3:0:0:
17,258,78955,5,10,0:1:0:0:
95,368,79084,1,0,0:0:0:0:
82,364,79149,2,0,L|71:288,1,64,2|0,0:0|0:0,0:0:0:0:
121,156,79342,2,0,L|130:219,1,64,10|0,0:3|0:0,0:0:0:0:
84,307,79536,1,2,0:3:0:0:
221,161,79729,6,0,P|257:157|299:190,1,85.3333333333333,2|2,0:3|0:0,0:0:0:0:
317,250,79923,1,10,0:3:0:0:
407,74,80117,1,2,0:0:0:0:
437,170,80245,1,2,0:0:0:0:
196,24,80503,6,0,P|213:55|224:90,1,64,10|0,0:1|0:0,0:0:0:0:
336,135,80697,2,0,P|313:157|295:184,1,64,2|0,0:0|0:0,0:0:0:0:
127,219,80891,2,0,P|202:253|235:306,1,128,2|10,0:0|0:3,0:0:0:0:
248,384,81181,1,2,0:0:0:0:
355,305,81278,6,0,P|359:281|351:241,1,64,10|0,0:3|0:0,0:0:0:0:
217,161,81472,2,0,P|197:111|220:28,1,128,2|0,0:0|0:0,0:0:0:0:
441,101,81859,5,10,0:3:0:0:
369,164,81955,1,0,0:0:0:0:
300,95,82052,2,0,P|302:63|318:26,1,64,10|0,0:1|0:0,0:0:0:0:
447,181,82246,2,0,P|458:210|460:242,1,64,2|0,0:0|0:0,0:0:0:0:
383,338,82439,2,0,P|372:307|353:281,1,64,10|0,0:3|0:0,0:0:0:0:
202,248,82633,5,2,0:0:0:0:
271,181,82730,1,2,0:0:0:0:
203,114,82826,2,0,P|189:83|184:40,1,64,2|0,0:0|0:0,0:0:0:0:
363,97,83020,2,0,P|323:151|267:182,1,128,10|0,0:3|0:0,0:0:0:0:
29,80,83407,6,0,L|18:37,3,32,2|0|0|0,0:0|0:0|0:0|0:0,0:0:0:0:
39,93,83601,2,0,L|20:175,1,64,10|0,0:1|0:0,0:0:0:0:
83,306,83794,2,0,L|64:388,1,64,10|0,0:1|0:0,0:0:0:0:
152,167,83988,2,0,L|167:105,1,64,10|0,0:1|0:0,0:0:0:0:
211,318,84181,2,0,L|201:359,2,42.6666666666667,10|0|0,0:3|0:0|0:0,0:0:0:0:
202,307,84375,2,0,P|235:309|260:281,1,64,12|0,0:3|0:0,0:0:0:0:
300,135,84568,6,0,P|323:114|354:117,1,64,2|0,0:0|0:0,0:0:0:0:
482,303,84762,2,0,L|469:199,1,85.3333333333333,2|2,0:0|0:0,0:0:0:0:
444,202,84955,2,0,L|449:138,1,64,10|0,0:3|0:0,0:0:0:0:
313,6,85149,2,0,P|343:21|366:57,1,64,10|0,0:1|0:0,0:0:0:0:
294,199,85343,2,0,P|303:131|371:124,1,128,2|8,0:0|0:3,0:0:0:0:
268,338,85730,6,0,P|236:357|193:361,1,64,2|0,0:0|0:0,0:0:0:0:
120,244,85923,1,2,0:0:0:0:
210,275,86020,1,2,0:0:0:0:
254,189,86117,2,0,L|235:106,1,64,10|0,0:3|0:0,0:0:0:0:
34,203,86310,2,0,L|15:286,1,64,2|0,0:0|0:0,0:0:0:0:
90,382,86504,2,0,L|133:335,1,64,2|0,0:0|0:0,0:0:0:0:
356,286,86697,6,0,P|375:314|378:354,1,64,10|0,0:1|0:0,0:0:0:0:
230,246,86891,2,0,P|235:214|253:188,1,64,10|0,0:3|0:0,0:0:0:0:
452,151,87085,2,0,P|410:165|352:174,1,95.9999970703126,2|0,0:0|0:0,0:0:0:0:
289,98,87278,2,0,P|278:86|264:76,2,31.9999990234375,2|0|0,0:0|0:0|0:0,0:0:0:0:
298,112,87472,1,8,0:3:0:0:
102,124,87665,6,0,P|130:129|174:147,1,64,2|0,0:0|0:0,0:0:0:0:
144,221,87859,2,0,P|157:246|170:291,1,64,2|0,0:0|0:0,0:0:0:0:
93,313,88052,2,0,P|81:338|53:377,1,64,8|0,0:3|0:0,0:0:0:0:
0,98,88246,2,0,P|21:79|62:55,1,64,10|0,0:1|0:0,0:0:0:0:
102,124,88439,2,0,P|179:144|256:143,1,128,2|8,0:0|0:3,0:0:0:0:
64,298,88826,6,0,P|84:307|106:311,2,42.6666666666667,2|0|0,0:0|0:0|0:0,0:0:0:0:
50,288,89020,1,2,0:0:0:0:
227,145,89214,6,0,P|233:140|242:137,6,16,8|0|0|0|0|0|0,0:3|0:0|0:0|0:0|0:0|0:0|0:0,0:0:0:0:
216,154,89407,2,0,L|206:121,1,32,10|0,0:1|0:0,0:0:0:0:
391,232,89697,6,0,L|401:199,2,32,8|0|10,0:1|0:0|0:1,0:0:0:0:
207,360,90084,2,0,L|240:350,2,32,10|0|10,0:1|0:0|0:1,0:0:0:0:
70,130,90568,6,0,P|40:175|39:251,1,120,10|0,0:3|0:0,0:0:0:0:
213,196,91342,2,0,P|166:190|134:210,1,80,8|0,0:0|0:0,0:0:0:0:
358,342,92117,5,2,0:0:0:0:
312,224,92407,2,0,P|334:242|356:250,1,50,2|2,0:0|0:0,0:0:0:0:
287,147,92891,5,10,0:0:0:0:
177,213,93149,1,2,0:0:0:0:
75,106,93439,1,2,0:0:0:0:
172,15,93665,6,0,L|195:91,1,80,2|0,0:0|0:0,0:0:0:0:
177,213,94246,1,2,0:0:0:0:
211,99,94439,2,0,L|222:137,1,40,10|0,0:0|0:0,0:0:0:0:
283,290,94826,2,0,P|255:238|301:209,1,120,2|0,0:0|0:0,0:0:0:0:
412,254,95601,6,0,L|426:209,1,40,2|0,0:0|0:0,0:0:0:0:
355,135,95988,2,0,L|335:73,1,60,10|0,0:0|0:0,0:0:0:0:
340,63,96374,1,2,0:0:0:0:
135,127,96761,6,0,P|173:132|215:208,1,120,10|0,0:3|0:0,0:0:0:0:
131,282,97536,2,0,L|143:188,1,80,8|0,0:0|0:0,0:0:0:0:
333,368,98310,5,10,0:3:0:0:
283,258,98600,2,0,L|294:204,1,50,2|2,0:0|0:0,0:0:0:0:
207,301,99085,1,10,0:1:0:0:
140,200,99407,1,2,0:0:0:0:
199,91,99665,2,0,L|187:34,1,47.9999985351563,2|0,0:0|0:0,0:0:0:0:
119,8,99859,5,10,0:1:0:0:
381,102,100246,1,8,0:1:0:0:
119,196,100633,1,10,0:1:0:0:
381,290,101020,5,10,0:1:0:0:
250,337,101214,1,8,0:1:0:0:
308,92,101407,5,8,0:1:0:0:
369,173,101536,2,0,L|360:208,3,31.9999990234375,8|8|8|8,0:1|0:1|0:1|0:1,0:0:0:0:
378,165,101794,1,8,0:1:0:0:
117,67,101988,6,0,L|133:112,1,47.9999985351563,2|0,0:0|0:0,0:0:0:0:
174,254,102181,2,0,L|190:209,1,47.9999985351563,2|0,0:0|0:0,0:0:0:0:
280,31,102375,2,0,L|283:78,1,47.9999985351563,2|0,0:0|0:0,0:0:0:0:
386,293,102568,5,0,1:1:0:0:
296,195,102697,1,0,1:1:0:0:
174,254,102826,1,0,1:1:0:0:
162,378,102955,6,0,P|136:224|42:69,1,320,14|0,1:3|0:0,0:0:0:0:
32,348,103536,2,0,P|49:309|79:269,1,80,2|0,0:0|0:0,0:0:0:0:
246,176,103730,1,10,0:1:0:0:
89,169,103923,6,0,P|73:154|104:159,1,80,10|0,0:3|0:0,0:0:0:0:
225,53,104117,2,0,P|202:86|186:294,1,240,2|0,0:0|0:0,0:0:0:0:
258,376,104504,1,2,0:0:0:0:
437,230,104697,2,0,P|413:210|442:214,1,80,8|0,0:3|0:0,0:0:0:0:
371,125,104891,1,2,0:0:0:0:
317,299,105085,6,0,P|305:259|289:221,1,80,2|0,0:0|0:0,0:0:0:0:
198,128,105278,2,0,P|209:88|226:50,1,80,10|0,0:1|0:0,0:0:0:0:
368,212,105472,1,10,0:0:0:0:
209,312,105665,1,10,0:0:0:0:
64,198,105859,2,0,P|57:169|47:145,2,53.3333333333333,8|0|0,0:3|0:0|0:0,0:0:0:0:
78,278,106052,6,0,P|110:181|317:60,1,320,14|0,0:3|0:0,0:0:0:0:
316,326,106632,1,10,0:3:0:0:
381,107,106826,6,0,P|401:140|417:186,1,80,10|0,0:1|0:0,0:0:0:0:
307,212,107020,2,0,P|281:241|242:270,1,80,2|0,0:0|0:0,0:0:0:0:
184,174,107214,2,0,P|148:159|68:69,1,160,10|0,0:3|0:0,0:0:0:0:
381,107,107601,5,2,0:0:0:0:
267,97,107794,2,0,P|255:73|278:93,1,80,8|0,0:3|0:0,0:0:0:0:
307,212,107988,1,10,0:0:0:0:
190,271,108181,1,2,0:0:0:0:
0,157,108375,6,0,P|41:168|90:177,1,80,10|0,0:1|0:0,0:0:0:0:
134,60,108568,2,0,P|175:49|224:40,1,80,10|0,0:3|0:0,0:0:0:0:
307,212,108762,2,0,P|337:242|374:274,1,80,2|0,0:0|0:0,0:0:0:0:
495,106,108955,5,0,1:1:0:0:
477,93,109020,1,0,1:1:0:0:
455,89,109085,1,0,1:1:0:0:
434,95,109149,6,0,P|361:106|252:97,1,160,14|0,1:3|0:0,0:0:0:0:
465,326,109536,2,0,P|416:270|180:149,1,320,2|8,0:0|0:1,0:0:0:0:
317,379,110117,6,0,P|303:332|232:240,1,160,10|0,0:3|0:0,0:0:0:0:
0,365,110504,2,0,P|45:248|144:158,1,240,2|0,0:0|0:0,0:0:0:0:
288,146,110891,2,0,P|232:75|240:164,1,240,10|0,0:3|0:0,0:0:0:0:
392,227,111278,6,0,P|354:218|296:214,1,80,2|0,0:0|0:0,0:0:0:0:
97,363,111472,2,0,P|138:351|181:326,1,80,10|0,0:1|0:0,0:0:0:0:
143,209,111665,2,0,P|159:169|165:120,1,80,10|0,0:0|0:0,0:0:0:0:
49,77,111859,2,0,P|27:39|-7:4,1,80,10|0,0:0|0:0,0:0:0:0:
69,283,112052,2,0,P|93:290|121:304,2,53.3333333333333,8|0|0,0:3|0:0|0:0,0:0:0:0:
2,262,112246,6,0,P|78:250|231:192,1,240,14|0,0:3|0:0,0:0:0:0:
319,114,112633,1,2,0:0:0:0:
149,93,112826,2,0,P|122:103|140:73,1,80,8|0,0:3|0:0,0:0:0:0:
320,5,113020,1,8,0:1:0:0:
271,210,113214,6,0,P|250:138|239:37,1,160,2|8,0:0|0:3,0:0:0:0:
481,252,113601,2,0,P|424:150|312:82,1,240,2|0,0:0|0:0,0:0:0:0:
152,152,113988,2,0,P|198:151|242:141,1,80,10|0,0:3|0:0,0:0:0:0:
26,6,114181,5,8,0:1:0:0:
38,74,114278,1,8,0:1:0:0:
50,142,114375,1,10,0:1:0:0:
63,211,114472,1,8,0:1:0:0:
78,279,114568,6,0,L|118:259,1,40,10|0,0:1|0:0,0:0:0:0:
106,84,114761,2,0,L|137:116,1,40,10|0,0:1|0:0,0:0:0:0:
300,50,114955,2,0,L|278:90,1,40,10|0,0:1|0:0,0:0:0:0:
392,223,115149,2,0,L|347:215,1,40,10|0,0:1|0:0,0:0:0:0:
255,363,115343,6,0,B|181:278|290:230|211:132,1,240,14|0,0:3|0:0,0:0:0:0:
134,84,115730,2,0,P|114:42|110:2,1,80,2|0,0:0|0:0,0:0:0:0:
305,10,115923,2,0,P|298:49|280:84,1,80,2|0,0:0|0:0,0:0:0:0:
86,200,116117,6,0,P|131:194|179:215,1,80,10|0,0:1|0:0,0:0:0:0:
215,137,116310,2,0,P|242:173|248:225,1,80,10|0,0:3|0:0,0:0:0:0:
291,368,116504,2,0,P|301:289|334:217,1,160,2|0,0:0|0:0,0:0:0:0:
498,370,116891,5,2,0:0:0:0:
429,232,117085,2,0,P|434:217|433:240,1,80,8|0,0:3|0:0,0:0:0:0:
392,137,117278,1,0,0:0:0:0:
333,217,117472,5,2,0:0:0:0:
263,0,117665,2,0,P|243:38|211:66,1,80,10|0,0:1|0:0,0:0:0:0:
256,149,117859,2,0,P|213:156|171:148,1,80,10|0,0:0|0:0,0:0:0:0:
134,235,118052,2,0,P|101:206|82:168,1,80,10|0,0:0|0:0,0:0:0:0:
80,26,118246,2,0,P|84:58|67:40,1,80,10|0,0:3|0:0,0:0:0:0:
0,217,118439,6,0,P|50:85|176:150,1,320,14|2,0:3|0:0,0:0:0:0:
161,348,119020,2,0,P|143:341|173:333,1,80,10|0,0:3|0:0,0:0:0:0:
84,174,119214,1,10,0:1:0:0:
206,245,119407,1,2,0:0:0:0:
289,110,119600,2,0,P|322:84|430:114,1,160,10|0,0:3|0:0,0:0:0:0:
510,323,119988,5,2,0:0:0:0:
343,290,120181,2,0,P|333:264|352:287,1,80,8|0,0:3|0:0,0:0:0:0:
254,365,120375,1,0,0:0:0:0:
179,216,120568,6,0,P|204:243|256:275,1,80,2|0,0:0|0:0,0:0:0:0:
300,192,120762,2,0,P|336:188|393:167,1,80,10|0,0:1|0:0,0:0:0:0:
81,23,120955,2,0,P|75:59|81:120,1,80,10|0,0:3|0:0,0:0:0:0:
174,103,121149,2,0,P|199:130|250:162,1,80,10|0,0:1|0:0,0:0:0:0:
123,292,121342,2,0,P|107:307|70:327,2,53.3333333333333,8|0|0,0:3|0:0|0:0,0:0:0:0:
88,230,121536,6,0,P|157:266|231:146,1,240,14|0,0:3|0:0,0:0:0:0:
305,37,121923,2,0,P|239:77|234:154,1,160,2|0,0:0|0:0,0:0:0:0:
393,359,122310,1,8,0:1:0:0:
497,210,122504,6,0,P|421:254|332:267,1,160,10|0,0:3|0:0,0:0:0:0:
374,15,122891,2,0,P|365:115|281:230,1,240,2|0,0:0|0:0,0:0:0:0:
101,237,123278,2,0,P|131:192|137:289,1,240,10|0,0:3|0:0,0:0:0:0:
40,288,123665,6,0,P|21:253|10:205,1,80,2|0,0:0|0:0,0:0:0:0:
134,159,123858,2,0,P|149:122|180:84,1,80,10|0,0:1|0:0,0:0:0:0:
361,248,124052,2,0,P|321:241|277:220,1,80,10|0,0:0|0:0,0:0:0:0:
317,94,124245,2,0,P|298:58|287:11,1,80,10|0,0:0|0:0,0:0:0:0:
440,258,124439,2,0,P|445:280|459:313,2,53.3333333333333,8|0|0,0:3|0:0|0:0,0:0:0:0:
479,198,124633,6,0,P|397:223|254:166,1,240,14|0,0:3|0:0,0:0:0:0:
187,66,125020,1,2,0:0:0:0:
131,227,125214,2,0,P|116:200|138:221,1,80,8|0,0:3|0:0,0:0:0:0:
34,136,125407,1,8,0:1:0:0:
254,12,125601,6,0,P|266:120|255:175,1,160,2|8,0:0|0:3,0:0:0:0:
411,38,125988,2,0,P|379:145|288:265,1,240,2|0,0:0|0:0,0:0:0:0:
197,292,126374,2,0,P|166:251|211:284,1,160,10|0,0:3|0:0,0:0:0:0:
11,261,126762,6,0,P|59:254|97:230,1,80,2|0,0:0|0:0,0:0:0:0:
231,19,126955,2,0,P|82:66|148:188,1,320,10|2,0:1|0:0,0:0:0:0:
328,133,127536,2,0,P|249:121|174:95,1,160,2|8,0:0|0:3,0:0:0:0:
174,346,128117,5,2,0:0:0:0:
145,253,128245,1,2,0:0:0:0:
188,349,128504,6,0,L|154:247,1,95.9999970703126,10|8,0:1|0:3,0:0:0:0:
394,88,129278,5,2,0:0:0:0:
350,249,129407,1,2,0:0:0:0:
376,102,129665,5,2,0:0:0:0:
340,230,129794,1,2,0:0:0:0:
194,49,130052,6,0,L|205:89,1,35.9999989013672,10|0,0:1|0:0,0:0:0:0:
217,94,130246,6,0,L|201:150,1,47.9999985351563,2|0,0:0|0:0,0:0:0:0:
113,191,130439,1,2,0:0:0:0:
107,209,130536,1,2,0:0:0:0:
172,247,130633,1,2,0:0:0:0:
182,262,130730,1,2,0:0:0:0:
252,234,130826,5,8,0:1:0:0:
132,41,131257,5,8,0:1:0:0:
365,82,131689,6,0,L|340:86,1,20
442,275,132120,5,2,0:0:0:0:
61,335,132545,6,0,L|26:205,1,128,12|2,0:3|0:0,0:0:0:0:
130,84,133115,1,2,0:0:0:0:
87,149,133240,6,0,L|94:177,1,16,2|0,0:0|0:0,0:0:0:0:
163,210,133401,1,10,0:1:0:0:
188,202,133508,1,2,0:0:0:0:
213,195,133615,1,2,0:0:0:0:
356,348,133865,6,0,P|373:293|397:234,1,117.333333333333,2|0,0:0|0:0,0:0:0:0:
140,35,134687,6,0,P|144:50|153:67,1,21.3333333333333,2|0,0:0|0:0,0:0:0:0:
122,123,134830,2,0,P|137:127|156:127,1,21.3333333333333,2|0,0:0|0:0,0:0:0:0:
189,181,134972,2,0,P|200:169|210:153,1,21.3333333333333,2|0,0:0|0:0,0:0:0:0:
273,152,135115,1,10,0:1:0:0:
289,64,135258,1,2,0:0:0:0:
373,34,135401,1,2,0:0:0:0:
440,91,135544,2,0,P|404:118|419:170,1,96,2|0,0:0|0:0,0:0:0:0:
495,231,135972,6,0,B|416:212|434:279|347:256,1,144,12|0,0:3|0:0,0:0:0:0:
281,214,136561,2,0,L|286:257,1,32,2|0,0:0|0:0,0:0:0:0:
85,213,136830,5,10,0:1:0:0:
168,179,136972,1,2,0:0:0:0:
159,89,137115,1,2,0:0:0:0:
70,69,137258,1,2,0:0:0:0:
154,269,137472,6,0,L|229:257,1,64,8|0,0:3|0:0,0:0:0:0:
330,43,138115,6,0,L|352:96,1,48,2|0,0:0|0:0,0:0:0:0:
419,119,138544,1,8,0:0:0:0:
367,261,138758,6,0,L|353:257,1,8
273,311,138972,2,0,L|262:303,1,13.9999995727539
120,323,139187,2,0,L|107:306,1,20
124,175,139401,6,0,P|196:186|205:253,1,144,12|2,0:3|0:0,0:0:0:0:
159,296,139990,2,0,L|201:289,1,32,2|0,0:0|0:0,0:0:0:0:
330,221,140258,5,8,0:1:0:0:
330,300,140401,1,2,0:0:0:0:
391,334,140526,1,2,0:0:0:0:
477,273,140687,2,0,B|481:242|462:240|466:210,1,64,2|0,0:0|0:0,0:0:0:0:
492,25,141115,6,0,L|470:31,1,16,2|0,0:0|0:0,0:0:0:0:
233,32,141544,6,0,P|244:43|258:63,1,21.3333333333333,2|0,0:0|0:0,0:0:0:0:
325,60,141687,2,0,P|321:75|310:97,1,21.3333333333333,2|0,0:0|0:0,0:0:0:0:
346,153,141830,2,0,P|330:157|306:159,1,21.3333333333333,2|0,0:0|0:0,0:0:0:0:
275,217,141972,2,0,P|263:205|249:185,1,21.3333333333333,14|0,0:1|0:0,0:0:0:0:
313,304,142115,1,2,0:0:0:0:
407,294,142258,1,2,0:0:0:0:
426,201,142401,2,0,P|457:183|511:190,1,85.3333333333333,2|0,0:0|0:0,0:0:0:0:
485,302,142830,6,0,L|478:250,1,42.6666666666667,14|2,0:3|0:0,0:0:0:0:
289,339,143151,2,0,L|299:281,1,48,2|0,0:0|0:0,0:0:0:0:
235,229,143436,2,0,L|228:177,1,42.6666666666667,2|0,0:0|0:0,0:0:0:0:
356,50,143687,5,10,0:1:0:0:
281,65,143820,2,0,L|243:60,1,32,2|2,0:0|0:0,0:0:0:0:
131,95,144115,2,0,L|189:104,1,32,2|0,0:0|0:0,0:0:0:0:
331,119,144330,1,8,0:3:0:0:
176,234,144544,6,0,L|244:246,1,42.6666666666667,2|2,0:0|0:0,0:0:0:0:
82,328,144865,2,0,L|143:317,1,32,2|0,0:0|0:0,0:0:0:0:
18,157,145115,2,0,L|86:169,1,42.6666666666667,2|0,0:0|0:0,0:0:0:0:
241,344,145401,6,0,P|250:326|250:286,2,42.6666666666667,10|2|0,0:1|0:0|0:0,0:0:0:0:
172,273,145830,2,0,P|208:296|256:285,1,85.3333333333333,2|0,0:0|0:0,0:0:0:0:
378,153,146258,5,10,0:0:0:0:
433,308,146401,1,2,0:0:0:0:
271,75,146687,5,10,0:0:0:0:
220,154,146830,1,2,0:0:0:0:
271,214,146972,1,2,0:0:0:0:
172,335,147115,2,0,L|154:236,1,85.3333333333333,10|0,0:0|0:0,0:0:0:0:
313,49,147540,5,2,0:0:0:0:
437,162,147669,1,2,0:0:0:0:
271,214,147798,1,2,0:0:0:0:
482,70,147972,5,14,0:3:0:0:
358,207,148114,2,0,P|352:231|349:275,1,42.6666666666667,2|0,0:0|0:0,0:0:0:0:
447,350,148293,2,0,P|401:293|280:296,1,192,2|0,0:0|0:0,0:0:0:0:
129,384,148829,5,8,0:1:0:0:
129,384,149257,1,2,0:0:0:0:
88,294,149364,2,0,L|104:214,1,64,2|0,0:0|0:0,0:0:0:0:
117,170,149543,1,2,0:0:0:0:
0,42,149686,5,2,0:0:0:0:
79,39,149793,2,0,L|58:135,1,64,2|12,0:0|0:3,0:0:0:0:
221,209,150007,2,0,L|190:68,1,128,2|0,0:0|0:0,0:0:0:0:
259,37,150329,2,0,L|271:-19,2,42.6666666666667
278,78,150543,6,0,P|260:61|298:58,1,88.000002685547,8|0,0:1|0:0,0:0:0:0:
381,251,150757,2,0,P|348:264|360:231,1,88.000002685547
439,29,150972,5,2,0:0:0:0:
494,218,151114,1,2,0:0:0:0:
484,230,151186,1,2,0:0:0:0:
308,146,151399,6,0,L|428:131,1,88.000002685547,14|0,0:3|0:0,0:0:0:0:
181,145,151721,2,0,P|266:141|289:241,1,176.000005371094,2|0,0:0|0:0,0:0:0:0:
263,287,152043,2,0,P|258:314|261:347,2,58.6666684570313
250,275,152256,1,8,0:1:0:0:
391,220,152471,1,0,0:0:0:0:
187,30,152685,5,14,0:3:0:0:
131,95,152793,2,0,L|164:229,1,132.00000402832
26,297,153113,5,2,0:0:0:0:
30,135,153256,1,2,0:0:0:0:
177,240,153400,2,0,P|48:234|55:331,1,234.666673828125,2|0,0:0|0:0,0:0:0:0:
311,35,153972,5,10,0:1:0:0:
368,102,154079,2,0,L|362:245,1,132.00000402832
182,259,154400,5,2,0:0:0:0:
203,120,154543,1,2,0:0:0:0:
193,249,154686,1,2,0:0:0:0:
94,24,154829,5,14,0:3:0:0:
0,154,154972,1,2,0:0:0:0:
1,0,155114,2,0,L|53:246,1,234.666673828125,2|0,0:0|0:0,0:0:0:0:
111,297,155472,2,0,L|97:366,2,58.6666684570313,0|2|0,0:0|0:0|0:0,0:0:0:0:
129,291,155686,5,10,0:1:0:0:
199,347,155793,2,0,P|216:270|178:214,1,132.00000402832,2|0,0:0|0:0,0:0:0:0:
0,165,156114,2,0,P|44:164|69:117,1,88.000002685547,8|0,0:3|0:0,0:0:0:0:
56,34,156355,1,2,0:0:0:0:
223,74,156543,6,0,P|218:117|219:161,1,88.000002685547,2|2,0:0|0:0,0:0:0:0:
260,268,156829,1,2,0:0:0:0:
295,201,156972,2,0,P|172:234|135:149,1,234.666673828125,2|0,0:0|0:0,0:0:0:0:
358,14,157400,5,10,0:1:0:0:
434,81,157507,2,0,L|404:228,1,117.333336914063,2|8,0:0|0:1,0:0:0:0:
226,323,157829,5,2,0:0:0:0:
305,338,157936,1,10,0:1:0:0:
348,272,158043,1,2,0:0:0:0:
0,251,158257,5,14,0:3:0:0:
229,191,158436,1,2,0:0:0:0:
196,177,158543,2,0,P|147:219|155:277,1,117.333336914063,10|0,0:1|0:0,0:0:0:0:
226,323,158829,2,0,P|269:314|297:271,1,88.000002685547,10|2,0:1|0:0,0:0:0:0:
332,12,159114,5,10,0:1:0:0:
136,59,159257,1,2,0:0:0:0:
278,206,159399,1,10,0:1:0:0:
221,38,159543,5,14,0:3:0:0:
196,177,159650,2,0,L|229:56,1,117.333336914063,2|2,0:1|0:0,0:0:0:0:
379,77,159971,5,10,0:1:0:0:
383,95,160042,1,8,0:1:0:0:
387,113,160113,1,10,0:1:0:0:
391,131,160185,1,12,0:3:0:0:
125,189,160400,6,0,L|138:148,3,32,10|0|0|2,0:1|0:0|0:0|0:0,0:0:0:0:
124,141,160614,6,0,L|102:81,2,42.6666666666667,0|0|0,1:0|1:0|1:0,0:0:0:0:
220,37,160829,2,0,L|210:78,3,32,10|0|0|0,0:3|0:0|0:0|0:0,0:0:0:0:
195,76,161043,2,0,P|212:102|225:131,1,64,8|0,0:1|0:0,0:0:0:0:
247,376,161257,5,10,0:1:0:0:
38,248,161400,1,10,0:1:0:0:
325,130,161543,1,10,0:1:0:0:
38,248,162262,6,0,P|29:227|16:198,1,40,2|0,0:0|0:0,0:0:0:0:
36,321,162456,5,10,0:1:0:0:
132,261,162585,1,8,0:1:0:0:
178,365,162714,1,8,0:1:0:0:
275,228,162843,5,10,0:1:0:0:
449,367,162972,1,8,0:1:0:0:
512,138,163101,1,8,0:1:0:0:
275,228,163230,6,0,P|343:177|321:327,1,352.000010742188,14|0,0:3|0:0,0:0:0:0:
201,326,163811,1,2,0:0:0:0:
439,217,164004,1,10,0:1:0:0:
190,130,164198,2,0,P|209:116|194:144,1,88.000002685547,14|0,0:3|0:0,0:0:0:0:
59,320,164391,2,0,P|51:225|129:186,1,176.000005371094,2|0,0:0|0:0,0:0:0:0:
353,384,164778,6,0,P|195:294|197:207,1,264.000008056641,2|0,0:0|0:0,0:0:0:0:
268,182,165165,2,0,P|296:147|305:95,1,88.000002685547,2|0,0:0|0:0,0:0:0:0:
175,35,165359,2,0,P|185:77|212:111,1,88.000002685547,2|0,0:0|0:0,0:0:0:0:
500,182,165552,6,0,P|455:182|410:221,1,88.000002685547,10|0,0:1|0:0,0:0:0:0:
377,361,165746,2,0,P|340:384|297:384,1,88.000002685547,10|0,0:0|0:0,0:0:0:0:
190,230,165940,2,0,P|152:207|109:210,1,88.000002685547,10|0,0:0|0:0,0:0:0:0:
18,317,166133,2,0,P|6:290|0:262,2,58.6666684570313,8|0|0,0:3|0:0|0:0,0:0:0:0:
68,372,166327,6,0,P|45:283|209:329,1,352.000010742188,14|0,0:3|0:0,0:0:0:0:
4,192,166907,2,0,P|42:211|98:215,1,88.000002685547,10|0,0:3|0:0,0:0:0:0:
273,18,167101,6,0,P|250:47|249:110,1,88.000002685547,10|0,0:1|0:0,0:0:0:0:
379,221,167294,2,0,P|376:264|350:299,1,88.000002685547,2|0,0:0|0:0,0:0:0:0:
210,324,167488,2,0,P|173:299|260:192,1,176.000005371094,14|0,0:3|0:0,0:0:0:0:
16,321,167875,2,0,P|22:211|119:89,1,264.000008056641,2|0,0:0|0:0,0:0:0:0:
202,45,168262,1,2,0:0:0:0:
312,219,168456,6,0,P|276:199|221:200,1,88.000002685547,2|0,0:0|0:0,0:0:0:0:
87,369,168649,1,10,0:1:0:0:
232,294,168843,2,0,P|262:299|229:304,1,88.000002685547,14|0,0:3|0:0,0:0:0:0:
57,220,169036,2,0,P|34:183|27:125,1,88.000002685547,2|0,0:0|0:0,0:0:0:0:
187,4,169230,5,0,1:0:0:0:
203,20,169294,1,0,1:0:0:0:
215,39,169359,1,0,1:0:0:0:
220,61,169423,6,0,P|285:112|317:-22,1,264.000008056641,14|0,1:3|0:0,0:0:0:0:
288,42,169811,2,0,P|313:76|332:129,1,88.000002685547,2|0,0:0|0:0,0:0:0:0:
317,252,170004,1,0,0:0:0:0:
7,171,170198,1,8,0:1:0:0:
189,108,170391,2,0,P|220:158|167:119,1,176.000005371094,10|0,0:3|0:0,0:0:0:0:
314,0,170778,6,0,P|347:95|407:282,1,264.000008056641,2|0,0:0|0:0,0:0:0:0:
495,353,171165,2,0,P|520:334|485:353,1,176.000005371094,10|0,0:3|0:0,0:0:0:0:
477,138,171552,2,0,P|444:169|389:184,1,88.000002685547,2|0,0:0|0:0,0:0:0:0:
116,130,171746,6,0,P|162:154|188:192,1,88.000002685547,10|0,0:1|0:0,0:0:0:0:
282,149,171940,2,0,P|291:201|277:243,1,88.000002685547,10|0,0:0|0:0,0:0:0:0:
369,291,172133,2,0,P|333:330|291:345,1,88.000002685547,10|0,0:0|0:0,0:0:0:0:
164,288,172327,2,0,P|190:293|223:306,2,58.6666684570313,8|0|0,0:3|0:0|0:0,0:0:0:0:
81,277,172520,6,0,P|146:277|135:124,1,264.000008056641,14|0,0:3|0:0,0:0:0:0:
0,182,172907,2,0,P|41:202|84:186,1,88.000002685547,2|0,0:0|0:0,0:0:0:0:
185,38,173101,2,0,P|206:14|196:41,1,88.000002685547,8|0,0:3|0:0,0:0:0:0:
295,279,173294,1,8,0:1:0:0:
307,28,173488,6,0,P|277:96|256:208,1,176.000005371094,2|8,0:0|0:3,0:0:0:0:
445,49,173875,2,0,P|480:129|512:313,1,264.000008056641,2|0,0:0|0:0,0:0:0:0:
455,375,174262,1,10,0:3:0:0:
252,330,174456,2,0,L|243:373,1,44.0000013427735,8|0,0:1|0:0,0:0:0:0:
50,286,174649,2,0,L|60:244,1,44.0000013427735,8|0,0:1|0:0,0:0:0:0:
379,216,174843,6,0,L|384:195,1,20,8|0,0:1|0:0,0:0:0:0:
313,137,175036,1,2,0:0:0:0:
216,175,175230,1,2,0:0:0:0:
223,279,175423,5,2,1:0:0:0:
260,272,175488,1,0,1:0:0:0:
296,279,175552,1,0,1:0:0:0:
323,305,175617,6,0,P|389:320|426:166,1,264.000008056641,14|0,1:3|0:0,0:0:0:0:
359,2,176004,2,0,P|340:39|352:96,1,88.000002685547,2|0,0:0|0:0,0:0:0:0:
485,106,176198,2,0,P|467:145|432:169,1,88.000002685547,2|0,0:0|0:0,0:0:0:0:
252,215,176391,6,0,L|356:208,1,88.000002685547,10|0,0:1|0:0,0:0:0:0:
248,44,176585,2,0,L|160:38,1,88.000002685547,14|0,0:3|0:0,0:0:0:0:
171,312,176778,6,0,L|129:139,1,176.000005371094,2|0,0:0|0:0,0:0:0:0:
19,373,177165,1,2,0:0:0:0:
9,216,177359,2,0,P|12:181|21:214,1,88.000002685547,8|0,0:3|0:0,0:0:0:0:
17,45,177552,1,0,0:0:0:0:
147,0,177746,1,2,0:0:0:0:
95,289,177940,6,0,P|114:262|175:253,1,88.000002685547,10|0,0:1|0:0,0:0:0:0:
326,346,178133,2,0,P|368:339|396:306,1,88.000002685547,10|0,0:0|0:0,0:0:0:0:
363,216,178327,2,0,P|384:178|375:136,1,88.000002685547,10|0,0:0|0:0,0:0:0:0:
278,100,178520,2,0,P|261:60|223:41,1,88.000002685547,10|0,0:3|0:0,0:0:0:0:
95,289,178714,6,0,P|193:318|259:182,1,264.000008056641,14|0,0:3|0:0,0:0:0:0:
142,139,179101,2,0,P|146:182|167:221,1,88.000002685547,2|0,0:0|0:0,0:0:0:0:
145,345,179294,2,0,P|181:369|224:376,1,88.000002685547,10|0,0:3|0:0,0:0:0:0:
430,123,179488,6,0,P|386:130|350:154,1,88.000002685547,10|0,0:1|0:0,0:0:0:0:
299,263,179681,2,0,P|262:287|219:294,1,88.000002685547,2|0,0:0|0:0,0:0:0:0:
72,137,179875,2,0,P|193:134|245:174,1,176.000005371094,14|0,0:3|0:0,0:0:0:0:
35,332,180262,1,2,0:0:0:0:
126,259,180456,2,0,P|150:255|136:262,1,88.000002685547,8|0,0:3|0:0,0:0:0:0:
306,368,180649,1,0,0:0:0:0:
272,242,180843,6,0,P|259:197|271:152,1,88.000002685547,2|0,0:0|0:0,0:0:0:0:
431,342,181036,2,0,P|464:309|476:264,1,88.000002685547,10|0,0:1|0:0,0:0:0:0:
261,258,181230,2,0,P|215:246|182:213,1,88.000002685547,10|0,0:3|0:0,0:0:0:0:
455,154,181423,2,0,P|467:108|455:63,1,88.000002685547,10|0,0:1|0:0,0:0:0:0:
286,74,181617,2,0,L|275:140,2,58.6666684570313,8|0|0,0:3|0:0|0:0,0:0:0:0:
309,0,181811,6,0,L|352:264,1,264.000008056641,14|0,0:3|0:0,0:0:0:0:
372,377,182198,2,0,P|362:297|278:290,1,176.000005371094,2|0,0:0|0:0,0:0:0:0:
15,381,182585,1,8,0:1:0:0:
42,235,182778,2,0,P|79:271|199:301,1,176.000005371094,10|0,0:3|0:0,0:0:0:0:
91,68,183165,6,0,P|81:97|262:201,1,264.000008056641,2|0,0:0|0:0,0:0:0:0:
323,174,183552,2,0,P|342:158|326:185,1,88.000002685547,10|0,0:3|0:0,0:0:0:0:
189,116,183746,1,0,0:0:0:0:
352,7,183940,6,0,P|327:41|321:105,1,88.000002685547,2|0,0:0|0:0,0:0:0:0:
436,189,184133,2,0,P|461:223|467:287,1,88.000002685547,10|0,0:1|0:0,0:0:0:0:
372,310,184327,2,0,P|360:350|313:394,1,88.000002685547,2|0,0:0|0:0,0:0:0:0:
237,334,184520,2,0,P|197:350|134:340,1,88.000002685547,2|0,0:0|0:0,0:0:0:0:
23,135,184714,2,0,P|18:104|-1:75,2,58.6666684570313,8|0|0,0:3|0:0|0:3,0:0:0:0:
97,179,184907,6,0,P|171:162|68:93,1,264.000008056641,14|0,0:3|0:0,0:0:0:0:
23,135,185294,1,2,0:0:0:0:
186,62,185488,2,0,P|210:53|188:77,1,88.000002685547,8|0,0:3|0:0,0:0:0:0:
106,290,185681,1,8,0:1:0:0:
287,186,185875,6,0,P|317:172|376:172,1,88.000002685547,2|0,0:3|0:0,0:0:0:0:
438,276,186069,2,0,P|414:267|436:291,1,88.000002685547,8|0,0:3|0:0,0:0:0:0:
213,309,186262,2,0,P|203:186|303:99,1,264.000008056641,2|0,0:0|0:0,0:0:0:0:
396,77,186649,2,0,P|451:51|386:62,1,176.000005371094,10|0,0:3|0:0,0:0:0:0:
382,350,187036,6,0,P|381:307|345:257,1,88.000002685547,2|0,0:0|0:0,0:0:0:0:
159,212,187230,2,0,P|117:112|254:56,1,264.000008056641,10|0,0:1|0:0,0:0:0:0:
347,128,187617,2,0,P|312:145|248:158,1,88.000002685547,2|0,0:0|0:0,0:0:0:0:
78,166,187811,5,2,1:0:0:0:
50,187,187875,1,0,1:0:0:0:
49,222,187940,1,0,1:0:0:0:
75,245,188004,6,0,B|139:272|150:217|217:244,1,143.999995605469,12|0,1:3|0:0,0:0:0:0:
405,364,188391,5,2,0:0:0:0:
348,227,188520,1,2,0:0:0:0:
418,368,188778,6,0,L|385:277,1,71.9999978027344,10|0,0:1|0:0,0:0:0:0:
306,64,188972,2,0,P|347:91|296:72,1,160,14|0,0:3|0:0,0:0:0:0:
92,229,189552,5,10,0:1:0:0:
295,185,189681,1,2,0:0:0:0:
33,304,189940,5,10,0:1:0:0:
236,348,190069,1,2,0:0:0:0:
8,51,190327,6,0,P|69:46|101:136,1,160,2|2,0:0|0:0,0:0:0:0:
