osu file format v14

[General]
AudioFilename: audio.mp3
AudioLeadIn: 0
PreviewTime: 101891
Countdown: 0
SampleSet: Soft
StackLeniency: 0.4
Mode: 0
LetterboxInBreaks: 0
WidescreenStoryboard: 1

[Editor]
Bookmarks: 6948,13142,25529,37916,50303,65787,78173,90561,102948,127722,132533,147961,161676,163224,187998,190708
DistanceSpacing: 2
BeatDivisor: 4
GridSize: 32
TimelineZoom: 2.7

[Metadata]
Title:GIANTS (feat. Becky G, Keke Palmer, SOYEON, DUCKWRTH, Thutmose)
TitleUnicode:GIANTS (feat. Becky G, Keke Palmer, SOYEON, DUCKWRTH, Thutmose)
Artist:True Damage
ArtistUnicode:True Damage
Creator:Crissa
Version:Hard
Source:League of Legends
Tags:dmg lol ekko akali qiyana senna yasuo hazu- (g)i-dle pop english korean spanish riot games music team harloe benjamin rice the line animation [-crissaegrim-]
BeatmapID:2258370
BeatmapSetID:1079428

[Difficulty]
HPDrainRate:5
CircleSize:3.8
OverallDifficulty:7
ApproachRate:8
SliderMultiplier:1.2
SliderTickRate:1

[Events]
//Background and Video events
0,0,"bg6.jpg",0,0
//Break Periods
//Storyboard Layer 0 (Background)
//Storyboard Layer 1 (Fail)
//Storyboard Layer 2 (Pass)
//Storyboard Layer 3 (Foreground)
//Storyboard Layer 4 (Overlay)
//Storyboard Sound Samples

[TimingPoints]
762,387.096774193548,4,2,5,50,1,0
762,-100,4,2,5,50,0,0
6955,-166.666666666667,4,2,5,40,0,0
7536,-166.666666666667,4,2,5,36,0,0
8116,-166.666666666667,4,2,5,32,0,0
8697,-166.666666666667,4,2,5,28,0,0
9278,-166.666666666667,4,2,5,24,0,0
9471,-166.666666666667,4,2,5,32,0,0
9665,-166.666666666667,4,2,5,50,0,0
10149,-100,4,2,5,50,0,0
10826,-166.666666666667,4,2,5,50,0,0
11020,-166.666666666667,4,2,5,32,0,0
11794,-166.666666666667,4,2,5,40,0,0
12858,-125,4,2,5,50,0,0
12955,-100,4,2,5,55,0,0
13052,-83.3333333333334,4,2,5,60,0,0
13149,-100,4,2,5,60,0,0
25536,-83.3333333333333,4,2,5,70,0,0
37923,-200,4,2,5,50,0,0
47020,-83.3333333333333,4,2,5,50,0,0
47213,-83.3333333333333,4,2,5,60,0,0
48374,-83.3333333333333,4,2,5,65,0,0
49342,-83.3333333333333,4,2,5,55,0,0
50116,-83.3333333333333,4,2,5,65,0,0
50310,-76.9230769230769,4,2,5,80,0,1
61923,-83.3333333333333,4,2,5,65,0,0
62503,-166.666666666667,4,2,5,55,0,0
63084,-166.666666666667,4,2,5,50,0,0
65794,-83.3333333333333,4,2,5,65,0,0
76632,-100,4,2,5,60,0,0
77407,-62.5,4,2,5,65,0,0
77987,-83.3333333333333,4,2,5,65,0,0
90568,-200,4,2,5,50,0,0
99665,-83.3333333333333,4,2,5,50,0,0
99858,-83.3333333333333,4,2,5,55,0,0
101020,-83.3333333333333,4,2,5,60,0,0
101407,-83.3333333333333,4,2,5,65,0,0
101987,-83.3333333333333,4,2,5,55,0,0
102568,-83.3333333333333,4,2,5,70,0,0
102955,-76.9230769230769,4,2,5,80,0,1
114568,-62.5,4,2,5,65,0,0
115342,-76.9230769230769,4,2,5,80,0,1
127729,-50,4,2,5,100,0,0
128116,-166.666666666667,4,2,5,60,0,0
130245,-166.666666666667,4,2,5,70,0,0
130826,431.654676258993,4,2,5,70,1,0
130826,-100,4,2,5,70,0,0
131689,-100,4,2,5,65,0,0
131743,-100,4,2,5,5,0,0
132120,-100,4,2,5,65,0,0
132544,428.571428571429,4,2,5,70,1,0
132544,-125,4,2,5,70,0,0
138115,-125,4,2,5,65,0,0
138758,-125,4,2,5,60,0,0
138972,-125,4,2,5,65,0,0
139186,-250,4,2,5,70,0,0
139401,-125,4,2,5,65,0,0
147540,387.096774193548,4,2,5,70,1,0
147540,-100,4,2,5,70,0,0
147972,428.571428571429,4,2,5,75,1,1
147972,-100,4,2,5,75,0,1
150543,-100,4,2,5,75,0,1
158257,-90.9090909090909,4,2,5,75,0,1
160614,-90.9090909090909,4,2,5,75,0,1
161257,-76.9230769230769,4,2,5,80,0,0
161682,387.096774193548,4,2,5,100,1,0
161682,-100,4,2,5,100,0,0
162262,-100,4,2,5,60,0,0
162456,-100,4,2,5,75,0,0
163230,-71.4285714285714,4,2,5,80,0,1
174843,-111.111111111111,4,2,5,65,0,0
175617,-71.4285714285714,4,2,5,85,0,1
188004,-55.5555555555556,4,2,5,75,0,0
188391,-125,4,2,5,70,0,0
189552,-100,4,2,5,80,0,0
190714,-100,4,2,5,30,0,0

[Colours]
Combo1 : 118,106,255
Combo2 : 242,128,255
Combo3 : 216,159,223
Combo4 : 157,142,219
Combo5 : 255,214,128

[HitObjects]
256,192,762,12,8,5407,0:1:0:0:
146,63,5794,5,2,0:0:0:0:
123,164,5987,1,2,0:0:0:0:
100,265,6181,2,0,L|125:344,2,60,2|2|2,0:0|0:0|0:0,0:0:0:0:
146,63,6955,5,12,0:3:0:0:
224,76,7149,1,0,0:0:0:0:
292,35,7342,1,0,0:0:0:0:
385,82,7536,5,8,0:3:0:0:
372,160,7729,1,8,0:1:0:0:
413,228,7923,1,0,0:0:0:0:
366,321,8116,5,8,0:3:0:0:
288,308,8310,1,0,0:0:0:0:
220,349,8503,1,0,0:0:0:0:
127,302,8697,5,8,0:3:0:0:
140,224,8891,2,0,L|125:181,1,35.9999989013672,0|0,0:0|0:0,0:0:0:0:
66,139,9278,2,0,L|81:96,1,35.9999989013672,8|0,0:1|0:0,0:0:0:0:
114,89,9568,1,0,0:0:0:0:
114,89,9665,2,0,L|99:46,1,35.9999989013672,8|0,0:3|0:0,0:0:0:0:
309,8,10149,6,0,P|335:41|333:97,1,90,2|0,0:0|0:0,0:0:0:0:
263,150,10632,1,8,0:3:0:0:
333,214,10826,2,0,L|343:264,1,35.9999989013672,8|0,0:1|0:0,0:0:0:0:
412,282,11213,2,0,L|419:246,2,35.9999989013672,8|0|0,0:3|0:0|0:0,0:0:0:0:
368,360,11794,2,0,L|374:380,3,11.9999996337891,8|8|8|0,0:1|0:1|0:1|0:1,0:0:0:0:
281,366,12181,1,8,0:1:0:0:
217,303,12374,2,0,L|209:254,1,35.9999989013672,8|0,0:1|0:0,0:0:0:0:
181,117,12761,6,0,L|192:133,3,11.9999996337891,2|0|0|0,0:0|0:0|0:0|0:0,0:0:0:0:
294,61,13149,6,0,P|300:41|313:20,2,30,14|0|2,0:3|0:0|0:0,0:0:0:0:
355,150,13536,2,0,P|377:110|411:99,1,60,2|10,0:0|0:3,0:0:0:0:
436,105,13826,1,0,0:0:0:0:
436,105,13923,2,0,L|469:99,2,30,10|0|2,0:1|0:0|0:0,0:0:0:0:
496,179,14310,2,0,L|475:251,1,60,10|2,0:3|0:0,0:0:0:0:
326,353,14891,6,0,L|284:348,1,30,10|0,0:3|0:0,0:0:0:0:
259,381,15084,2,0,L|245:304,1,60,2|2,0:0|0:0,0:0:0:0:
208,295,15374,1,0,0:0:0:0:
208,295,15471,2,0,L|222:218,1,60,10|2,0:1|0:0,0:0:0:0:
257,207,15761,1,0,0:0:0:0:
257,207,15858,1,10,0:3:0:0:
185,143,16052,2,0,P|173:112|171:84,1,60,2|8,0:0|0:3,0:0:0:0:
56,13,16439,5,2,0:0:0:0:
49,41,16536,1,0,0:0:0:0:
42,69,16632,2,0,L|56:143,1,60,2|10,0:0|0:3,0:0:0:0:
86,162,16923,1,0,0:0:0:0:
86,162,17020,2,0,L|72:236,1,60,10|0,0:1|0:0,0:0:0:0:
14,345,17407,2,0,P|34:313|129:323,1,120,10|0,0:3|0:0,0:0:0:0:
238,372,17987,6,0,L|231:333,1,30,10|0,0:3|0:0,0:0:0:0:
266,308,18181,2,0,L|280:230,1,60,2|2,0:0|0:0,0:0:0:0:
239,217,18471,1,0,0:0:0:0:
239,217,18568,1,10,0:1:0:0:
318,118,18761,1,10,0:1:0:0:
237,14,18955,2,0,L|229:80,2,60,2|2|8,0:0|0:0|0:3,0:0:0:0:
50,18,19536,5,2,0:0:0:0:
129,82,19729,2,0,L|144:141,1,60,2|10,0:0|0:3,0:0:0:0:
262,203,20116,1,10,0:1:0:0:
277,297,20310,1,2,0:0:0:0:
203,356,20503,1,10,0:3:0:0:
114,321,20697,2,0,P|95:279|103:199,1,120,2|10,0:0|0:3,0:0:0:0:
196,124,21278,6,0,P|161:129|133:123,1,60,2|2,0:0|0:0,0:0:0:0:
30,39,21665,1,10,0:1:0:0:
125,25,21858,1,2,0:0:0:0:
219,11,22052,1,10,0:3:0:0:
277,87,22245,2,0,L|287:166,1,60,2|8,0:0|0:3,0:0:0:0:
464,30,22955,6,0,L|431:22,1,30,2|2,0:3|0:0,0:0:0:0:
362,72,23213,1,10,0:1:0:0:
436,129,23407,1,2,0:0:0:0:
388,243,23600,2,0,L|317:253,1,60,10|2,0:3|0:0,0:0:0:0:
253,311,23987,5,2,0:0:0:0:
262,339,24084,1,0,0:0:0:0:
271,367,24181,1,10,0:3:0:0:
176,351,24374,2,0,L|113:361,1,60,2|2,0:0|0:0,0:0:0:0:
72,341,24665,1,2,0:0:0:0:
72,341,24761,1,8,0:1:0:0:
53,255,24955,2,0,L|39:235,3,20,8|8|8|8,0:1|0:1|0:1|0:1,0:1:0:0:
145,278,25342,1,10,0:3:0:0:
232,153,25536,5,14,0:3:0:0:
271,261,25729,2,0,P|312:273|346:268,1,71.9999978027344,2|2,0:0|0:0,0:0:0:0:
384,254,26020,1,0,0:0:0:0:
384,254,26116,1,10,0:3:0:0:
452,132,26310,1,10,0:1:0:0:
375,28,26503,2,0,L|295:34,1,71.9999978027344,2|10,0:0|0:3,0:0:0:0:
277,68,26794,1,0,0:0:0:0:
277,68,26891,1,2,0:0:0:0:
157,15,27084,6,0,P|109:22|86:43,1,71.9999978027344,2|10,0:0|0:3,0:0:0:0:
74,75,27374,1,2,0:0:0:0:
74,75,27471,2,0,L|82:119,1,35.9999989013672,2|0,0:0|0:0,0:0:0:0:
69,152,27665,1,2,0:0:0:0:
192,130,27858,2,0,P|234:120|263:131,1,71.9999978027344,10|2,0:1|0:0,0:0:0:0:
286,171,28149,1,2,0:0:0:0:
286,171,28245,2,0,L|278:218,1,35.9999989013672,10|0,0:3|0:0,0:0:0:0:
250,238,28439,2,0,L|258:285,1,35.9999989013672,2|0,0:0|0:0,0:0:0:0:
233,310,28632,6,0,L|141:296,1,71.9999978027344,10|2,0:3|0:0,0:0:0:0:
123,319,28923,1,0,0:0:0:0:
123,319,29020,2,0,L|137:227,1,71.9999978027344,2|10,0:0|0:3,0:0:0:0:
99,221,29310,1,0,0:0:0:0:
99,221,29407,2,0,L|85:129,1,71.9999978027344,10|2,0:1|0:0,0:0:0:0:
50,128,29697,1,0,0:0:0:0:
50,128,29794,2,0,L|64:36,1,71.9999978027344,10|2,0:3|0:0,0:0:0:0:
39,18,30084,1,0,0:0:0:0:
39,18,30181,5,2,0:0:0:0:
162,0,30374,2,0,L|203:13,1,35.9999989013672,10|0,0:3|0:0,0:0:0:0:
216,49,30568,1,2,0:0:0:0:
345,38,30761,1,2,0:0:0:0:
358,59,30858,1,2,0:0:0:0:
371,80,30955,2,0,P|333:66|277:147,1,143.999995605469,10|0,0:1|0:0,0:0:0:0:
321,259,31536,1,8,0:3:0:0:
409,216,31729,5,8,0:3:0:0:
478,341,31923,1,2,0:0:0:0:
451,349,32020,1,2,0:0:0:0:
424,357,32116,2,0,L|379:348,1,35.9999989013672,2|0,0:0|0:0,0:0:0:0:
352,325,32310,2,0,L|307:334,1,35.9999989013672,10|0,0:3|0:0,0:0:0:0:
283,361,32503,2,0,P|264:313|172:298,1,143.999995605469,10|8,0:1|0:3,0:0:0:0:
60,358,33084,5,2,0:0:0:0:
4,291,33278,2,0,L|14:212,1,71.9999978027344,2|10,0:0|0:3,0:0:0:0:
50,197,33568,1,0,0:0:0:0:
50,197,33665,1,2,0:0:0:0:
0,82,33858,1,2,0:0:0:0:
101,9,34052,2,0,P|150:16|173:108,1,143.999995605469,10|8,0:1|0:3,0:0:0:0:
80,183,34632,1,2,0:3:0:0:
91,206,34729,1,2,0:0:0:0:
102,229,34826,6,0,B|134:244|134:244|179:234,1,71.9999978027344,10|2,0:3|0:0,0:0:0:0:
209,253,35116,1,0,0:0:0:0:
209,253,35213,2,0,B|244:245|244:245|276:260,1,71.9999978027344,2|10,0:0|0:3,0:0:0:0:
313,283,35503,1,0,0:0:0:0:
313,283,35600,1,10,0:1:0:0:
434,246,35794,1,2,0:0:0:0:
446,267,35891,1,0,0:0:0:0:
458,288,35987,2,0,L|466:245,1,35.9999989013672,10|0,0:3|0:0,0:0:0:0:
499,226,36181,2,0,L|507:183,1,35.9999989013672,2|2,0:0|0:0,0:0:0:0:
485,151,36374,5,2,0:0:0:0:
512,32,36568,1,10,0:3:0:0:
394,0,36761,2,0,L|309:14,1,71.9999978027344,2|2,0:0|0:0,0:0:0:0:
259,131,37149,2,0,P|243:74|98:64,1,215.999993408203,10|0,0:1|0:0,0:0:0:0:
43,177,37923,6,0,P|55:219|65:271,1,90,14|0,0:3|0:0,0:0:0:0:
142,329,38697,2,0,P|150:284|157:261,1,60,10|0,0:0|0:0,0:0:0:0:
290,183,39471,5,2,0:0:0:0:
216,125,39761,2,0,P|197:133|181:137,1,37.5,2|2,0:0|0:0,0:0:0:0:
72,183,40245,2,0,P|91:188|109:196,2,40,10|2|2,0:0|0:0|0:0,0:0:0:0:
6,117,41020,6,0,P|42:92|66:45,1,90,2|2,0:0|0:0,0:0:0:0:
142,7,41794,1,10,0:0:0:0:
238,114,42181,2,0,P|287:81|351:90,1,120,2|2,0:0|0:0,0:0:0:0:
441,184,43342,1,8,0:0:0:0:
295,328,44116,6,0,P|300:288|311:230,1,90,10|0,0:3|0:0,0:0:0:0:
236,180,44891,2,0,P|231:140|223:112,1,60,8|0,0:0|0:0,0:0:0:0:
54,26,45665,5,10,0:3:0:0:
0,125,45955,2,0,P|13:145|21:159,1,37.5,2|2,0:0|0:0,0:0:0:0:
80,250,46439,2,0,P|92:229|107:209,2,45,10|2|2,0:1|0:0|0:0,0:0:0:0:
73,328,47213,5,10,0:1:0:0:
216,343,47600,1,10,0:1:0:0:
257,205,47987,1,10,0:1:0:0:
134,130,48374,6,0,L|150:53,1,71.9999978027344,10|8,0:1|0:1,0:0:0:0:
52,131,48761,1,8,0:1:0:0:
29,173,48891,2,0,L|34:202,4,23.9999992675781,8|8|8|8|8,0:1|0:1|0:1|0:1|0:1,0:0:0:0:
302,250,50116,6,0,L|273:254,2,23.9999992675781,8|8|8,0:1|0:1|0:1,0:0:0:0:
325,239,50310,6,0,P|349:177|365:74,1,155.999992858887,14|0,1:3|0:0,0:0:0:0:
364,89,50891,1,2,0:0:0:0:
254,26,51084,5,10,0:1:0:0:
162,71,51278,1,10,0:3:0:0:
162,71,51471,2,0,P|173:111|179:151,1,77.9999964294435,2|0,0:0|0:0,0:0:0:0:
147,286,51858,2,0,P|176:256|207:231,1,77.9999964294435,2|8,0:0|0:3,0:0:0:0:
341,192,52245,2,0,P|300:181|263:166,1,77.9999964294435,2|2,0:0|0:0,0:0:0:0:
162,71,52632,5,10,0:1:0:0:
268,49,52826,1,10,0:0:0:0:
374,27,53020,1,10,0:0:0:0:
417,126,53213,1,10,0:3:0:0:
417,126,53407,6,0,P|449:196|473:279,1,155.999992858887,14|0,0:3|0:0,0:0:0:0:
471,271,53987,1,10,0:3:0:0:
370,355,54181,5,10,0:1:0:0:
287,283,54374,1,2,0:0:0:0:
287,283,54568,2,0,P|238:279|203:293,1,77.9999964294435,10|0,0:3|0:0,0:0:0:0:
133,364,54955,2,0,P|104:301|138:209,1,155.999992858887,2|2,0:0|0:0,0:0:0:0:
127,220,55536,1,2,0:0:0:0:
24,125,55729,5,10,0:1:0:0:
85,34,55923,1,10,0:3:0:0:
85,34,56116,1,2,0:0:0:0:
187,71,56310,2,0,L|219:62,2,25.9999988098145,0|0|0,1:0|1:0|1:0,0:0:0:0:
160,96,56503,6,0,P|192:156|216:244,2,155.999992858887,14|2|8,1:3|0:0|0:1,0:0:0:0:
62,46,57471,6,0,P|100:33|143:7,1,77.9999964294435,10|0,0:3|0:0,0:0:0:0:
245,74,57858,2,0,P|311:111|396:138,2,155.999992858887,2|10|2,0:0|0:3|0:0,0:0:0:0:
132,14,58826,5,10,0:1:0:0:
115,122,59020,1,10,0:0:0:0:
98,230,59213,1,10,0:0:0:0:
165,302,59407,1,10,0:3:0:0:
165,302,59600,6,0,P|237:314|326:323,1,155.999992858887,14|2,0:3|0:0,0:0:0:0:
319,322,60181,1,8,0:3:0:0:
401,225,60374,1,8,0:1:0:0:
321,151,60568,6,0,P|296:118|288:74,1,77.9999964294435,2|8,0:0|0:3,0:0:0:0:
368,4,60955,2,0,P|404:50|393:157,1,155.999992858887,2|10,0:0|0:3,0:0:0:0:
310,243,61536,5,2,0:0:0:0:
283,238,61632,1,2,0:0:0:0:
256,233,61729,1,2,0:0:0:0:
229,228,61826,1,2,0:0:0:0:
202,223,61923,6,0,B|146:232|146:232|120:257|120:257|64:273,1,143.999995605469,10|2,0:1|0:0,0:0:0:0:
22,348,62503,1,2,0:0:0:0:
26,121,63084,6,0,L|52:130,1,23.9999992675781,2|2,0:0|0:0,0:0:0:0:
190,55,63471,2,0,L|263:80,1,71.9999978027344,2|0,0:0|0:0,0:0:0:0:
462,192,64245,6,0,L|439:198,1,23.9999992675781,2|2,0:0|0:0,0:0:0:0:
332,303,64632,2,0,L|302:293,1,23.9999992675781,2|2,0:0|0:0,0:0:0:0:
184,209,65020,2,0,L|112:233,1,71.9999978027344,10|2,0:0|0:0,0:0:0:0:
13,20,65794,6,0,P|56:25|71:124,1,143.999995605469,8|2,0:3|0:0,0:0:0:0:
42,139,66278,2,0,L|34:185,1,35.9999989013672,2|8,0:0|0:3,0:0:0:0:
60,300,66568,2,0,P|109:267|102:180,1,143.999995605469,10|10,0:1|0:3,0:0:0:0:
146,149,67052,2,0,L|207:135,1,35.9999989013672,2|0,0:0|0:0,0:0:0:0:
270,209,67342,6,0,L|262:256,2,47.9999985351563,2|0|0,0:0|0:0|0:3,0:0:0:0:
302,144,67729,2,0,L|294:96,2,47.9999985351563,2|0|0,0:0|0:0|0:0,0:0:0:0:
376,169,68116,1,10,0:1:0:0:
376,169,68245,2,0,L|436:159,1,47.9999985351563,2|0,0:0|0:0,0:0:0:0:
458,98,68503,2,0,P|494:146|480:205,1,95.9999970703126,10|0,0:3|0:0,0:0:0:0:
458,243,68891,1,8,0:3:0:0:
255,316,69278,5,2,0:0:0:0:
255,316,69374,2,0,L|264:255,1,47.9999985351563,2|0,0:0|0:0,0:0:0:0:
344,208,69665,2,0,P|332:140|267:120,1,143.999995605469,10|10,0:1|0:3,0:0:0:0:
198,143,70181,2,0,L|138:135,1,47.9999985351563,2|0,0:0|0:0,0:0:0:0:
89,175,70439,2,0,P|29:153|30:63,1,143.999995605469,2|2,0:0|0:0,0:0:0:0:
57,20,70955,6,0,L|109:13,1,47.9999985351563,2|0,0:0|0:0,0:0:0:0:
169,60,71213,1,10,0:1:0:0:
169,60,71310,2,0,L|221:67,1,35.9999989013672,2|8,0:1|0:1,0:0:0:0:
293,5,71600,2,0,P|324:24|364:22,1,71.9999978027344,2|2,0:0|0:0,0:0:0:0:
481,99,71987,5,10,0:3:0:0:
442,199,72181,1,2,0:0:0:0:
335,216,72374,2,0,L|355:314,1,71.9999978027344,2|10,0:0|0:3,0:0:0:0:
228,359,72761,1,10,0:1:0:0:
208,253,72955,1,2,0:0:0:0:
189,146,73149,2,0,L|202:63,1,71.9999978027344,10|2,0:3|0:0,0:0:0:0:
86,6,73536,6,0,P|45:17|23:41,1,71.9999978027344,2|10,0:0|0:3,0:0:0:0:
16,145,73923,2,0,L|31:220,1,71.9999978027344,2|2,0:0|0:0,0:0:0:0:
2,311,74310,1,10,0:1:0:0:
103,349,74503,1,10,0:3:0:0:
172,266,74697,2,0,P|219:242|308:285,1,143.999995605469,2|10,0:0|3:3,0:0:0:0:
368,384,75278,5,2,0:0:0:0:
458,324,75471,2,0,P|473:299|474:236,1,71.9999978027344,2|10,0:0|0:3,0:0:0:0:
414,170,75858,1,10,0:1:0:0:
469,86,76052,1,2,0:0:0:0:
383,32,76245,2,0,P|295:47|241:23,1,143.999995605469,10|2,0:3|0:0,0:0:0:0:
154,78,76826,5,2,0:0:0:0:
154,78,77020,2,0,L|175:149,1,60,2|2,0:0|0:0,0:0:0:0:
265,221,77407,1,2,0:0:0:0:
152,294,77600,1,2,0:0:0:0:
271,354,77794,1,10,0:1:0:0:
344,284,77987,2,0,L|348:318,2,23.9999992675781,8|8|8,0:1|0:1|0:1,0:0:0:0:
338,263,78181,6,0,P|347:246|357:220,1,35.9999989013672,10|0,0:3|0:0,0:0:0:0:
341,177,78374,2,0,P|322:146|308:93,1,71.9999978027344,2|2,0:0|0:0,0:0:0:0:
304,25,78761,1,8,0:3:0:0:
174,148,78955,6,0,L|114:140,1,47.9999985351563,10|0,0:1|0:0,0:0:0:0:
94,158,79149,1,2,0:0:0:0:
78,320,79342,2,0,L|106:248,1,71.9999978027344,10|0,0:3|0:0,0:0:0:0:
231,371,79729,6,0,L|288:359,1,47.9999985351563,2|0,0:3|0:0,0:0:0:0:
311,373,79923,1,10,0:3:0:0:
376,262,80116,1,2,0:0:0:0:
329,272,80245,2,0,P|285:244|279:194,1,95.9999970703126,0|8,0:0|0:1,0:0:0:0:
320,95,80697,5,2,0:0:0:0:
425,70,80891,2,0,L|442:145,1,71.9999978027344,2|10,0:0|0:3,0:0:0:0:
480,171,81181,1,2,0:0:0:0:
480,171,81278,5,10,0:3:0:0:
507,276,81471,2,0,P|472:270|415:300,1,71.9999978027344,2|0,0:0|0:0,0:0:0:0:
308,384,81858,5,10,0:3:0:0:
296,371,81955,1,0,0:0:0:0:
284,358,82052,2,0,L|296:308,1,35.9999989013672,10|0,0:1|0:0,0:0:0:0:
259,284,82245,2,0,L|247:234,1,35.9999989013672,2|0,0:0|0:0,0:0:0:0:
281,208,82439,2,0,P|286:174|266:134,1,71.9999978027344,10|2,0:3|0:0,0:0:0:0:
227,114,82729,1,2,0:0:0:0:
227,114,82826,5,2,0:0:0:0:
334,45,83020,2,0,L|428:60,1,71.9999978027344,10|0,0:3|0:0,0:0:0:0:
473,152,83407,1,2,0:0:0:0:
386,217,83600,6,0,L|377:266,1,35.9999989013672,10|0,0:1|0:0,0:0:0:0:
337,279,83794,2,0,L|346:328,1,35.9999989013672,10|0,0:1|0:0,0:0:0:0:
358,347,83987,2,0,L|309:337,1,35.9999989013672,10|0,0:1|0:0,0:0:0:0:
282,370,84181,2,0,L|233:379,1,35.9999989013672,10|0,0:3|0:0,0:0:0:0:
202,350,84374,5,12,0:3:0:0:
201,193,84568,2,0,P|166:172|115:176,1,71.9999978027344,2|2,0:0|0:0,0:0:0:0:
89,192,84858,1,0,0:0:0:0:
89,192,84955,1,10,0:3:0:0:
23,324,85149,2,0,L|10:239,2,71.9999978027344,10|2|8,0:1|0:0|0:3,0:0:0:0:
141,371,85729,5,2,0:0:0:0:
209,265,85923,1,2,0:0:0:0:
202,248,86020,1,2,0:0:0:0:
195,231,86116,1,10,0:3:0:0:
285,164,86310,2,0,L|378:181,1,71.9999978027344,2|2,0:0|0:0,0:0:0:0:
271,40,86697,5,10,0:1:0:0:
196,108,86891,1,10,0:3:0:0:
101,73,87084,1,2,0:0:0:0:
26,141,87278,2,0,L|40:219,1,71.9999978027344,2|8,0:0|0:3,0:0:0:0:
135,344,87665,5,2,0:0:0:0:
135,344,87858,2,0,P|164:324|222:320,1,71.9999978027344,2|8,0:0|0:3,0:0:0:0:
326,360,88245,1,10,0:1:0:0:
403,295,88439,2,0,L|381:203,1,71.9999978027344,2|8,0:0|0:3,0:0:0:0:
286,208,88826,1,2,0:0:0:0:
259,109,89020,1,2,0:0:0:0:
322,31,89213,6,0,L|362:38,2,35.9999989013672,8|0|8,0:3|0:0|0:1,0:0:0:0:
167,106,89697,6,0,L|143:102,2,17.9999994506836,8|0|8,0:1|0:0|0:1,0:0:0:0:
264,223,90084,6,0,L|288:219,2,17.9999994506836,8|0|8,0:1|0:0|0:1,0:0:0:0:
49,297,90568,6,0,L|141:309,1,90,10|0,0:3|0:0,0:0:0:0:
242,234,91342,2,0,L|306:225,1,60,8|0,0:0|0:0,0:0:0:0:
393,55,92116,5,2,0:0:0:0:
465,126,92407,2,0,L|471:166,1,37.5,2|2,0:0|0:0,0:0:0:0:
409,228,92891,2,0,L|399:278,2,40,10|2|2,0:0|0:0|0:0,0:0:0:0:
335,154,93665,6,0,L|240:169,1,90,2|2,0:0|0:0,0:0:0:0:
192,283,94439,2,0,L|201:318,1,30,10|0,0:0|0:0,0:0:0:0:
103,225,94826,2,0,P|132:172|147:109,1,120,2|2,0:0|0:0,0:0:0:0:
225,208,95987,2,0,P|245:218|289:222,1,60,10|2,0:0|0:0,0:0:0:0:
401,114,96761,6,0,P|382:88|317:78,1,90,10|0,0:3|0:0,0:0:0:0:
255,120,97536,2,0,P|225:122|191:115,1,60,8|0,0:0|0:0,0:0:0:0:
80,4,98310,5,10,0:3:0:0:
4,145,98600,2,0,L|13:186,1,37.5,2|2,0:0|0:0,0:0:0:0:
123,254,99084,2,0,L|131:209,2,45,10|2|2,0:1|0:0|0:0,0:0:0:0:
192,319,99858,5,10,0:1:0:0:
286,238,100245,1,8,0:1:0:0:
382,316,100632,1,10,0:1:0:0:
476,235,101020,1,10,0:1:0:0:
431,158,101213,1,8,0:1:0:0:
484,85,101407,5,8,0:1:0:0:
455,46,101536,2,0,L|423:43,4,23.9999992675781,8|8|8|8|8,0:1|0:1|0:1|0:1|0:1,0:0:0:0:
99,144,102568,5,0,1:1:0:0:
140,169,102697,2,0,L|152:224,1,47.9999985351563,0|8,1:1|1:0,0:0:0:0:
131,288,102955,6,0,P|159:239|277:242,1,155.999992858887,14|0,1:3|0:0,0:0:0:0:
251,224,103536,1,2,0:0:0:0:
296,98,103729,5,10,0:1:0:0:
382,142,103923,1,10,0:3:0:0:
382,142,104116,2,0,P|427:140|458:119,1,77.9999964294435,2|0,0:0|0:0,0:0:0:0:
419,0,104503,2,0,P|336:28|311:97,1,155.999992858887,2|2,0:0|0:0,0:0:0:0:
312,86,105084,1,2,0:0:0:0:
189,156,105278,5,10,0:1:0:0:
95,106,105471,1,10,0:0:0:0:
95,106,105665,2,0,P|81:151|86:190,1,77.9999964294435,10|8,0:0|0:3,0:0:0:0:
162,279,106052,2,0,B|232:250|250:306|313:268,1,155.999992858887,14|0,0:3|0:0,0:0:0:0:
312,268,106632,1,10,0:3:0:0:
368,154,106826,5,10,0:1:0:0:
464,187,107020,1,2,0:0:0:0:
464,187,107213,2,0,P|472:153|460:102,1,77.9999964294435,10|0,0:3|0:0,0:0:0:0:
358,32,107600,2,0,B|287:11|289:72|205:45,1,155.999992858887,2|10,0:0|0:0,0:0:0:0:
207,45,108181,1,2,0:0:0:0:
138,156,108374,5,10,0:1:0:0:
210,214,108568,1,10,0:3:0:0:
210,214,108761,1,2,0:0:0:0:
156,297,108955,2,0,L|151:331,2,25.9999988098145,0|0|0,1:1|1:1|1:1,0:0:0:0:
137,281,109149,6,0,P|210:293|289:326,2,155.999992858887,14|2|8,1:3|0:0|0:1,0:0:0:0:
33,290,110116,6,0,P|61:238|80:219,1,77.9999964294435,10|0,0:3|0:0,0:0:0:0:
0,175,110503,2,0,P|12:102|45:23,2,155.999992858887,2|10|2,0:0|0:3|0:0,0:0:0:0:
33,290,111471,5,10,0:1:0:0:
116,239,111665,1,10,0:0:0:0:
116,239,111858,1,10,0:0:0:0:
209,284,112052,1,10,0:3:0:0:
209,284,112245,6,0,P|198:207|201:125,1,155.999992858887,14|2,0:3|0:0,0:0:0:0:
200,129,112826,1,8,0:3:0:0:
292,36,113020,1,8,0:1:0:0:
366,96,113213,6,0,P|415:112|450:114,1,77.9999964294435,2|8,0:0|0:3,0:0:0:0:
503,184,113600,2,0,P|446:203|369:268,1,155.999992858887,2|10,0:0|0:3,0:0:0:0:
322,381,114181,5,8,0:1:0:0:
298,376,114278,1,8,0:1:0:0:
274,371,114374,1,10,0:1:0:0:
250,366,114471,1,8,0:1:0:0:
226,361,114568,1,10,0:1:0:0:
130,297,114761,1,10,0:1:0:0:
218,223,114955,1,10,0:1:0:0:
122,159,115148,1,10,0:1:0:0:
213,29,115342,6,0,B|287:61|291:6|368:34,1,155.999992858887,14|2,0:3|0:0,0:0:0:0:
448,92,115923,1,2,0:0:0:0:
389,171,116116,5,10,0:1:0:0:
389,171,116310,1,10,0:3:0:0:
460,234,116503,2,0,P|471:286|463:310,1,77.9999964294435,2|0,0:0|0:0,0:0:0:0:
374,358,116891,6,0,L|216:337,1,155.999992858887,2|0,0:0|0:0,0:0:0:0:
219,337,117471,1,2,0:0:0:0:
141,244,117665,5,10,0:1:0:0:
212,181,117858,1,10,0:0:0:0:
212,181,118052,1,10,0:0:0:0:
183,73,118245,1,10,0:3:0:0:
183,73,118439,6,0,P|228:88|348:69,1,155.999992858887,14|2,0:3|0:0,0:0:0:0:
334,75,119020,1,10,0:3:0:0:
439,156,119213,5,10,0:1:0:0:
380,236,119407,1,2,0:0:0:0:
380,236,119600,2,0,P|355:279|343:323,1,77.9999964294435,10|0,0:3|0:0,0:0:0:0:
279,384,119987,2,0,P|249:336|226:236,1,155.999992858887,2|0,0:0|0:0,0:0:0:0:
226,240,120568,1,2,0:0:0:0:
133,326,120761,5,10,0:1:0:0:
35,305,120955,1,10,0:3:0:0:
35,305,121149,1,10,0:1:0:0:
62,207,121342,1,10,0:3:0:0:
62,207,121536,6,0,P|129:190|222:184,2,155.999992858887,14|2|8,0:3|0:0|0:1,0:0:0:0:
2,154,122503,6,0,P|21:122|65:82,1,77.9999964294435,10|0,0:3|0:0,0:0:0:0:
62,207,122891,2,0,P|128:225|212:267,2,155.999992858887,2|10|2,0:0|0:3|0:0,0:0:0:0:
49,93,123858,5,10,0:1:0:0:
146,10,124052,1,10,0:0:0:0:
146,10,124245,1,10,0:0:0:0:
259,67,124439,1,10,0:3:0:0:
259,67,124632,6,0,P|328:71|418:92,1,155.999992858887,14|2,0:3|0:0,0:0:0:0:
412,90,125213,1,8,0:3:0:0:
484,199,125407,1,8,0:1:0:0:
404,253,125600,6,0,P|384:294|371:339,1,77.9999964294435,2|8,0:0|0:3,0:0:0:0:
290,277,125987,2,0,P|268:232|249:111,2,155.999992858887,2|10|2,0:0|0:3|0:0,0:0:0:0:
278,305,126858,1,0,0:0:0:0:
278,305,126955,6,0,B|211:341|202:286|126:316,1,155.999992858887,10|2,0:1|0:0,0:0:0:0:
18,330,127536,2,0,P|46:286|53:253,1,77.9999964294435,2|8,0:0|0:3,0:0:0:0:
150,34,128116,6,0,L|157:64,1,23.9999992675781,2|2,0:0|0:0,0:0:0:0:
250,151,128503,2,0,L|233:223,1,71.9999978027344,10|8,0:1|0:3,0:0:0:0:
150,34,129278,6,0,L|157:64,1,23.9999992675781,2|2,0:0|0:0,0:0:0:0:
250,151,129665,2,0,L|243:181,1,23.9999992675781,2|2,0:0|0:0,0:0:0:0:
149,268,130052,2,0,L|160:313,1,35.9999989013672,10|2,0:1|0:0,0:0:0:0:
258,354,130439,2,0,L|262:336,3,17.9999994506836,2|2|2|2,0:0|0:0|0:0|0:0,0:0:0:0:
265,371,130826,6,0,L|397:381,2,120,8|8|0,0:1|0:1|0:0,0:0:0:0:
75,352,132120,1,2,0:0:0:0:
223,233,132544,6,0,B|234:206|234:206|215:139,1,96,12|2,0:3|0:0,0:0:0:0:
153,100,133115,2,0,L|158:69,1,32,2|0,0:0|0:0,0:0:0:0:
231,30,133401,2,0,L|265:26,2,24,10|2|0,0:1|0:0|0:0,0:0:0:0:
215,141,133829,2,0,L|328:161,1,96,2|0,0:0|0:0,0:0:0:0:
471,261,134686,5,2,0:0:0:0:
411,305,134829,2,0,L|405:343,1,32,2|2,0:0|0:0,0:0:0:0:
337,364,135115,2,0,L|332:332,2,32,10|2|2,0:1|0:0|0:0,0:0:0:0:
268,383,135544,2,0,L|168:372,1,96,2|12,0:0|0:3,0:0:0:0:
42,219,136401,5,2,0:0:0:0:
102,172,136561,2,0,L|131:173,1,24,2|0,0:0|0:0,0:0:0:0:
183,220,136829,2,0,L|232:218,2,32,10|2|2,0:1|0:0|0:0,0:0:0:0:
139,279,137258,1,2,0:0:0:0:
184,375,137472,1,8,0:3:0:0:
360,280,138115,6,0,P|366:261|329:198,1,96,2|8,0:0|0:0,0:0:0:0:
231,193,138758,1,0,0:0:0:0:
169,118,138972,2,0,P|166:94|171:67,1,48
243,8,139401,6,0,L|352:22,1,108,12|2,0:3|0:0,0:0:0:0:
391,45,139990,2,0,L|422:39,1,24,2|0,0:0|0:0,0:0:0:0:
463,93,140258,2,0,L|455:126,1,32,10|2,0:1|0:0,0:0:0:0:
474,177,140526,1,2,0:0:0:0:
422,226,140686,2,0,L|367:216,1,48,2|0,0:0|0:0,0:0:0:0:
311,289,141115,1,2,0:0:0:0:
267,69,141544,5,2,0:0:0:0:
217,123,141686,2,0,L|173:129,1,32,2|2,0:0|0:0,0:0:0:0:
156,199,141972,2,0,L|200:205,2,32,14|2|2,0:1|0:0|0:0,0:0:0:0:
109,261,142401,2,0,P|84:222|85:179,1,64,2|0,0:0|0:0,0:0:0:0:
115,138,142829,6,0,L|112:104,1,32,14|2,0:3|0:0,0:0:0:0:
79,32,143151,2,0,L|120:27,1,36,2|2,0:0|0:0,0:0:0:0:
169,15,143436,2,0,L|172:49,1,32,2|0,0:0|0:0,0:0:0:0:
200,85,143686,1,10,0:1:0:0:
209,96,143820,2,0,L|211:123,1,24,2|2,0:0|0:0,0:0:0:0:
287,85,144115,2,0,L|350:90,1,48,2|8,0:0|0:3,0:0:0:0:
449,183,144544,6,0,L|437:222,1,32,2|2,0:0|0:0,0:0:0:0:
363,267,144865,2,0,L|371:299,1,24,2|0,0:0|0:0,0:0:0:0:
368,363,145115,2,0,L|329:375,1,32,2|0,0:0|0:0,0:0:0:0:
274,336,145401,2,0,L|235:324,2,32,10|2|0,0:1|0:0|0:0,0:0:0:0:
314,274,145829,2,0,L|301:190,1,64,2|0,0:0|0:0,0:0:0:0:
348,153,146258,6,0,L|359:121,1,32,10|2,0:0|0:0,0:0:0:0:
200,51,146686,6,0,L|210:81,2,32,10|2|2,0:0|0:0|0:0,0:0:0:0:
128,31,147115,5,10,0:0:0:0:
69,225,147540,6,0,L|57:184,2,40,2|2|2,0:0|0:0|0:0,0:0:0:0:
6,297,147972,6,0,L|60:307,1,40,14|2,0:3|0:0,0:0:0:0:
125,373,148293,2,0,P|145:332|178:292,1,90,2|0,0:0|0:0,0:0:0:0:
291,246,148829,1,8,0:1:0:0:
174,166,149257,5,2,0:0:0:0:
174,166,149364,2,0,L|164:113,1,50,2|2,0:0|0:0,0:0:0:0:
148,33,149686,2,0,L|193:27,1,30,2|0,0:0|0:0,0:0:0:0:
286,56,150007,2,0,L|400:83,1,90,2|0,0:0|0:0,0:0:0:0:
452,186,150543,1,8,0:1:0:0:
452,186,150972,6,0,L|458:129,1,40,2|2,0:0|0:0,0:0:0:0:
470,132,151186,1,2,0:0:0:0:
353,155,151400,2,0,L|316:162,1,30,14|0,0:3|0:0,0:0:0:0:
218,248,151722,2,0,P|194:213|192:143,1,90,2|0,0:0|0:0,0:0:0:0:
260,86,152257,1,8,0:1:0:0:
397,186,152686,5,10,0:3:0:0:
397,186,152793,2,0,L|447:179,1,45,2|2,0:0|0:0,0:0:0:0:
497,105,153114,2,0,L|447:98,1,40,2|2,0:0|0:0,0:0:0:0:
412,32,153400,2,0,L|308:46,1,100,2|0,0:0|0:0,0:0:0:0:
280,162,153972,5,10,0:1:0:0:
280,162,154079,2,0,L|224:155,1,45,2|0,0:1|0:0,0:0:0:0:
170,92,154400,2,0,L|178:30,2,40,2|2|2,0:0|0:0|0:0,0:0:0:0:
108,143,154829,6,0,L|116:205,1,40,14|2,0:3|0:0,0:0:0:0:
57,239,155114,2,0,L|38:369,1,120,2|0,0:0|0:0,0:0:0:0:
136,382,155686,5,10,0:1:0:0:
136,382,155793,2,0,L|129:328,1,45,2|2,0:1|0:0,0:0:0:0:
202,288,156114,1,8,0:3:0:0:
202,288,156222,2,0,L|209:251,1,37.5,2|2,0:0|0:0,0:0:0:0:
161,146,156543,5,2,0:0:0:0:
175,114,156650,2,0,L|165:59,1,50,2|2,0:0|0:0,0:0:0:0:
220,12,156972,2,0,P|259:24|318:31,1,80,2|0,0:0|0:0,0:0:0:0:
376,13,157400,5,10,0:1:0:0:
399,40,157507,2,0,L|405:86,1,40,0|8,0:0|0:1,0:0:0:0:
473,144,157829,2,0,L|468:180,1,30,2|8,0:0|0:1,0:0:0:0:
478,205,158043,1,2,0:0:0:0:
359,249,158257,6,0,L|283:236,1,66.0000020141602,14|2,0:3|0:0,0:0:0:0:
273,260,158543,2,0,L|181:275,1,88.000002685547,10|8,0:1|0:1,0:0:0:0:
58,184,159114,5,10,0:1:0:0:
124,139,159257,2,0,L|113:81,1,44.0000013427735,2|10,0:0|0:1,0:0:0:0:
202,60,159543,1,14,0:3:0:0:
218,79,159650,2,0,L|207:137,1,44.0000013427735,2|2,0:1|0:1,0:0:0:0:
298,171,159972,6,0,L|353:151,2,44.0000013427735,10|2|0,0:1|0:0|0:0,0:0:0:0:
289,258,160400,2,0,L|247:243,2,44.0000013427735,8|2|2,0:1|0:0|0:0,0:0:0:0:
379,337,160829,6,0,L|395:241,1,66.0000020141602,10|8,0:3|0:1,0:0:0:0:
339,156,161257,2,0,L|351:79,2,51.999997619629,10|10|10,0:1|0:1|0:1,0:0:0:0:
92,137,162456,5,10,0:1:0:0:
153,182,162585,2,0,L|206:172,1,40,8|8,0:1|0:1,0:0:0:0:
252,127,162843,2,0,L|305:137,2,40,10|8|8,0:1|0:1|0:1,0:0:0:0:
184,59,163230,6,0,P|259:50|356:26,1,167.999994873047,14|0,0:3|0:0,0:0:0:0:
348,28,163811,1,2,0:0:0:0:
460,105,164004,5,10,0:1:0:0:
393,169,164198,1,14,0:3:0:0:
393,169,164391,2,0,P|370:220|364:258,1,83.9999974365235,2|0,0:0|0:0,0:0:0:0:
438,358,164778,2,0,P|393:336|265:350,1,167.999994873047,2|2,0:0|0:0,0:0:0:0:
278,343,165359,1,2,0:0:0:0:
174,270,165552,5,10,0:1:0:0:
256,208,165746,1,10,0:0:0:0:
256,208,165940,1,10,0:0:0:0:
180,143,166133,1,10,0:3:0:0:
180,143,166327,6,0,P|101:144|7:181,1,167.999994873047,14|0,0:3|0:0,0:0:0:0:
18,174,166907,1,10,0:3:0:0:
69,298,167101,5,10,0:1:0:0:
152,260,167294,1,2,0:0:0:0:
152,260,167488,2,0,P|196:261|238:280,1,83.9999974365235,14|0,0:3|0:0,0:0:0:0:
330,354,167875,2,0,P|315:296|348:173,1,167.999994873047,2|2,0:0|0:0,0:0:0:0:
407,132,168456,1,2,0:0:0:0:
324,34,168649,5,10,0:1:0:0:
257,98,168843,1,14,0:3:0:0:
257,98,169036,1,2,0:0:0:0:
168,49,169230,2,0,L|131:41,2,27.9999991455078,0|0|0,1:0|1:0|1:0,0:0:0:0:
180,73,169423,6,0,P|151:163|145:253,2,167.999994873047,14|2|8,1:3|0:0|0:1,0:0:0:0:
295,8,170391,6,0,P|344:11|384:23,1,83.9999974365235,10|0,0:3|0:0,0:0:0:0:
459,122,170778,2,0,P|424:145|290:165,2,167.999994873047,2|10|2,0:0|0:3|0:0,0:0:0:0:
504,6,171746,1,10,0:1:0:0:
411,4,171940,1,10,0:0:0:0:
411,4,172133,1,10,0:0:0:0:
319,56,172327,1,10,0:3:0:0:
319,56,172520,6,0,P|272:79|140:94,1,167.999994873047,14|2,0:3|0:0,0:0:0:0:
158,95,173101,1,8,0:3:0:0:
68,189,173294,1,8,0:1:0:0:
128,258,173488,6,0,P|181:243|222:238,1,83.9999974365235,2|8,0:0|0:3,0:0:0:0:
294,276,173875,2,0,P|343:287|478:298,1,167.999994873047,2|10,0:0|0:3,0:0:0:0:
480,165,174456,1,8,0:1:0:0:
499,31,174649,1,10,0:1:0:0:
486,42,174843,5,10,0:1:0:0:
388,21,175036,1,2,0:0:0:0:
320,95,175230,1,2,0:0:0:0:
350,190,175423,2,0,L|382:197,2,17.9999994506836,2|0|0,1:0|1:0|1:0,0:0:0:0:
330,205,175617,6,0,P|255:224|145:195,1,167.999994873047,14|2,1:3|0:0,0:0:0:0:
109,135,176198,1,2,0:0:0:0:
40,253,176391,5,10,0:1:0:0:
90,330,176585,1,14,0:3:0:0:
90,330,176778,2,0,P|142:316|180:320,1,83.9999974365235,2|0,0:0|0:0,0:0:0:0:
256,355,177165,2,0,P|320:370|421:358,1,167.999994873047,2|0,0:0|0:0,0:0:0:0:
489,296,177746,1,2,0:0:0:0:
434,221,177940,5,10,0:1:0:0:
434,221,178133,1,10,0:0:0:0:
493,150,178327,1,10,0:0:0:0:
493,150,178520,1,10,0:3:0:0:
426,32,178714,6,0,P|366:23|308:126,1,167.999994873047,14|2,0:3|0:0,0:0:0:0:
315,191,179294,1,10,0:3:0:0:
200,146,179488,2,0,P|170:104|155:60,1,83.9999974365235,10|2,0:1|0:0,0:0:0:0:
100,2,179875,2,0,P|74:35|58:74,1,83.9999974365235,14|0,0:3|0:0,0:0:0:0:
92,160,180262,2,0,P|103:227|73:325,1,167.999994873047,2|0,0:0|0:0,0:0:0:0:
2,378,180843,1,2,0:0:0:0:
0,249,181036,5,10,0:1:0:0:
90,230,181230,1,10,0:3:0:0:
90,230,181423,1,10,0:1:0:0:
113,140,181617,2,0,L|102:106,2,27.9999991455078,8|0|0,0:3|0:0|0:0,0:0:0:0:
129,152,181811,6,0,P|179:125|298:114,2,167.999994873047,14|2|8,0:3|0:0|0:1,0:0:0:0:
253,205,182778,6,0,P|299:238|326:272,1,83.9999974365235,10|0,0:3|0:0,0:0:0:0:
175,310,183165,2,0,P|145:251|129:147,2,167.999994873047,2|10|2,0:0|0:3|0:0,0:0:0:0:
282,382,184133,5,10,0:1:0:0:
330,301,184327,1,2,0:0:0:0:
330,301,184520,1,2,0:0:0:0:
420,340,184714,1,10,0:3:0:0:
420,340,184907,6,0,P|422:280|397:165,1,167.999994873047,14|2,0:3|0:0,0:0:0:0:
339,105,185488,1,8,0:3:0:0:
220,155,185681,1,8,0:1:0:0:
128,142,185875,6,0,P|107:98|111:51,1,83.9999974365235,2|8,0:3|0:3,0:0:0:0:
182,8,186262,2,0,B|260:-24|262:43|346:8,2,167.999994873047,2|10|2,0:0|0:3|0:0,0:0:0:0:
159,30,187133,1,0,0:0:0:0:
159,30,187230,6,0,L|198:202,1,167.999994873047,10|2,0:1|0:0,0:0:0:0:
301,271,187811,2,0,L|289:322,2,27.9999991455078,2|0|0,1:0|1:0|1:0,0:0:0:0:
316,264,188004,5,12,1:3:0:0:
322,35,188391,6,0,L|291:40,1,32,2|2,0:0|0:0,0:0:0:0:
189,118,188778,2,0,L|83:100,1,96,10|0,0:1|0:0,0:0:0:0:
268,337,189552,6,0,L|258:291,1,40,10|2,0:1|0:0,0:0:0:0:
346,202,189940,2,0,L|355:153,1,40,10|2,0:1|0:0,0:0:0:0:
224,86,190327,2,0,L|245:205,1,120,2|2,0:0|0:0,0:0:0:0:
