osu file format v14

[General]
AudioFilename: audio.mp3
AudioLeadIn: 0
PreviewTime: 62863
Countdown: 0
SampleSet: Soft
StackLeniency: 0.3
Mode: 0
LetterboxInBreaks: 0
WidescreenStoryboard: 1

[Editor]
Bookmarks: 461,19041,37622,50009,62396,77880,90267,102654,115041,127428,146009,163041,175428,189988
DistanceSpacing: 1.3
BeatDivisor: 8
GridSize: 8
TimelineZoom: 2.9

[Metadata]
Title:GIANTS (feat. Becky G, Keke Palmer, SOYEON, DUCKWRTH, Thutmose)
TitleUnicode:GIANTS (feat. Becky G, Keke Palmer, 소연, DUCKWRTH, Thutmose)
Artist:True Damage
ArtistUnicode:True Damage
Creator:-Mikan
Version:adioni's Platinum
Source:League of Legends
Tags:rap pop adioni DeviousPanda skin ekko yasuo senna qiyana akali worlds 2019 finals riot games (G)I-DLE english korean video game kpop hip-hop hip hop
BeatmapID:2608564
BeatmapSetID:1136624

[Difficulty]
HPDrainRate:4.7
CircleSize:3.6
OverallDifficulty:8.1
ApproachRate:9
SliderMultiplier:2.2
SliderTickRate:1

[Events]
//Background and Video events
0,0,"Yasuo.jpg",0,0
Video,241,"video.mp4"
//Break Periods
//Storyboard Layer 0 (Background)
//Storyboard Layer 1 (Fail)
//Storyboard Layer 2 (Pass)
//Storyboard Layer 3 (Foreground)
//Storyboard Layer 4 (Overlay)
//Storyboard Sound Samples

[TimingPoints]
734,387.096774193548,4,2,1,40,1,0
734,-100,4,2,1,15,0,0
1508,-100,4,2,1,25,0,0
2282,-100,4,2,1,35,0,0
3830,-100,4,2,1,45,0,0
5379,-100,4,2,1,55,0,0
5766,-125,4,2,1,55,0,0
6927,-100,4,2,1,55,0,0
7798,-100,4,2,1,5,0,0
7895,-100,4,2,1,55,0,0
8379,-100,4,2,1,5,0,0
8475,-100,4,2,1,55,0,0
9056,-166.666666666667,4,2,1,55,0,0
9153,-100,4,2,1,5,0,0
9250,-142.857142857143,4,2,1,55,0,0
9346,-100,4,2,1,5,0,0
9443,-125,4,2,1,55,0,0
9540,-100,4,2,1,5,0,0
9637,-76.9230769230769,4,2,1,55,0,0
10217,-125,4,2,1,55,0,0
13121,-111.111111111111,4,2,1,55,0,0
13217,-100,4,2,1,5,0,0
13314,-111.111111111111,4,2,1,55,0,0
15830,-83.3333333333333,4,2,1,55,0,0
15927,-100,4,2,1,5,0,0
16024,-83.3333333333333,4,2,1,55,0,0
16121,-100,4,2,1,5,0,0
16217,-83.3333333333333,4,2,1,55,0,0
16411,-111.111111111111,4,2,1,55,0,0
18540,-111.111111111111,4,2,1,55,0,0
18733,-111.111111111111,4,2,1,55,0,0
18927,-111.111111111111,4,2,1,55,0,0
21056,-83.3333333333333,4,2,1,55,0,0
21153,-100,4,2,1,5,0,0
21250,-83.3333333333333,4,2,1,55,0,0
21637,-111.111111111111,4,2,1,55,0,0
23088,-100,4,2,1,5,0,0
23185,-111.111111111111,4,2,1,55,0,0
25508,-111.111111111111,4,2,1,60,0,0
30927,-125,4,2,1,60,0,0
31508,-83.3333333333333,4,2,1,60,0,0
31701,-111.111111111111,4,2,1,60,0,0
32766,-100,4,2,1,5,0,0
32863,-111.111111111111,4,2,1,60,0,0
32959,-100,4,2,1,5,0,0
33056,-111.111111111111,4,2,1,60,0,0
33153,-100,4,2,1,5,0,0
33250,-111.111111111111,4,2,1,60,0,0
36733,-83.3333333333333,4,2,1,60,0,0
36830,-100,4,2,1,5,0,0
36927,-83.3333333333333,4,2,1,60,0,0
37024,-100,4,2,1,5,0,0
37121,-125,4,2,1,60,0,0
37895,-125,4,2,1,60,0,0
38088,-166.666666666667,4,2,1,40,0,0
39443,-333.333333333334,4,2,1,40,0,0
40992,-166.666666666667,4,2,1,40,0,0
45637,-333.333333333334,4,2,1,40,0,0
47185,-333.333333333334,4,2,1,45,0,0
47572,-333.333333333334,4,2,1,55,0,0
47959,-333.333333333334,4,2,1,65,0,0
48733,-111.111111111111,4,2,1,65,0,0
50088,-142.857142857143,4,2,1,40,0,0
50282,-100,4,2,1,70,0,0
50863,-83.3333333333333,4,2,1,70,0,0
50959,-83.3333333333333,4,2,1,5,0,0
51056,-83.3333333333333,4,2,1,70,0,0
51153,-83.3333333333333,4,2,1,5,0,0
51250,-83.3333333333333,4,2,1,70,0,0
51346,-83.3333333333333,4,2,1,5,0,0
51443,-83.3333333333333,4,2,1,70,0,0
51830,-100,4,2,1,70,0,0
52411,-83.3333333333333,4,2,1,70,0,0
52508,-83.3333333333333,4,2,1,5,0,0
52604,-83.3333333333333,4,2,1,70,0,0
52701,-83.3333333333333,4,2,1,5,0,0
52798,-83.3333333333333,4,2,1,70,0,0
52895,-83.3333333333333,4,2,1,5,0,0
52992,-83.3333333333333,4,2,1,70,0,0
53379,-100,4,2,1,70,0,0
53959,-83.3333333333333,4,2,1,70,0,0
54153,-83.3333333333333,4,2,1,70,0,0
54250,-83.3333333333333,4,2,1,5,0,0
54346,-83.3333333333333,4,2,1,70,0,0
54443,-83.3333333333333,4,2,1,5,0,0
54540,-83.3333333333333,4,2,1,70,0,0
55508,-83.3333333333333,4,2,1,70,0,0
55604,-83.3333333333333,4,2,1,5,0,0
55701,-83.3333333333333,4,2,1,70,0,0
55798,-83.3333333333333,4,2,1,5,0,0
55895,-83.3333333333333,4,2,1,70,0,0
55992,-83.3333333333333,4,2,1,5,0,0
56088,-83.3333333333333,4,2,1,70,0,0
56475,-100,4,2,1,70,0,0
56766,-83.3333333333333,4,2,1,5,0,0
56863,-100,4,2,1,70,0,0
56959,-83.3333333333333,4,2,1,5,0,0
57056,-100,4,2,1,70,0,0
57153,-83.3333333333333,4,2,1,5,0,0
57250,-100,4,2,1,70,0,0
57443,-76.9230769230769,4,2,1,70,0,0
57492,-83.3333333333333,4,2,1,5,0,0
57637,-100,4,2,1,70,0,0
58121,-83.3333333333333,4,2,1,5,0,0
58217,-100,4,2,1,70,0,0
58604,-83.3333333333333,4,2,1,70,0,0
58701,-83.3333333333333,4,2,1,5,0,0
58798,-83.3333333333333,4,2,1,70,0,0
58895,-83.3333333333333,4,2,1,5,0,0
58992,-83.3333333333333,4,2,1,70,0,0
59185,-100,4,2,1,70,0,0
59572,-100,4,2,1,70,0,0
59863,-83.3333333333333,4,2,1,5,0,0
59959,-83.3333333333333,4,2,1,70,0,0
60056,-83.3333333333333,4,2,1,5,0,0
60153,-83.3333333333333,4,2,1,70,0,0
60250,-83.3333333333333,4,2,1,5,0,0
60346,-83.3333333333333,4,2,1,70,0,0
60540,-100,4,2,1,70,0,0
60637,-83.3333333333333,4,2,1,5,0,0
60733,-100,4,2,1,70,0,0
63056,-125,4,2,1,35,0,0
63153,-125,4,2,1,5,0,0
63443,-125,4,2,1,35,0,0
63540,-125,4,2,1,5,0,0
64217,-125,4,2,1,35,0,0
64314,-125,4,2,1,5,0,0
64604,-125,4,2,1,35,0,0
64701,-125,4,2,1,5,0,0
64992,-125,4,2,1,35,0,0
65379,-83.3333333333333,4,2,1,35,0,0
65766,-100,4,2,1,60,0,0
66153,-100,4,2,1,60,0,0
66250,-125,4,2,1,5,0,0
66346,-100,4,2,1,60,0,0
66443,-125,4,2,1,5,0,0
66540,-100,4,2,1,60,0,0
69637,-83.3333333333333,4,2,1,60,0,0
70024,-100,4,2,1,60,0,0
71185,-100,4,2,1,60,0,0
71250,-125,4,2,1,5,0,0
71379,-100,4,2,1,60,0,0
71443,-125,4,2,1,5,0,0
71572,-125,4,2,1,60,0,0
71959,-100,4,2,1,60,0,0
78153,-125,4,2,1,60,0,0
80379,-125,4,2,1,5,0,0
80475,-100,4,2,1,60,0,0
80572,-125,4,2,1,5,0,0
80669,-100,4,2,1,60,0,0
80766,-125,4,2,1,5,0,0
80863,-100,4,2,1,60,0,0
82217,-100,4,2,1,60,0,0
82314,-125,4,2,1,5,0,0
82411,-100,4,2,1,60,0,0
82895,-125,4,2,1,5,0,0
82992,-100,4,2,1,60,0,0
84346,-111.111111111111,4,2,1,60,0,0
87637,-111.111111111111,4,2,1,60,0,0
87733,-111.111111111111,4,2,1,5,0,0
87830,-111.111111111111,4,2,1,60,0,0
87927,-111.111111111111,4,2,1,5,0,0
88024,-111.111111111111,4,2,1,60,0,0
90540,-166.666666666666,4,2,1,60,0,0
90733,-166.666666666666,4,2,1,40,0,0
92088,-333.333333333332,4,2,1,40,0,0
93637,-166.666666666666,4,2,1,40,0,0
98282,-333.333333333331,4,2,1,40,0,0
99830,-333.333333333331,4,2,1,45,0,0
100217,-333.333333333331,4,2,1,55,0,0
100604,-333.333333333331,4,2,1,65,0,0
101475,-111.111111111111,4,2,1,65,0,0
101524,-111.111111111111,4,2,1,65,0,0
102927,-100,4,2,1,70,0,0
103508,-83.3333333333333,4,2,1,70,0,0
103604,-83.3333333333333,4,2,1,5,0,0
103701,-83.3333333333333,4,2,1,70,0,0
103798,-83.3333333333333,4,2,1,5,0,0
103895,-83.3333333333333,4,2,1,70,0,0
104088,-100,4,2,1,70,0,0
105056,-83.3333333333333,4,2,1,70,0,0
105153,-83.3333333333333,4,2,1,5,0,0
105250,-83.3333333333333,4,2,1,70,0,0
105346,-83.3333333333333,4,2,1,5,0,0
105443,-83.3333333333333,4,2,1,70,0,0
105540,-83.3333333333333,4,2,1,5,0,0
105637,-83.3333333333333,4,2,1,70,0,0
106024,-100,4,2,1,70,0,0
106604,-83.3333333333333,4,2,1,70,0,0
106701,-83.3333333333333,4,2,1,5,0,0
106798,-83.3333333333333,4,2,1,70,0,0
106895,-83.3333333333333,4,2,1,5,0,0
106992,-83.3333333333333,4,2,1,70,0,0
107088,-83.3333333333333,4,2,1,5,0,0
107185,-100,4,2,1,70,0,0
107475,-83.3333333333333,4,2,1,5,0,0
107572,-100,4,2,1,70,0,0
108153,-83.3333333333333,4,2,1,70,0,0
108250,-83.3333333333333,4,2,1,5,0,0
108346,-83.3333333333333,4,2,1,70,0,0
108443,-83.3333333333333,4,2,1,5,0,0
108540,-83.3333333333333,4,2,1,70,0,0
108637,-83.3333333333333,4,2,1,5,0,0
108733,-83.3333333333333,4,2,1,70,0,0
109121,-100,4,2,1,70,0,0
109508,-100,4,2,1,70,0,0
109604,-83.3333333333333,4,2,1,5,0,0
109701,-100,4,2,1,70,0,0
109798,-83.3333333333333,4,2,1,5,0,0
109895,-100,4,2,1,70,0,0
110088,-76.9230769230769,4,2,1,70,0,0
110137,-76.9230769230769,4,2,1,5,0,0
110475,-100,4,2,1,70,0,0
110766,-83.3333333333333,4,2,1,5,0,0
110863,-100,4,2,1,70,0,0
111250,-83.3333333333333,4,2,1,70,0,0
111346,-83.3333333333333,4,2,1,5,0,0
111443,-83.3333333333333,4,2,1,70,0,0
111540,-83.3333333333333,4,2,1,5,0,0
111637,-83.3333333333333,4,2,1,70,0,0
111830,-100,4,2,1,70,0,0
112604,-100,4,2,1,70,0,0
112701,-83.3333333333333,4,2,1,5,0,0
112798,-100,4,2,1,70,0,0
112895,-83.3333333333333,4,2,1,5,0,0
112992,-100,4,2,1,70,0,0
114540,-62.5,4,2,1,70,0,0
114588,-83.3333333333333,4,2,1,5,0,0
114733,-62.5,4,2,1,70,0,0
114782,-83.3333333333333,4,2,1,5,0,0
114927,-62.5,4,2,1,70,0,0
114975,-83.3333333333333,4,2,1,5,0,0
115121,-62.5,4,2,1,70,0,0
115314,-100,4,2,1,70,0,0
117443,-83.3333333333333,4,2,1,70,0,0
117540,-83.3333333333333,4,2,1,5,0,0
117637,-83.3333333333333,4,2,1,70,0,0
117733,-83.3333333333333,4,2,1,5,0,0
117830,-83.3333333333333,4,2,1,70,0,0
117927,-83.3333333333333,4,2,1,5,0,0
118024,-83.3333333333333,4,2,1,70,0,0
118121,-83.3333333333333,4,2,1,5,0,0
118217,-83.3333333333333,4,2,1,70,0,0
118411,-100,4,2,1,70,0,0
120540,-83.3333333333333,4,2,1,70,0,0
120637,-83.3333333333333,4,2,1,5,0,0
120733,-83.3333333333333,4,2,1,70,0,0
120830,-83.3333333333333,4,2,1,5,0,0
120927,-83.3333333333333,4,2,1,70,0,0
121024,-83.3333333333333,4,2,1,5,0,0
121121,-83.3333333333333,4,2,1,70,0,0
121508,-100,4,2,1,70,0,0
121895,-100,4,2,1,70,0,0
121992,-83.3333333333333,4,2,1,5,0,0
122088,-100,4,2,1,70,0,0
122185,-83.3333333333333,4,2,1,5,0,0
122282,-100,4,2,1,70,0,0
122475,-76.9230769230769,4,2,1,70,0,0
122524,-83.3333333333333,4,2,1,5,0,0
122669,-100,4,2,1,70,0,0
123153,-83.3333333333333,4,2,1,5,0,0
123250,-100,4,2,1,70,0,0
123637,-83.3333333333333,4,2,1,70,0,0
123733,-83.3333333333333,4,2,1,5,0,0
123830,-83.3333333333333,4,2,1,70,0,0
123927,-83.3333333333333,4,2,1,5,0,0
124024,-83.3333333333333,4,2,1,70,0,0
124217,-100,4,2,1,70,0,0
124992,-100,4,2,1,70,0,0
125088,-83.3333333333333,4,2,1,5,0,0
125185,-100,4,2,1,70,0,0
125282,-83.3333333333333,4,2,1,5,0,0
125379,-100,4,2,1,70,0,0
126733,-100,4,2,1,70,0,0
126927,-100,4,2,1,70,0,0
127121,-100,4,2,1,70,0,0
127992,-166.666666666667,4,2,1,40,0,0
130810,428.571428571429,4,2,1,40,1,0
131667,-100,4,2,1,40,0,0
131720,-100,4,2,1,5,0,0
132095,-100,4,2,1,40,0,0
132524,-111.111111111111,4,2,1,50,0,0
133381,-166.666666666666,4,2,1,50,0,0
134667,-166.666666666666,4,2,1,50,0,0
134810,-166.666666666666,4,2,1,50,0,0
134952,-166.666666666666,4,2,1,50,0,0
135095,-166.666666666666,4,2,1,50,0,0
135952,-111.111111111111,4,2,1,50,0,0
136810,-166.666666666666,4,2,1,50,0,0
137881,-249.999999999999,4,2,1,50,0,0
137988,-100,4,2,1,5,0,0
138095,-199.999999999999,4,2,1,50,0,0
138202,-100,4,2,1,5,0,0
138310,-166.666666666666,4,2,1,50,0,0
138417,-100,4,2,1,5,0,0
138524,-142.857142857142,4,2,1,50,0,0
138631,-100,4,2,1,5,0,0
138738,-125,4,2,1,50,0,0
138845,-100,4,2,1,5,0,0
138952,-111.111111111111,4,2,1,50,0,0
139060,-100,4,2,1,5,0,0
139167,-99.9999999999998,4,2,1,50,0,0
139274,-100,4,2,1,5,0,0
139381,-111.111111111111,4,2,1,50,0,0
141524,-166.666666666666,4,2,1,50,0,0
142810,-111.111111111111,4,2,1,50,0,0
146238,-100,4,2,1,50,0,0
147524,387.096774193548,4,2,2,60,1,0
147952,428.571428571429,4,2,2,60,1,0
147952,-100,4,2,1,60,0,0
148595,-83.3333333333333,4,2,1,60,0,0
148810,-100,4,2,1,60,0,0
152024,-83.3333333333333,4,2,1,60,0,0
152238,-100,4,2,1,60,0,0
161667,387.096774193548,4,2,1,60,1,0
163215,-100,4,2,1,75,0,0
163796,-83.3333333333333,4,2,1,75,0,0
163892,-83.3333333333333,4,2,1,5,0,0
163989,-83.3333333333333,4,2,1,75,0,0
164086,-83.3333333333333,4,2,1,5,0,0
164183,-83.3333333333333,4,2,1,75,0,0
164376,-100,4,2,1,75,0,0
165247,-83.3333333333333,4,2,1,75,0,0
165344,-83.3333333333333,4,2,1,75,0,0
165441,-83.3333333333333,4,2,1,5,0,0
165537,-83.3333333333333,4,2,1,75,0,0
165634,-83.3333333333333,4,2,1,5,0,0
165731,-83.3333333333333,4,2,1,75,0,0
165828,-83.3333333333333,4,2,1,5,0,0
165925,-83.3333333333333,4,2,1,75,0,0
166312,-100,4,2,1,75,0,0
167086,-100,4,2,1,75,0,0
167183,-83.3333333333333,4,2,1,5,0,0
167279,-100,4,2,1,75,0,0
167376,-83.3333333333333,4,2,1,5,0,0
167473,-100,4,2,1,75,0,0
168441,-83.3333333333333,4,2,1,75,0,0
168537,-83.3333333333333,4,2,1,5,0,0
168634,-83.3333333333333,4,2,1,75,0,0
168731,-83.3333333333333,4,2,1,5,0,0
168828,-83.3333333333333,4,2,1,75,0,0
168925,-83.3333333333333,4,2,1,5,0,0
169021,-83.3333333333333,4,2,1,75,0,0
169408,-100,4,2,1,75,0,0
169796,-100,4,2,1,75,0,0
169892,-83.3333333333333,4,2,1,5,0,0
169989,-100,4,2,1,75,0,0
170086,-83.3333333333333,4,2,1,5,0,0
170183,-100,4,2,1,75,0,0
170376,-76.9230769230769,4,2,1,75,0,0
170425,-76.9230769230769,4,2,1,5,0,0
170570,-100,4,2,1,75,0,0
171054,-83.3333333333333,4,2,1,5,0,0
171150,-100,4,2,1,75,0,0
171537,-83.3333333333333,4,2,1,75,0,0
171634,-83.3333333333333,4,2,1,5,0,0
171731,-83.3333333333333,4,2,1,75,0,0
171828,-83.3333333333333,4,2,1,5,0,0
171925,-83.3333333333333,4,2,1,75,0,0
172021,-83.3333333333333,4,2,1,5,0,0
172118,-83.3333333333333,4,2,1,75,0,0
172505,-100,4,2,1,75,0,0
172892,-100,4,2,1,75,0,0
172989,-83.3333333333333,4,2,1,5,0,0
173086,-100,4,2,1,65,0,0
174247,-100,4,2,1,65,0,0
174296,-83.3333333333333,4,2,1,5,0,0
174441,-100,4,2,1,65,0,0
174489,-83.3333333333333,4,2,1,5,0,0
174634,-100,4,2,1,65,0,0
174683,-83.3333333333333,4,2,1,5,0,0
174828,-100,4,2,1,65,0,0
174876,-83.3333333333333,4,2,1,5,0,0
175408,-83.3333333333333,4,2,1,65,0,0
175989,-100,4,2,1,65,0,0
176086,-83.3333333333333,4,2,1,5,0,0
176183,-100,4,2,1,65,0,0
176279,-83.3333333333333,4,2,1,5,0,0
176376,-100,4,2,1,65,0,0
177634,-83.3333333333333,4,2,1,5,0,0
177731,-83.3333333333333,4,2,1,65,0,0
177925,-100,4,2,1,65,0,0
178312,-100,4,2,1,65,0,0
178408,-83.3333333333333,4,2,1,5,0,0
178505,-100,4,2,1,65,0,0
178602,-83.3333333333333,4,2,1,5,0,0
178699,-100,4,2,1,65,0,0
178989,-83.3333333333333,4,2,1,5,0,0
179086,-100,4,2,1,65,0,0
180731,-83.3333333333333,4,2,1,5,0,0
180828,-83.3333333333333,4,2,1,65,0,0
180925,-83.3333333333333,4,2,1,5,0,0
181021,-83.3333333333333,4,2,1,65,0,0
181118,-83.3333333333333,4,2,1,5,0,0
181215,-83.3333333333333,4,2,1,65,0,0
181312,-83.3333333333333,4,2,1,5,0,0
181408,-83.3333333333333,4,2,1,65,0,0
181796,-100,4,2,1,65,0,0
182763,-76.9230769230769,4,2,1,65,0,0
182812,-83.3333333333333,4,2,1,5,0,0
182957,-100,4,2,1,65,0,0
183441,-83.3333333333333,4,2,1,5,0,0
183537,-100,4,2,1,65,0,0
183925,-83.3333333333333,4,2,1,65,0,0
184021,-83.3333333333333,4,2,1,5,0,0
184118,-83.3333333333333,4,2,1,65,0,0
184215,-83.3333333333333,4,2,1,5,0,0
184312,-83.3333333333333,4,2,1,65,0,0
184408,-83.3333333333333,4,2,1,5,0,0
184505,-83.3333333333333,4,2,1,65,0,0
184892,-100,4,2,1,65,0,0
188376,-100,4,2,1,50,0,0
188957,-142.857142857143,4,2,1,50,0,0

[Colours]
Combo1 : 255,90,11
Combo2 : 168,0,168
Combo3 : 0,0,213
Combo4 : 0,174,225
Combo5 : 213,0,106

[HitObjects]
256,192,734,12,0,5379,0:0:0:0:
86,203,5766,6,0,P|119:168|170:189,3,88,10|2|2|2,2:3|2:3|2:3|2:3,0:0:0:0:
262,252,6540,1,2,2:3:0:0:
267,264,6927,6,0,P|300:299|351:278,2,110,4|0|2,3:2|0:0|2:3,0:0:0:0:
311,169,7508,1,0,3:0:0:0:
155,174,7701,2,0,L|214:163,1,55,8|0,2:3|0:0,0:0:0:0:
311,169,7895,1,0,0:0:0:0:
265,17,8088,2,0,B|244:122|327:75|307:209,1,165,2|0,3:0|0:0,0:0:0:0:
390,104,8475,5,2,2:3:0:0:
466,245,8669,2,0,P|476:183|497:117,1,110,0|2,3:0|2:3,0:0:0:0:
402,73,9056,6,0,P|393:89|388:122,1,32.99999899292,2|0,2:3|2:0,0:0:0:0:
303,96,9250,6,0,P|302:114|311:146,1,38.4999988250733,8|0,2:3|2:0,0:0:0:0:
219,162,9443,6,0,P|225:178|247:204,1,44,4|0,2:3|0:0,0:0:0:0:
466,245,9637,6,0,B|420:215|312:233|363:347|260:375|185:349,1,285.99998690796,2|0,3:0|2:0,0:0:0:0:
72,155,10604,5,0,3:0:0:0:
160,198,10798,2,0,P|167:127|173:92,1,88,12|2,2:0|2:3,0:0:0:0:
12,118,11185,2,0,P|37:159|86:138,2,88,2|2|2,3:0|2:3|2:3,0:0:0:0:
90,278,11766,2,0,P|86:242|83:225,3,29.3333333333333,8|8|8|10,3:1|2:1|2:1|2:3,0:0:0:0:
160,198,12153,1,8,2:1:0:0:
282,329,12346,5,12,2:3:0:0:
471,57,12733,5,2,2:3:0:0:
331,153,13121,6,0,P|293:147|235:135,1,49.4999984893799,4|0,3:2|0:0,0:0:0:0:
203,122,13314,1,0,0:0:0:0:
292,253,13508,2,0,P|249:259|185:273,1,98.9999969787599,2|0,2:3|3:0,0:0:0:0:
478,299,13895,6,0,P|474:337|410:332,1,98.9999969787599,8|2,2:3|2:3,0:0:0:0:
461,124,14282,2,0,P|449:173|441:246,2,98.9999969787599,2|2|2,3:0|2:3|2:3,0:0:0:0:
322,207,14863,1,0,3:0:0:0:
375,72,15056,6,0,P|317:79|307:132,1,98.9999969787599,2|2,2:3|2:3,0:0:0:0:
322,207,15346,1,2,2:3:0:0:
345,236,15443,2,0,P|403:221|449:221,1,98.9999969787599,8|2,2:3|2:3,0:0:0:0:
227,383,15830,6,0,B|202:358|202:358|206:313,1,65.9999979858399,2|0,3:0|2:0,0:0:0:0:
286,295,16024,2,0,B|310:319|310:319|306:364,1,65.9999979858399,2|0,2:3|2:0,0:0:0:0:
221,384,16217,1,4,3:2:0:0:
108,246,16411,6,0,L|172:229,1,49.4999984893799,2|2,2:3|2:3,0:0:0:0:
209,164,16604,2,0,L|249:173,4,24.74999924469,2|0|0|0|0,2:3|2:0|2:0|0:0|3:0,0:0:0:0:
92,41,16992,2,0,P|111:97|122:161,1,98.9999969787599,8|2,2:3|2:3,0:0:0:0:
391,224,17379,2,0,P|354:112|288:107,1,197.99999395752,6|2,2:3|2:3,0:0:0:0:
209,164,17959,1,4,2:3:0:0:
206,313,18153,6,0,P|253:287|262:233,1,98.9999969787599,0|2,0:0|2:3,0:0:0:0:
209,164,18443,1,2,2:3:0:0:
181,175,18540,2,0,P|176:207|173:246,1,49.4999984893799,12|0,2:3|0:0,0:0:0:0:
92,269,18733,2,0,P|97:301|100:340,1,49.4999984893799,8|0,2:1|0:0,0:0:0:0:
35,197,18927,1,2,2:3:0:0:
206,313,19121,1,2,2:3:0:0:
313,278,19314,6,0,L|183:303,1,98.9999969787599,4|2,3:2|2:3,0:0:0:0:
400,370,19701,5,2,2:3:0:0:
422,286,19895,1,0,3:0:0:0:
291,194,20088,1,8,2:3:0:0:
313,278,20282,1,2,2:3:0:0:
448,73,20475,1,2,3:0:0:0:
367,154,20669,6,0,P|359:85|346:1,1,148.49999546814,2|0,2:3|2:0,0:0:0:0:
339,2,21056,2,0,P|310:-1|323:32,1,65.9999979858399,4|0,3:0|2:0,0:0:0:0:
451,76,21250,5,2,2:3:0:0:
451,76,21443,1,2,2:3:0:0:
273,149,21637,1,8,2:3:0:0:
251,233,21831,1,2,2:3:0:0:
426,325,22024,1,6,3:0:0:0:
404,241,22218,1,2,2:3:0:0:
229,317,22411,5,4,3:0:0:0:
52,251,22992,6,0,P|74:240|100:236,1,49.4999984893799,0|0,3:0|2:0,0:0:0:0:
184,237,23185,1,8,2:3:0:0:
42,129,23379,2,0,P|91:136|137:155,2,98.9999969787599,2|6|2,2:3|3:0|2:3,0:0:0:0:
18,33,23959,1,2,2:3:0:0:
18,33,24056,1,2,2:3:0:0:
18,33,24153,1,4,2:3:0:0:
136,155,24346,2,0,L|245:132,1,98.9999969787599,2|2,2:3|2:3,0:0:0:0:
261,116,24637,1,2,2:3:0:0:
261,116,24733,5,8,2:3:0:0:
385,206,24927,2,0,L|391:172,4,24.74999924469,8|0|0|0|8,2:1|0:0|0:0|0:0|2:3,0:0:0:0:
337,67,25314,6,0,P|350:97|348:124,1,49.4999984893799,0|0,3:0|2:0,0:0:0:0:
295,222,25508,2,0,P|347:196|392:210,1,98.9999969787599,6|2,2:3|2:3,0:0:0:0:
454,324,25798,1,2,2:3:0:0:
454,324,25895,2,0,P|446:288|444:249,1,49.4999984893799,2|2,2:3|2:3,0:0:0:0:
351,293,26088,2,0,P|347:317|341:341,1,49.4999984893799,0|2,3:0|2:3,0:0:0:0:
226,286,26282,6,0,P|197:238|212:187,1,98.9999969787599,8|2,2:3|2:3,0:0:0:0:
275,73,26669,1,2,3:0:0:0:
275,73,26766,1,2,2:3:0:0:
275,73,26863,1,2,2:3:0:0:
281,84,27056,6,0,P|221:88|155:105,1,98.9999969787599,2|4,2:3|3:0,0:0:0:0:
114,170,27346,1,2,2:3:0:0:
110,145,27442,1,2,2:3:0:0:
94,127,27539,1,2,2:3:0:0:
70,120,27636,1,2,2:3:0:0:
61,126,27830,6,0,P|78:206|80:248,1,98.9999969787599,8|2,2:3|2:3,0:0:0:0:
47,299,28121,1,2,2:3:0:0:
51,325,28217,2,0,P|85:327|96:310,1,49.4999984893799,4|2,3:0|2:3,0:0:0:0:
199,259,28411,2,0,P|179:244|156:251,1,49.4999984893799,2|2,2:3|2:3,0:0:0:0:
187,374,28604,6,0,P|193:324|205:276,1,98.9999969787599,4|2,3:0|2:3,0:0:0:0:
284,222,28895,5,2,2:3:0:0:
295,240,28992,2,0,P|237:247|193:260,1,98.9999969787599,2|0,2:3|3:0,0:0:0:0:
347,313,29282,5,2,2:3:0:0:
365,324,29379,2,0,P|372:266|385:222,1,98.9999969787599,8|2,2:3|2:3,0:0:0:0:
352,128,29669,5,2,2:3:0:0:
341,146,29766,2,0,P|399:153|443:166,1,98.9999969787599,4|2,3:0|2:3,0:0:0:0:
494,102,30056,1,2,2:3:0:0:
494,102,30153,5,2,2:3:0:0:
437,164,30346,1,4,3:0:0:0:
420,12,30540,2,0,L|414:68,2,49.4999984893799,2|0|2,2:3|2:0|2:3,0:0:0:0:
172,236,30927,6,0,B|305:225|223:153|361:125,1,220,8|0,2:3|0:0,0:0:0:0:
351,127,31508,2,0,P|324:105|282:122,1,65.9999979858399,0|0,3:0|0:0,0:0:0:0:
267,347,31701,2,0,P|278:274|297:196,1,148.49999546814,6|2,3:0|2:3,0:0:0:0:
215,69,32088,5,2,2:3:0:0:
195,54,32184,1,2,2:3:0:0:
171,54,32281,1,0,3:0:0:0:
151,67,32378,1,2,2:3:0:0:
143,90,32475,6,0,P|160:162|171:235,1,148.49999546814,8|0,2:3|0:0,0:0:0:0:
171,235,32863,2,0,P|146:236|123:250,1,49.4999984893799,0|0,3:0|0:0,0:0:0:0:
33,330,33056,2,0,P|54:341|79:342,1,49.4999984893799,2|2,2:3|2:3,0:0:0:0:
171,235,33250,1,2,2:3:0:0:
324,311,33443,1,4,3:0:0:0:
262,228,33637,2,0,P|245:296|241:341,1,98.9999969787599,2|2,2:3|2:3,0:0:0:0:
75,227,34024,6,0,P|107:156|228:154,1,197.99999395752,8|2,2:3|2:3,0:0:0:0:
390,97,34604,5,2,2:3:0:0:
390,97,34701,1,0,2:0:0:0:
390,97,34798,2,0,P|352:128|289:110,1,98.9999969787599,4|2,3:0|2:3,0:0:0:0:
211,60,35088,5,2,2:3:0:0:
234,49,35185,2,0,P|220:94|217:156,1,98.9999969787599,2|0,2:3|3:0,0:0:0:0:
299,207,35475,5,2,2:3:0:0:
322,218,35572,2,0,P|308:173|305:111,1,98.9999969787599,8|2,2:3|2:3,0:0:0:0:
397,252,35863,5,2,2:3:0:0:
401,271,35959,1,4,3:0:0:0:
398,290,36056,1,0,2:0:0:0:
386,306,36153,1,2,2:3:0:0:
369,315,36250,1,2,2:3:0:0:
349,317,36346,2,0,P|352:345|359:365,1,49.4999984893799,2|0,2:3|0:0,0:0:0:0:
322,218,36540,5,6,3:0:0:0:
202,290,36733,2,0,B|228:268|228:268|283:282,1,65.9999979858399,2|0,2:3|0:0,0:0:0:0:
132,369,36927,2,0,B|101:376|101:376|75:354,1,65.9999979858399,2|0,2:3|0:0,0:0:0:0:
83,106,37121,6,0,P|101:195|119:301,1,176,8|0,2:3|0:0,0:0:0:0:
373,87,37895,5,4,3:2:0:0:
464,103,38088,2,0,B|350:114|416:170|286:187,1,197.99999395752,0|2,0:0|2:3,0:0:0:0:
137,79,38863,2,0,P|188:68|248:115,1,131.99999597168,0|0,0:0|2:0,0:0:0:0:
194,239,39443,6,0,P|200:212|208:187,2,49.4999984893799,2|2|2,2:3|2:3|2:3,0:0:0:0:
131,348,40217,2,0,P|123:324|117:296,2,49.4999984893799,2|2|2,2:3|2:3|2:3,0:0:0:0:
52,139,40992,6,0,B|64:254|1:215|12:335,1,197.99999395752,2|2,2:3|2:3,0:0:0:0:
139,115,41766,2,0,P|115:71|88:62,1,65.9999979858399,2|0,2:3|2:0,0:0:0:0:
188,255,42153,2,0,B|222:266|270:268|319:248|288:182|384:159|398:212|398:212|336:234|309:174|313:103,1,395.999987915039,2|2,2:3|2:3,0:0:0:0:
312,121,44088,5,4,3:2:0:0:
230,148,44282,2,0,P|293:151|429:189,1,197.99999395752,0|2,0:0|2:3,0:0:0:0:
499,345,45056,2,0,P|444:337|448:260,1,131.99999597168
489,128,45637,6,0,P|503:151|507:184,2,49.4999984893799,0|2|2,3:0|2:3|2:3,0:0:0:0:
311,120,46411,2,0,P|316:96|329:76,2,49.4999984893799,2|2|2,2:3|2:3|2:3,0:0:0:0:
158,183,47185,5,8,2:1:0:0:
160,190,47572,1,8,2:1:0:0:
162,198,47959,1,8,2:1:0:0:
399,140,48346,5,8,2:1:0:0:
377,223,48540,1,8,2:1:0:0:
381,316,48733,1,8,2:1:0:0:
381,316,48830,6,0,L|347:321,6,24.74999924469,0|0|8|8|8|8|8,2:0|0:0|2:1|2:1|2:1|2:1|2:3,0:0:0:0:
86,112,50088,6,0,P|101:105|128:103,2,25.6666658833822,8|8|8,2:1|2:1|2:1,0:0:0:0:
5,115,50282,2,0,B|135:140|62:200|181:234,1,220,6|2,3:0|2:3,0:0:0:0:
376,147,50863,6,0,P|358:122|321:133,1,65.9999979858399,2|0,2:3|2:0,0:0:0:0:
368,297,51056,2,0,P|377:258|385:230,1,65.9999979858399,8|0,2:3|2:0,0:0:0:0:
241,138,51250,2,0,P|249:169|257:201,1,65.9999979858399,4|0,3:0|2:0,0:0:0:0:
371,300,51443,1,2,2:3:0:0:
490,29,51637,1,2,2:3:0:0:
490,29,51733,1,2,2:3:0:0:
490,29,51830,6,0,P|406:31|387:163,1,220,2|2,2:3|2:3,0:0:0:0:
496,348,52411,6,0,P|487:313|480:270,1,65.9999979858399,2|0,2:3|2:0,0:0:0:0:
384,233,52604,2,0,P|376:265|370:297,1,65.9999979858399,8|0,2:3|2:0,0:0:0:0:
271,368,52798,2,0,P|262:333|255:290,1,65.9999979858399,2|0,2:3|2:0,0:0:0:0:
134,243,52992,1,2,2:3:0:0:
348,152,53185,1,0,3:0:0:0:
348,152,53282,1,0,0:0:0:0:
348,152,53379,6,0,P|280:155|258:93,2,110,6|0|2,3:0|0:0|2:3,0:0:0:0:
396,69,53959,1,4,3:0:0:0:
454,131,54153,6,0,B|482:106|482:106|478:62,1,65.9999979858399,8|2,2:3|2:3,0:0:0:0:
333,8,54347,2,0,B|305:33|305:33|309:77,1,65.9999979858399,2|2,2:3|2:3,0:0:0:0:
476,216,54540,2,0,P|406:229|336:259,1,131.99999597168,0|2,3:0|2:3,0:0:0:0:
292,308,54830,1,0,2:0:0:0:
292,308,54927,1,2,2:3:0:0:
348,152,55121,1,4,3:0:0:0:
131,290,55314,1,2,2:3:0:0:
154,197,55508,6,0,P|197:216|212:246,1,65.9999979858399,2|0,2:3|2:0,0:0:0:0:
40,317,55701,2,0,P|34:270|53:242,1,65.9999979858399,8|0,2:3|2:0,0:0:0:0:
200,355,55895,2,0,P|162:382|128:380,1,65.9999979858399,4|0,3:0|2:0,0:0:0:0:
131,290,56088,1,2,2:3:0:0:
359,182,56282,1,2,3:0:0:0:
359,182,56379,1,0,0:0:0:0:
359,182,56475,6,0,B|257:173|309:239|172:229,1,165,6|2,3:0|2:3,0:0:0:0:
133,166,56863,6,0,P|138:136|141:101,1,55,2|0,2:3|0:0,0:0:0:0:
162,91,57056,2,0,P|157:121|154:156,1,55,2|0,2:3|2:0,0:0:0:0:
131,290,57250,1,8,2:3:0:0:
131,290,57443,6,0,L|122:240,1,35.749998363495,4|0,3:0|0:0,0:0:0:0:
42,308,57830,6,0,B|144:299|92:365|229:355,1,165,2|0,2:3|2:0,0:0:0:0:
275,283,58217,2,0,P|266:242|194:238,1,110,4|2,3:0|2:3,0:0:0:0:
410,351,58604,6,0,B|446:355|446:355|489:322,1,65.9999979858399,2|2,2:3|2:3,0:0:0:0:
428,183,58798,2,0,B|392:179|392:179|349:212,1,65.9999979858399,8|0,2:3|2:0,0:0:0:0:
419,266,58992,1,2,2:3:0:0:
447,97,59185,2,0,P|376:89|299:68,1,110,2|2,2:3|3:0,0:0:0:0:
244,54,59475,1,0,0:0:0:0:
235,77,59572,6,0,B|236:129|269:150|269:150|282:208|233:266,1,165,6|2,3:0|2:3,0:0:0:0:
263,337,59959,6,0,L|174:354,1,65.9999979858399,2|0,2:3|2:0,0:0:0:0:
177,335,60153,2,0,L|241:322,1,65.9999979858399,0|0,3:0|2:0,0:0:0:0:
57,370,60346,1,8,2:3:0:0:
57,370,60540,6,0,L|65:313,1,55,2|2,2:3|2:3,0:0:0:0:
93,143,60733,1,6,3:0:0:0:
168,204,60927,6,0,P|92:240|-1:158,1,220,2|6,2:3|3:0,0:0:0:0:
291,64,61508,5,2,2:3:0:0:
293,80,61604,1,2,2:3:0:0:
296,96,61701,1,2,2:3:0:0:
298,113,61798,1,2,2:3:0:0:
301,129,61895,1,8,2:3:0:0:
301,129,63056,6,0,L|291:180,1,44,2|0,2:3|0:0,0:0:0:0:
186,117,63443,2,0,L|177:73,1,44,2|0,2:3|0:0,0:0:0:0:
306,191,64217,6,0,L|315:148,1,44,2|0,2:3|0:0,0:0:0:0:
164,85,64604,2,0,L|172:128,1,44,2|0,2:3|0:0,0:0:0:0:
340,49,64992,1,6,2:3:0:0:
343,45,65379,6,0,B|232:40|281:123|153:131,1,197.99999395752,0|0,2:0|2:0,0:0:0:0:
90,132,65766,6,0,P|104:90|168:88,1,110,4|0,3:2|2:0,0:0:0:0:
182,213,66056,1,0,2:0:0:0:
199,229,66153,2,0,P|190:260|186:291,1,55,2|2,2:3|2:3,0:0:0:0:
104,352,66346,2,0,P|99:324|91:298,1,55,0|0,3:0|2:0,0:0:0:0:
201,231,66540,1,8,2:3:0:0:
420,240,66927,5,0,3:0:0:0:
372,251,67056,1,0,0:0:0:0:
335,218,67185,1,0,0:0:0:0:
307,130,67314,5,0,3:0:0:0:
355,119,67443,1,0,0:0:0:0:
392,152,67572,1,0,0:0:0:0:
335,218,67701,6,0,P|278:225|252:233,1,73.3333333333333,2|2,2:3|2:3,0:0:0:0:
233,118,67959,2,0,P|270:120|306:129,1,73.3333333333333,2|8,2:3|2:3,0:0:0:0:
190,268,68217,2,0,P|141:298|121:316,1,73.3333333333333,2|2,2:3|2:3,0:0:0:0:
335,218,68475,1,4,3:0:0:0:
171,56,68669,2,0,P|146:55|127:63,2,36.6666666666667,8|8|8,2:1|2:1|2:1,0:0:0:0:
254,26,68863,6,0,B|270:81|270:81|210:139,1,110,4|2,3:0|2:3,0:0:0:0:
105,332,69250,1,2,2:3:0:0:
105,332,69346,1,2,2:3:0:0:
105,332,69443,1,4,3:0:0:0:
38,256,69637,6,0,B|154:264|97:333|230:335,1,197.99999395752,8|0,2:3|2:0,0:0:0:0:
406,216,70024,5,6,3:0:0:0:
356,187,70153,1,2,2:3:0:0:
302,202,70282,1,2,2:3:0:0:
272,250,70411,2,0,P|264:193|246:140,1,110,2|4,2:3|3:0,0:0:0:0:
22,107,70798,5,2,2:3:0:0:
72,136,70927,1,2,2:3:0:0:
126,121,71056,1,2,2:3:0:0:
156,73,71185,6,0,L|201:79,1,36.6666666666667,8|0,2:3|0:0,0:0:0:0:
206,189,71379,2,0,L|169:193,1,36.6666666666667,8|0,2:3|0:0,0:0:0:0:
282,93,71572,1,6,2:3:0:0:
424,139,71766,1,2,2:3:0:0:
424,139,71863,1,0,2:0:0:0:
424,139,71959,6,0,P|359:139|326:184,2,110,4|2|6,3:0|2:3|2:3,0:0:0:0:
315,255,72540,1,0,3:0:0:0:
417,332,72733,2,0,P|412:283|397:214,2,110,8|2|0,2:3|2:3|3:0,0:0:0:0:
424,139,73314,5,2,2:3:0:0:
340,98,73508,1,2,2:3:0:0:
231,296,73701,1,4,3:0:0:0:
315,255,73895,1,2,2:3:0:0:
192,99,74088,5,2,2:3:0:0:
230,190,74282,1,8,2:3:0:0:
62,110,74475,1,2,2:3:0:0:
100,19,74669,1,4,3:0:0:0:
118,271,74863,1,2,3:0:0:0:
118,271,74959,1,0,2:0:0:0:
118,271,75056,6,0,P|61:262|61:203,2,110,4|2|2,3:2|2:3|2:3,0:0:0:0:
230,190,75637,5,4,3:0:0:0:
62,110,75830,1,8,2:3:0:0:
231,296,76024,1,2,2:3:0:0:
327,101,76217,1,4,3:2:0:0:
327,101,77766,5,8,2:1:0:0:
401,286,77959,2,0,P|408:304|428:323,2,36.6666666666667,8|8|8,2:1|2:1|2:1,0:0:0:0:
464,227,78153,6,0,B|355:235|411:288|298:299,1,176,4|2,3:2|2:3,0:0:0:0:
238,255,78637,1,0,2:0:0:0:
242,237,78733,1,2,3:0:0:0:
86,174,78927,6,0,P|137:213|186:182,1,88,10|2,2:3|2:3,0:0:0:0:
224,151,79217,1,0,0:0:0:0:
220,133,79313,1,0,3:0:0:0:
242,237,79508,1,2,2:3:0:0:
319,83,79701,5,2,2:3:0:0:
145,55,79895,1,6,3:0:0:0:
344,0,80088,2,0,P|266:10|235:60,1,132,2|0,2:3|2:0,0:0:0:0:
430,176,80475,6,0,P|445:151|434:123,1,55,8|0,2:3|0:0,0:0:0:0:
319,83,80669,2,0,P|333:108|362:112,1,55,2|0,2:3|0:0,0:0:0:0:
455,33,80863,2,0,P|425:32|407:56,1,55,2|0,2:3|0:0,0:0:0:0:
357,260,81056,1,2,3:0:0:0:
357,260,81153,1,2,2:3:0:0:
357,260,81250,2,0,P|448:270|495:288,2,110,4|2|2,3:0|2:3|2:3,0:0:0:0:
224,151,81830,1,2,3:0:0:0:
224,151,81927,1,2,2:3:0:0:
224,151,82024,1,10,2:3:0:0:
224,151,82217,6,0,P|196:141|201:106,1,55,2|2,2:3|2:3,0:0:0:0:
290,105,82411,2,0,P|269:167|262:233,1,110,6|2,3:0|2:3,0:0:0:0:
161,309,82701,1,2,2:3:0:0:
154,291,82798,2,0,P|194:271|217:283,1,55,2|0,2:3|2:0,0:0:0:0:
370,347,82992,2,0,P|306:328|290:282,1,110,6|0,3:0|0:0,0:0:0:0:
262,210,83379,5,6,2:3:0:0:
65,323,83572,1,8,2:3:0:0:
133,77,83766,1,8,2:1:0:0:
389,164,83959,1,8,2:1:0:0:
181,181,84153,2,0,L|171:148,2,27.5,8|0|0,3:1|3:0|3:0,0:0:0:0:
118,234,84346,6,0,P|182:211|280:213,1,148.49999546814,4|0,3:2|2:0,0:0:0:0:
399,247,84733,2,0,P|366:249|337:232,1,49.4999984893799,2|2,2:3|2:3,0:0:0:0:
298,121,84927,1,2,3:0:0:0:
490,184,85121,1,8,2:3:0:0:
261,209,85314,1,2,2:3:0:0:
411,67,85508,2,0,P|395:124|388:168,1,98.9999969787599,2|2,3:0|2:3,0:0:0:0:
207,113,85895,6,0,P|230:98|265:97,1,49.4999984893799,2|2,2:3|2:3,0:0:0:0:
388,163,86088,1,6,3:0:0:0:
307,30,86282,5,2,2:3:0:0:
261,209,86475,1,2,2:3:0:0:
110,73,86669,5,10,2:3:0:0:
141,195,86862,1,2,3:0:0:0:
207,113,87056,1,2,2:3:0:0:
11,194,87250,1,2,2:3:0:0:
206,295,87443,1,2,3:0:0:0:
210,299,87637,6,0,P|169:305|151:311,1,49.4999984893799,2|0,2:3|2:0,0:0:0:0:
147,325,87830,2,0,P|171:319|195:316,1,49.4999984893799,2|0,2:3|2:0,0:0:0:0:
69,292,88024,1,2,3:0:0:0:
261,373,88217,2,0,P|296:338|290:277,1,98.9999969787599,8|2,2:3|2:3,0:0:0:0:
321,110,88604,2,0,B|313:160|313:160|307:167|307:167|299:245,1,98.9999969787599,6|2,3:0|2:3,0:0:0:0:
296,290,88895,1,2,2:3:0:0:
296,290,88992,1,6,2:3:0:0:
423,61,89185,6,0,L|429:110,1,49.4999984893799,4|0,3:2|0:0,0:0:0:0:
442,190,89379,1,8,2:3:0:0:
123,294,89669,6,0,L|118:331,2,24.74999924469,8|0|8,2:1|2:0|2:1,0:0:0:0:
299,181,90056,2,0,L|304:218,2,24.74999924469,8|0|8,2:1|2:0|2:1,0:0:0:0:
69,57,90540,5,4,3:2:0:0:
159,78,90733,2,0,P|107:76|49:198,1,197.99999395752,0|2,0:0|2:3,0:0:0:0:
248,156,91508,2,0,B|309:145|309:145|315:149|315:149|386:140,1,131.99999597168
452,284,92088,6,0,P|428:272|403:270,2,49.4999984893799,2|2|2,2:3|2:3|2:3,0:0:0:0:
347,374,92863,2,0,P|338:348|322:329,2,49.4999984893799,2|2|2,2:3|2:3|2:3,0:0:0:0:
147,178,93637,6,0,B|270:177|206:243|357:243,1,197.99999395752,2|2,2:3|2:3,0:0:0:0:
457,360,94411,2,0,P|483:322|467:289,1,65.9999979858399,2|0,2:3|2:0,0:0:0:0:
410,94,94798,2,0,B|337:72|293:98|266:162|272:224|331:245|331:245|328:181|235:175,1,395.999987915039,2|2,2:3|2:3,0:0:0:0:
238,175,96733,5,4,3:2:0:0:
327,191,96927,2,0,P|261:201|128:252,1,197.99999395752,0|2,0:0|2:3,0:0:0:0:
45,90,97701,2,0,P|98:78|142:137,1,131.99999597168
43,271,98282,6,0,L|31:212,2,49.4999984893799,0|2|2,3:0|2:3|2:3,0:0:0:0:
176,367,99056,2,0,L|188:308,2,49.4999984893799,2|2|2,2:3|2:3|2:3,0:0:0:0:
332,206,99830,5,8,2:1:0:0:
322,207,100217,1,8,2:1:0:0:
312,209,100604,1,8,2:1:0:0:
48,102,100992,5,8,2:1:0:0:
138,119,101186,1,8,2:1:0:0:
230,127,101379,1,8,2:1:0:0:
230,127,101475,6,0,L|224:152,6,24.74999924469,0|0|8|8|8|8|8,2:0|0:0|2:1|2:1|2:1|2:1|2:3,0:0:0:0:
415,311,102540,5,8,2:1:0:0:
456,281,102669,1,8,2:1:0:0:
454,231,102798,1,8,2:1:0:0:
410,205,102927,2,0,B|366:179|304:199|304:199|273:270|174:250,1,220,6|2,3:0|2:3,0:0:0:0:
174,118,103508,6,0,P|213:145|218:171,1,65.9999979858399,2|0,2:3|2:0,0:0:0:0:
171,340,103701,2,0,P|132:313|127:287,1,65.9999979858399,8|0,2:3|2:0,0:0:0:0:
172,114,103895,1,4,3:0:0:0:
21,222,104088,2,0,P|79:216|155:190,1,110,2|2,2:3|2:3,0:0:0:0:
172,114,104379,1,2,2:3:0:0:
160,92,104475,6,0,P|115:79|81:131,2,110,2|0|2,2:3|3:0|2:3,0:0:0:0:
476,187,105056,6,0,B|483:226|483:226|461:258,1,65.9999979858399,2|0,2:3|2:0,0:0:0:0:
328,133,105250,2,0,B|357:106|357:106|397:109,1,65.9999979858399,8|0,2:3|2:0,0:0:0:0:
355,287,105443,2,0,B|317:274|317:274|300:238,1,65.9999979858399,2|0,2:3|2:0,0:0:0:0:
387,203,105637,1,2,2:3:0:0:
106,32,105830,1,0,3:0:0:0:
106,32,105927,1,0,0:0:0:0:
106,32,106024,6,0,B|98:81|98:81|94:87|94:87|86:149,2,110,6|0|2,3:0|0:0|2:3,0:0:0:0:
305,250,106604,6,0,P|346:248|373:221,1,65.9999979858399,4|0,3:0|2:0,0:0:0:0:
195,298,106798,2,0,P|175:334|185:371,1,65.9999979858399,8|2,2:3|2:3,0:0:0:0:
216,184,106992,2,0,P|194:148|156:139,1,65.9999979858399,2|2,2:3|2:3,0:0:0:0:
18,280,107185,2,0,B|74:310|74:310|133:277|102:201,1,165,0|0,3:0|2:0,0:0:0:0:
87,139,107572,5,2,2:3:0:0:
275,114,107766,2,0,L|142:87,1,110,4|2,3:0|2:3,0:0:0:0:
470,224,108153,6,0,P|432:222|407:197,1,65.9999979858399,2|0,2:3|2:0,0:0:0:0:
357,290,108346,2,0,P|323:272|311:239,1,65.9999979858399,8|0,2:3|2:0,0:0:0:0:
226,303,108540,2,0,P|202:273|206:237,1,65.9999979858399,4|0,3:0|2:0,0:0:0:0:
275,114,108733,1,2,2:3:0:0:
6,105,108927,1,2,3:0:0:0:
6,105,109024,1,0,0:0:0:0:
6,105,109121,6,0,B|108:96|56:162|193:152,1,165,6|2,3:0|2:3,0:0:0:0:
275,114,109508,6,0,P|270:84|267:49,1,55,2|0,2:3|2:0,0:0:0:0:
246,39,109701,2,0,P|251:69|254:104,1,55,2|0,2:3|2:0,0:0:0:0:
264,257,109895,1,8,2:3:0:0:
264,257,110088,6,0,L|314:266,1,35.749998363495,4|0,3:0|0:0,0:0:0:0:
449,322,110475,6,0,B|347:313|399:379|262:369,1,165,2|0,2:3|2:0,0:0:0:0:
194,310,110863,2,0,P|203:269|275:265,1,110,4|2,3:0|2:3,0:0:0:0:
69,322,111250,6,0,B|33:326|33:326|-10:293,1,65.9999979858399,2|2,2:3|2:3,0:0:0:0:
51,154,111443,2,0,B|87:150|87:150|130:183,1,65.9999979858399,8|0,2:3|2:0,0:0:0:0:
60,237,111637,1,2,2:3:0:0:
32,68,111830,2,0,P|103:60|180:39,1,110,2|2,2:3|3:0,0:0:0:0:
235,25,112120,1,0,0:0:0:0:
244,48,112217,6,0,B|243:100|210:121|210:121|197:179|246:237,1,165,6|2,3:0|2:3,0:0:0:0:
359,267,112604,6,0,P|309:277|297:283,1,55,2|0,2:3|2:0,0:0:0:0:
297,300,112798,2,0,P|323:291|350:288,1,55,0|0,3:0|2:0,0:0:0:0:
473,307,112992,1,8,2:3:0:0:
151,280,113185,2,0,P|160:331|209:350,1,110,2|6,2:3|3:0,0:0:0:0:
297,300,113475,1,0,0:0:0:0:
308,280,113572,6,0,P|293:222|285:162,1,110,2|0,2:3|0:0,0:0:0:0:
391,30,113959,2,0,P|378:85|323:100,1,110,6|2,3:0|2:3,0:0:0:0:
272,42,114250,5,2,2:3:0:0:
236,30,114346,1,2,2:3:0:0:
201,43,114443,1,2,2:3:0:0:
180,74,114540,6,0,P|180:98|189:126,1,44,8|0,2:3|2:0,0:0:0:0:
311,133,114733,2,0,P|310:154|305:176,1,44,8|0,2:1|2:0,0:0:0:0:
98,185,114927,2,0,P|108:206|128:228,1,44,8|0,2:1|2:0,0:0:0:0:
386,234,115121,2,0,P|376:253|363:271,2,44,8|0|0,2:1|2:0|0:0,0:0:0:0:
228,374,115314,6,0,P|222:295|206:168,1,165,6|0,3:0|2:0,0:0:0:0:
109,131,115701,1,2,2:3:0:0:
109,131,115797,1,0,2:0:0:0:
109,131,115895,2,0,P|102:164|95:199,1,55,2|0,2:3|2:0,0:0:0:0:
75,307,116088,1,8,2:3:0:0:
306,196,116282,6,0,P|279:134|209:135,1,110,4|0,3:0|0:0,0:0:0:0:
191,286,116669,1,2,2:3:0:0:
382,332,116863,2,0,P|360:323|326:315,1,55,2|0,2:3|0:0,0:0:0:0:
306,196,117056,2,0,B|407:186|348:135|447:124,1,165,0|0,3:0|2:0,0:0:0:0:
476,31,117443,6,0,L|393:47,1,65.9999979858399,2|0,2:3|0:0,0:0:0:0:
233,91,117637,2,0,L|316:107,1,65.9999979858399,8|0,2:3|2:0,0:0:0:0:
443,277,117830,2,0,P|459:245|453:211,1,65.9999979858399,2|0,2:3|2:0,0:0:0:0:
263,285,118024,2,0,P|259:317|275:346,1,65.9999979858399,2|0,2:3|2:0,0:0:0:0:
446,124,118217,1,0,3:0:0:0:
349,261,118411,6,0,P|344:195|333:135,2,110,6|2|2,3:0|2:3|2:3,0:0:0:0:
274,345,118992,1,4,3:0:0:0:
102,234,119185,2,0,P|144:190|211:205,1,110,8|2,2:3|2:3,0:0:0:0:
155,338,119572,2,0,L|28:315,1,110,0|2,3:0|2:3,0:0:0:0:
5,226,119863,1,0,2:0:0:0:
17,205,119959,2,0,P|74:196|95:266,1,110,2|4,2:3|3:0,0:0:0:0:
263,257,120346,5,2,2:3:0:0:
263,257,120442,1,0,0:0:0:0:
263,257,120540,2,0,P|295:258|341:268,1,65.9999979858399,2|0,2:3|2:0,0:0:0:0:
494,183,120733,2,0,P|461:189|428:190,1,65.9999979858399,8|0,2:3|2:0,0:0:0:0:
254,99,120927,2,0,P|286:100|332:110,1,65.9999979858399,4|0,3:0|2:0,0:0:0:0:
497,185,121121,1,2,2:3:0:0:
180,229,121314,1,2,3:0:0:0:
180,229,121411,1,0,0:0:0:0:
180,229,121508,6,0,B|206:133|127:175|171:34,1,165,6|2,3:0|2:3,0:0:0:0:
285,38,121895,6,0,P|278:70|275:99,1,55,2|0,2:3|0:0,0:0:0:0:
254,99,122088,2,0,P|257:71|263:44,1,55,2|0,2:3|2:0,0:0:0:0:
382,9,122282,1,8,2:3:0:0:
417,193,122475,6,0,L|407:143,1,35.749998363495,4|0,3:0|0:0,0:0:0:0:
496,226,122863,6,0,P|413:233|334:264,1,165,2|0,2:3|2:0,0:0:0:0:
281,339,123250,2,0,B|249:325|224:325|224:325|245:297|244:247,1,110,4|2,3:0|2:3,0:0:0:0:
300,102,123637,6,0,B|304:66|304:66|271:23,1,65.9999979858399,2|2,2:3|2:3,0:0:0:0:
132,84,123831,2,0,B|128:120|128:120|161:163,1,65.9999979858399,8|0,2:3|0:0,0:0:0:0:
215,93,124025,1,2,2:3:0:0:
46,65,124218,2,0,P|38:136|17:213,1,110,2|2,2:3|3:0,0:0:0:0:
3,268,124508,1,0,0:0:0:0:
26,277,124605,6,0,B|78:276|99:243|99:243|157:230|215:279,1,165,6|2,3:0|2:3,0:0:0:0:
324,236,124992,6,0,P|314:186|308:174,1,55,2|0,2:3|0:0,0:0:0:0:
291,174,125186,2,0,P|300:200|303:227,1,55,0|0,3:0|0:0,0:0:0:0:
287,343,125380,1,8,2:3:0:0:
265,76,125573,2,0,P|214:85|195:134,1,110,2|6,2:3|3:0,0:0:0:0:
291,174,125863,1,0,2:0:0:0:
311,185,125960,2,0,P|369:170|429:162,1,110,2|0,2:3|0:0,0:0:0:0:
511,327,126347,6,0,P|456:314|441:259,1,110,6|0,3:0|0:0,0:0:0:0:
439,113,126733,6,0,P|427:150|403:172,1,55,2|0,2:3|0:0,0:0:0:0:
305,8,126927,2,0,P|342:-1|373:8,1,55,8|0,2:3|2:0,0:0:0:0:
282,177,127121,1,4,3:0:0:0:
282,177,127217,1,0,2:0:0:0:
282,177,127314,1,2,2:3:0:0:
348,94,127508,1,2,2:3:0:0:
374,285,127701,5,12,3:2:0:0:
374,285,127992,5,0,0:0:0:0:
374,285,128088,2,0,P|351:288|321:305,1,43.9999986572266,2|2,2:3|2:3,0:0:0:0:
255,332,128282,1,0,3:0:0:0:
189,134,128475,6,0,P|226:182|244:262,1,131.99999597168,10|0,2:3|3:0,0:0:0:0:
255,332,129056,1,0,2:0:0:0:
140,321,129250,6,0,P|161:309|199:303,1,43.9999986572266,2|2,2:3|2:3,0:0:0:0:
49,270,129637,2,0,P|62:250|94:228,1,43.9999986572266,2|2,2:3|2:3,0:0:0:0:
100,51,130024,2,0,L|124:167,1,98.9999969787599,14|0,2:3|2:0,0:0:0:0:
239,143,130411,5,0,2:0:0:0:
232,140,130507,1,0,2:0:0:0:
226,139,130604,1,0,2:0:0:0:
219,137,130701,1,0,2:0:0:0:
213,136,130798,1,0,0:0:0:0:
213,136,131238,5,8,2:1:0:0:
371,218,131667,6,0,L|379:174,1,27.5,2|0,2:3|0:0,0:0:0:0:
99,294,132095,5,2,2:3:0:0:
371,218,132524,6,0,B|322:202|282:228|282:228|265:223|265:223|232:257|166:237,1,197.99999395752,4|2,3:0|2:3,0:0:0:0:
105,203,133095,2,0,P|104:169|127:148,1,65.9999979858399,2|2,2:3|2:3,0:0:0:0:
221,115,133381,2,0,P|212:136|207:161,2,43.9999986572266,8|0|0,2:1|0:0|0:0,0:0:0:0:
147,64,133810,5,2,2:3:0:0:
147,64,134024,5,0,0:0:0:0:
147,64,134238,5,2,2:3:0:0:
456,233,134667,6,0,L|485:235,1,21.9999993286133,2|2,2:3|2:3,0:0:0:0:
446,265,134810,6,0,L|471:279,1,21.9999993286133,2|2,2:3|2:3,0:0:0:0:
422,290,134953,6,0,L|439:313,1,21.9999993286133,2|2,2:3|2:3,0:0:0:0:
460,188,135095,5,8,2:3:0:0:
67,213,135952,6,0,B|130:240|175:198|175:198|174:250|219:270,1,197.99999395752,4|2,3:0|2:3,0:0:0:0:
296,273,136524,6,0,P|323:298|313:354,1,65.9999979858399,0|0,2:0|2:0,0:0:0:0:
262,193,136810,2,0,L|273:134,2,43.9999986572266,8|2|2,2:1|2:3|2:3,0:0:0:0:
211,266,137238,1,2,2:3:0:0:
419,200,137452,5,0,3:0:0:0:
419,200,137881,6,0,P|409:215|403:238,1,22,2|0,2:3|2:0,0:0:0:0:
379,237,138095,2,0,P|379:223|381:210,1,27.5,2|0,2:3|2:0,0:0:0:0:
351,233,138310,2,0,P|356:250|371:269,1,32.99999899292,2|0,2:3|2:0,0:0:0:0:
200,384,138524,6,0,P|191:357|190:322,1,38.4999988250733,6|0,3:0|2:0,0:0:0:0:
157,312,138738,2,0,P|150:332|148:354,1,44,2|0,2:3|2:0,0:0:0:0:
113,310,138953,2,0,P|126:286|153:263,1,49.4999984893799,2|0,2:3|2:0,0:0:0:0:
146,229,139167,2,0,P|120:238|98:254,1,55,2|0,2:3|2:0,0:0:0:0:
256,268,139381,6,0,B|247:180|247:180|238:172|238:172|227:70,1,197.99999395752,4|2,3:0|2:3,0:0:0:0:
273,0,139952,2,0,P|308:32|305:70,1,65.9999979858399,0|2,2:0|2:3,0:0:0:0:
325,136,140167,1,2,2:3:0:0:
324,156,140238,2,0,P|368:139|412:128,1,65.9999979858399,10|2,2:3|2:3,0:0:0:0:
469,11,140524,2,0,P|461:58|448:101,1,65.9999979858399,2|2,2:3|2:3,0:0:0:0:
512,213,140881,1,0,0:0:0:0:
228,83,141095,5,2,2:3:0:0:
183,87,141524,6,0,L|181:62,1,21.9999993286133,2|0,2:3|0:0,0:0:0:0:
151,97,141667,6,0,L|134:67,1,21.9999993286133,2|0,2:3|0:0,0:0:0:0:
126,121,141810,6,0,L|98:100,1,21.9999993286133,2|0,2:3|0:0,0:0:0:0:
228,83,141952,5,10,2:3:0:0:
160,298,142810,6,0,P|183:302|224:319,1,65.9999979858399,4|2,3:0|2:3,0:0:0:0:
90,239,143095,2,0,P|81:216|76:173,1,65.9999979858399,2|2,2:3|2:3,0:0:0:0:
73,324,143381,1,2,2:3:0:0:
301,231,143667,5,8,2:1:0:0:
351,272,143809,1,2,2:3:0:0:
410,256,143952,1,2,2:3:0:0:
460,297,144095,2,0,P|406:301|358:324,1,98.9999969787599,2|0,2:3|3:0,0:0:0:0:
495,85,144524,6,0,B|499:119|499:119|474:154,1,65.9999979858399,2|2,2:3|2:3,0:0:0:0:
317,108,144810,2,0,B|312:73|312:73|337:38,1,65.9999979858399,2|0,2:3|2:0,0:0:0:0:
406,98,145095,1,2,2:3:0:0:
182,269,145381,5,8,2:1:0:0:
161,206,145524,1,2,2:3:0:0:
222,187,145667,1,2,2:3:0:0:
242,249,145810,2,0,B|140:268|208:318|92:346,1,164.9999949646,2|0,2:3|0:0,0:0:0:0:
36,283,146238,6,0,P|56:224|68:104,1,183.333333333333,4|0,2:0|0:0,0:0:0:0:
75,26,146667,1,4,2:0:0:0:
127,44,146810,1,2,2:3:0:0:
180,23,146952,1,2,2:3:0:0:
234,49,147095,6,0,B|264:91|264:91|266:142|219:185,1,146.666666666667,4|0,2:0|0:0,0:0:0:0:
207,266,147524,1,2,2:3:0:0:
246,308,147653,1,2,2:3:0:0:
303,294,147782,1,2,2:3:0:0:
345,338,147952,6,0,P|265:334|130:382,1,220,4|0,3:0|0:0,0:0:0:0:
73,217,148595,2,0,P|44:225|42:256,1,65.9999979858399,2|0,2:3|2:0,0:0:0:0:
104,134,148810,6,0,P|117:215|123:298,1,165,10|0,2:3|0:0,0:0:0:0:
196,82,149238,2,0,P|198:62|215:12,2,55,2|0|0,2:3|2:0|0:0,0:0:0:0:
270,274,149667,1,2,2:3:0:0:
223,190,149881,6,0,P|311:184|363:246,1,165,0|0,3:0|0:0,0:0:0:0:
415,106,150310,2,0,P|394:106|370:110,2,36.6666666666667,2|2|2,2:3|2:3|2:3,0:0:0:0:
492,88,150524,6,0,P|390:71|299:48,1,183.333333333333,8|0,2:1|2:0,0:0:0:0:
106,140,150952,2,0,P|130:128|143:126,2,36.6666666666667,2|0|0,2:3|0:0|0:0,0:0:0:0:
95,155,151167,1,2,2:3:0:0:
241,323,151381,6,0,B|246:279|283:263|283:263|292:216|250:187|210:194|189:230,1,220,4|0,3:0|0:0,0:0:0:0:
333,346,152024,2,0,P|354:364|388:348,1,65.9999979858399,0|0,2:0|2:0,0:0:0:0:
402,159,152238,6,0,P|381:217|371:298,1,110,8|0,2:1|0:0,0:0:0:0:
271,67,152667,1,2,3:0:0:0:
271,67,152774,1,2,2:3:0:0:
271,67,152881,2,0,P|281:41|287:14,1,55,2|0,2:3|0:0,0:0:0:0:
402,159,153095,2,0,P|389:124|385:101,1,55,2|0,2:3|2:0,0:0:0:0:
122,90,153381,6,0,B|227:100|172:165|305:167,1,183.333333333333,0|2,0:0|2:3,0:0:0:0:
429,261,153952,5,10,2:3:0:0:
412,263,154059,1,0,0:0:0:0:
397,271,154166,1,2,3:0:0:0:
247,349,154381,5,2,2:3:0:0:
264,357,154488,1,0,0:0:0:0:
283,361,154595,1,2,2:3:0:0:
128,234,154810,6,0,P|92:240|62:260,2,73.3333333333333,4|2|2,3:0|2:3|2:3,0:0:0:0:
317,162,155238,2,0,P|326:126|291:97,1,73.3333333333333,2|0,2:3|0:0,0:0:0:0:
278,93,155452,2,0,P|279:76|285:57,2,36.6666666666667,2|2|2,2:3|2:3|2:3,0:0:0:0:
194,127,155667,5,8,2:1:0:0:
133,114,155809,1,0,0:0:0:0:
99,62,155952,1,0,2:0:0:0:
37,49,156095,2,0,L|44:127,2,55,0|0|0,3:0|0:0|0:0,0:0:0:0:
185,39,156524,2,0,L|188:12,6,27.5,2|2|2|2|2|2|2,2:3|2:3|2:3|2:3|2:3|2:3|2:3,0:0:0:0:
162,207,156952,1,2,2:3:0:0:
162,207,157167,6,0,P|143:209|124:220,2,36.6666666666667,0|2|0,2:0|2:3|2:0,0:0:0:0:
232,157,157381,2,0,P|266:168|286:198,1,73.3333333333333,8|0,2:1|0:0,0:0:0:0:
307,286,157667,1,8,2:1:0:0:
247,349,157810,6,0,P|239:365|239:384,1,36.6666666666667,2|0,2:3|0:0,0:0:0:0:
222,381,157952,2,0,P|222:362|230:346,1,36.6666666666667,2|0,2:3|0:0,0:0:0:0:
502,315,158238,6,0,P|450:299|378:291,1,110,4|0,3:0|2:0,0:0:0:0:
372,205,158524,2,0,P|391:167|460:170,1,110,10|0,2:3|2:0,0:0:0:0:
512,226,158881,1,4,3:0:0:0:
398,73,159095,5,8,2:3:0:0:
340,91,159238,1,2,2:3:0:0:
282,73,159381,1,8,2:1:0:0:
224,91,159524,2,0,P|232:127|238:189,1,73.3333333333333,4|2,3:0|2:3,0:0:0:0:
189,18,159810,1,2,2:3:0:0:
318,206,159952,6,0,P|314:223|311:242,2,36.6666666666667,8|2|2,2:3|2:3|2:3,0:0:0:0:
332,179,160167,1,4,3:0:0:0:
242,289,160381,6,0,P|258:320|293:327,1,73.3333333333333,2|2,2:3|2:3,0:0:0:0:
379,274,160595,2,0,P|396:269|414:267,2,36.6666666666667,8|8|8,2:1|2:1|2:1,0:0:0:0:
436,278,160810,1,12,3:0:0:0:
332,179,161024,1,8,2:1:0:0:
490,86,161238,5,8,3:1:0:0:
432,183,161381,1,8,2:1:0:0:
374,79,161524,1,8,2:1:0:0:
374,79,162441,5,8,2:1:0:0:
326,61,162570,1,8,2:1:0:0:
277,73,162699,1,8,2:1:0:0:
252,117,162828,5,8,2:1:0:0:
204,129,162957,1,8,2:1:0:0:
156,112,163086,1,8,2:1:0:0:
136,64,163215,6,0,B|186:36|186:36|271:104|147:216,1,220,6|2,3:0|2:3,0:0:0:0:
56,352,163796,6,0,P|35:313|59:273,1,65.9999979858399,2|0,2:3|2:0,0:0:0:0:
198,267,163989,2,0,P|219:306|195:346,1,65.9999979858399,8|0,2:3|2:0,0:0:0:0:
47,354,164183,1,4,3:0:0:0:
97,172,164376,1,2,2:3:0:0:
332,252,164570,1,2,2:3:0:0:
332,252,164667,1,2,2:3:0:0:
332,252,164763,6,0,P|337:193|355:128,2,110,2|0|2,2:3|3:0|2:3,0:0:0:0:
69,84,165344,6,0,B|59:120|59:120|106:169,1,65.9999979858399,2|0,2:3|2:0,0:0:0:0:
216,26,165537,2,0,B|189:0|189:0|123:15,1,65.9999979858399,8|0,2:3|2:0,0:0:0:0:
194,177,165731,2,0,B|230:167|230:167|249:101,1,65.9999979858399,2|0,2:3|2:0,0:0:0:0:
160,94,165925,1,2,2:3:0:0:
55,300,166118,1,0,3:0:0:0:
55,300,166215,1,0,0:0:0:0:
55,300,166312,6,0,P|96:347|152:328,2,110,6|0|2,3:0|0:0|2:3,0:0:0:0:
220,277,166892,1,4,3:0:0:0:
160,94,167086,6,0,L|149:164,1,55,8|2,2:3|2:3,0:0:0:0:
133,159,167279,2,0,L|141:104,1,55,2|2,2:3|2:3,0:0:0:0:
57,1,167473,2,0,P|7:35|44:99,1,110,0|2,3:0|2:3,0:0:0:0:
223,38,167860,5,2,2:3:0:0:
133,159,168054,2,0,P|201:174|297:225,1,165,4|2,3:0|2:3,0:0:0:0:
353,296,168441,6,0,P|383:274|376:227,1,65.9999979858399,2|0,2:3|2:0,0:0:0:0:
326,81,168634,2,0,P|328:113|338:152,1,65.9999979858399,8|0,2:3|2:0,0:0:0:0:
189,281,168828,2,0,P|196:248|199:215,1,65.9999979858399,4|0,3:0|2:0,0:0:0:0:
96,70,169021,1,2,2:3:0:0:
434,63,169215,1,2,3:0:0:0:
434,63,169312,1,0,0:0:0:0:
434,63,169408,6,0,P|380:69|317:83,1,110,6|2,3:0|2:3,0:0:0:0:
145,204,169796,6,0,P|169:206|198:215,1,55,2|0,2:3|2:0,0:0:0:0:
214,201,169989,2,0,P|187:192|160:189,1,55,2|0,2:3|2:0,0:0:0:0:
319,249,170183,1,8,2:3:0:0:
319,249,170376,6,0,L|325:210,1,35.749998363495,4|0,3:0|0:0,0:0:0:0:
401,272,170763,6,0,B|288:256|346:326|207:326,1,165,2|0,2:3|2:0,0:0:0:0:
151,264,171150,2,0,P|170:207|233:211,1,110,4|2,3:0|2:3,0:0:0:0:
512,40,171537,6,0,P|481:82|447:81,1,65.9999979858399,2|2,2:3|2:3,0:0:0:0:
280,10,171731,2,0,P|331:15|347:45,1,65.9999979858399,8|0,2:3|2:0,0:0:0:0:
371,225,171925,2,0,P|349:177|367:148,1,65.9999979858399,2|2,2:3|2:3,0:0:0:0:
384,90,172118,1,2,2:3:0:0:
156,268,172312,1,2,3:0:0:0:
156,268,172408,1,0,0:0:0:0:
156,268,172505,6,0,P|219:275|354:318,1,165,6|2,3:0|2:3,0:0:0:0:
408,259,172892,2,0,P|382:227|346:229,1,55,2|0,2:3|2:0,0:0:0:0:
238,237,173086,1,0,3:0:0:0:
391,347,173279,1,8,2:3:0:0:
269,101,173473,6,0,L|254:173,1,55,2|2,2:3|2:3,0:0:0:0:
238,237,173667,1,6,3:0:0:0:
3,117,173860,6,0,P|37:47|135:53,1,165,2|2,2:3|2:3,0:0:0:0:
179,105,174247,6,0,L|171:150,1,27.5,8|0,2:1|2:0,0:0:0:0:
264,73,174441,6,0,L|272:118,1,27.5,8|0,2:1|2:0,0:0:0:0:
362,111,174634,6,0,L|354:156,1,27.5,8|0,2:1|2:0,0:0:0:0:
447,79,174828,6,0,L|455:124,1,27.5,8|0,2:3|0:0,0:0:0:0:
191,284,175408,6,0,P|180:261|164:249,2,43.9999986572266,8|0|0,2:1|0:0|0:0,0:0:0:0:
276,309,175602,6,0,P|192:306|82:352,1,197.99999395752,6|0,3:0|0:0,0:0:0:0:
21,304,175989,6,0,P|43:267|67:269,1,55,2|0,2:3|2:0,0:0:0:0:
228,190,176183,2,0,L|167:175,1,55,2|0,2:3|2:0,0:0:0:0:
12,134,176376,1,8,2:3:0:0:
80,0,176570,2,0,P|94:49|106:145,1,110,4|2,3:0|2:3,0:0:0:0:
93,191,176860,1,0,0:0:0:0:
93,191,176957,1,2,2:3:0:0:
214,78,177150,5,2,2:3:0:0:
315,273,177344,2,0,P|374:295|454:234,1,165,0|0,3:0|2:0,0:0:0:0:
443,160,177731,1,2,2:3:0:0:
237,234,177925,2,0,B|215:288|215:288|266:350,1,110,8|2,2:3|2:3,0:0:0:0:
348,152,178312,6,0,P|331:134|292:125,1,55,2|0,2:3|2:0,0:0:0:0:
103,219,178505,2,0,P|129:210|148:191,1,55,0|0,3:0|0:0,0:0:0:0:
161,0,178699,6,0,P|194:60|220:162,1,165,6|2,3:0|2:3,0:0:0:0:
237,234,179086,1,2,2:3:0:0:
443,160,179279,5,4,3:0:0:0:
443,160,179376,1,0,2:0:0:0:
443,160,179473,2,0,P|429:221|420:287,1,110,8|2,2:3|2:3,0:0:0:0:
257,341,179860,2,0,P|248:286|236:233,1,110,0|2,3:0|2:3,0:0:0:0:
85,123,180247,5,2,2:3:0:0:
312,82,180441,2,0,B|209:79|263:154|131:151,1,165,4|0,3:0|0:0,0:0:0:0:
85,123,180828,6,0,P|91:85|111:69,1,65.9999979858399,2|0,2:3|2:0,0:0:0:0:
252,148,181021,2,0,P|259:179|264:216,1,65.9999979858399,8|0,2:3|2:0,0:0:0:0:
113,319,181215,2,0,P|117:286|124:254,1,65.9999979858399,4|0,3:0|2:0,0:0:0:0:
257,143,181408,1,10,2:3:0:0:
17,5,181602,1,2,3:0:0:0:
17,5,181699,1,2,3:0:0:0:
17,5,181796,6,0,P|78:5|100:67,1,110,6|2,3:0|2:3,0:0:0:0:
85,123,182086,1,2,2:3:0:0:
85,123,182183,2,0,P|73:154|76:191,1,55,2|0,2:3|2:0,0:0:0:0:
185,265,182376,2,0,P|173:234|176:197,1,55,2|0,2:3|2:0,0:0:0:0:
199,62,182570,1,8,2:3:0:0:
199,62,182763,6,0,L|242:70,1,35.749998363495,4|0,3:0|0:0,0:0:0:0:
509,202,183150,6,0,B|410:190|457:281|317:266,1,165,2|0,2:3|2:0,0:0:0:0:
241,189,183537,2,0,P|267:139|345:151,1,110,4|2,3:0|2:3,0:0:0:0:
412,132,183828,1,2,2:3:0:0:
412,132,183925,6,0,P|406:98|402:63,1,65.9999979858399,2|2,2:3|2:3,0:0:0:0:
270,16,184118,2,0,P|266:48|260:81,1,65.9999979858399,8|0,2:3|2:0,0:0:0:0:
139,152,184312,2,0,P|133:118|129:83,1,65.9999979858399,2|2,2:3|2:3,0:0:0:0:
16,12,184505,1,2,2:3:0:0:
171,256,184699,1,2,3:0:0:0:
171,256,184796,1,0,0:0:0:0:
171,256,184892,6,0,P|141:299|48:288,1,110,6|2,3:0|2:3,0:0:0:0:
26,251,185183,1,2,2:3:0:0:
26,251,185279,2,0,P|38:218|71:210,1,55,2|0,2:3|2:0,0:0:0:0:
188,155,185473,2,0,P|153:161|129:136,1,55,0|0,3:0|2:0,0:0:0:0:
16,12,185666,6,0,P|69:15|143:39,1,110,8|2,2:3|2:3,0:0:0:0:
200,70,185957,1,2,2:3:0:0:
200,70,186054,1,6,3:0:0:0:
321,0,186247,6,0,P|302:68|294:149,1,110,2|0,2:3|0:0,0:0:0:0:
379,292,186634,2,0,P|360:342|240:332,1,165,6|0,3:0|0:0,0:0:0:0:
204,270,187021,1,2,2:3:0:0:
204,270,187118,1,2,2:3:0:0:
204,270,187215,6,0,P|161:274|124:286,1,55,8|0,2:3|2:0,0:0:0:0:
100,190,187408,2,0,P|72:190|46:185,1,55,4|0,3:0|2:0,0:0:0:0:
0,329,187602,1,2,2:3:0:0:
174,139,187796,2,0,P|187:154|190:176,3,36.6666666666667,8|0|0|12,2:1|2:0|2:0|3:2,0:0:0:0:
85,63,188376,5,2,2:3:0:0:
85,63,188505,1,2,2:3:0:0:
412,137,188763,5,10,2:3:0:0:
375,225,188957,2,0,P|369:159|345:65,1,153.999995300293,4|0,3:0|2:0,0:0:0:0:
312,288,189537,5,10,2:3:0:0:
312,288,189666,1,2,2:3:0:0:
446,343,189925,1,10,2:3:0:0:
446,343,190054,1,2,2:3:0:0:
217,361,190312,6,0,P|248:286|320:294,1,153.999995300293,6|0,2:3|2:0,0:0:0:0:
