osu file format v14

[General]
AudioFilename: audio.mp3
AudioLeadIn: 0
PreviewTime: 62863
Countdown: 0
SampleSet: Soft
StackLeniency: 0.3
Mode: 0
LetterboxInBreaks: 0
WidescreenStoryboard: 1

[Editor]
Bookmarks: 461,19041,37622,50009,62396,77880,90267,102654,115041,127428,146009,163041,175428,189988
DistanceSpacing: 1
BeatDivisor: 12
GridSize: 8
TimelineZoom: 2.4

[Metadata]
Title:GIANTS (feat. Becky G, Keke Palmer, SOYEON, DUCKWRTH, Thutmose)
TitleUnicode:GIANTS (feat. Becky G, Keke Palmer, 소연, DUCKWRTH, Thutmose)
Artist:True Damage
ArtistUnicode:True Damage
Creator:-Mikan
Version:Panda & Mikan's Silver
Source:League of Legends
Tags:rap pop adioni DeviousPanda skin ekko yasuo senna qiyana akali worlds 2019 finals riot games (G)I-DLE english korean video game kpop hip-hop hip hop
BeatmapID:2373742
BeatmapSetID:1136624

[Difficulty]
HPDrainRate:3.2
CircleSize:2.8
OverallDifficulty:5.4
ApproachRate:6.2
SliderMultiplier:1.4
SliderTickRate:1

[Events]
//Background and Video events
Video,241,"video.mp4"
0,0,"qiyana.jpg",0,0
//Break Periods
2,62095,64746
2,90740,98810
//Storyboard Layer 0 (Background)
//Storyboard Layer 1 (Fail)
//Storyboard Layer 2 (Pass)
//Storyboard Layer 3 (Foreground)
//Storyboard Layer 4 (Overlay)
//Storyboard Sound Samples

[TimingPoints]
734,387.096774193548,4,2,1,40,1,0
3830,-100,4,2,1,5,0,0
4217,-100,4,2,1,15,0,0
4604,-100,4,2,1,25,0,0
4992,-100,4,2,1,35,0,0
5379,-100,4,2,1,45,0,0
5766,-133.333333333333,4,2,1,45,0,0
6927,-133.333333333333,4,2,1,45,0,0
7701,-133.333333333333,4,2,2,45,0,0
10798,-133.333333333333,4,2,2,45,0,0
11185,-133.333333333333,4,2,2,45,0,0
11765,-133.333333333333,4,2,1,45,0,0
11959,-133.333333333333,4,2,1,45,0,0
12346,-133.333333333333,4,2,2,45,0,0
13121,-133.333333333333,4,2,2,45,0,0
13895,-133.333333333333,4,2,2,45,0,0
16217,-133.333333333333,4,2,2,45,0,0
16992,-133.333333333333,4,2,3,45,0,0
17379,-133.333333333333,4,2,2,45,0,0
18733,-133.333333333333,4,2,1,45,0,0
19314,-133.333333333333,4,2,1,45,0,0
20088,-133.333333333333,4,2,2,45,0,0
22024,-133.333333333333,4,2,2,45,0,0
22217,-133.333333333333,4,2,2,45,0,0
23572,-133.333333333333,4,2,2,45,0,0
23959,-133.333333333333,4,2,2,45,0,0
24733,-133.333333333333,4,2,2,55,0,0
24927,-133.333333333333,4,2,1,55,0,0
25121,-133.333333333333,4,2,2,55,0,0
25508,-133.333333333333,4,2,3,60,0,1
26088,-133.333333333333,4,2,3,60,0,1
26282,-133.333333333333,4,2,2,60,0,1
30927,-133.333333333333,4,2,2,50,0,0
31701,-133.333333333333,4,2,4,50,0,0
32475,-133.333333333333,4,2,4,50,0,0
33443,-133.333333333333,4,2,2,50,0,0
36540,-133.333333333333,4,2,2,50,0,0
36733,-133.333333333333,4,2,2,50,0,0
37895,-133.333333333333,4,2,2,35,0,0
47185,-133.333333333333,4,2,1,35,0,0
48879,-133.333333333333,4,2,1,35,0,0
48926,-133.333333333333,4,2,1,30,0,0
49121,-133.333333333333,4,2,2,30,0,0
50088,-133.333333333333,4,2,1,55,0,0
50282,-133.333333333333,4,2,3,65,0,1
50669,-133.333333333333,4,2,3,65,0,1
51056,-133.333333333333,4,2,2,65,0,1
53379,-133.333333333333,4,2,3,65,0,1
53766,-133.333333333333,4,2,3,65,0,1
53959,-133.333333333333,4,2,2,65,0,1
56475,-133.333333333333,4,2,3,65,0,1
57055,-133.333333333333,4,2,3,65,0,1
57250,-133.333333333333,4,2,2,65,0,1
59572,-133.333333333333,4,2,3,65,0,1
60152,-133.333333333333,4,2,3,65,0,1
60346,-133.333333333333,4,2,2,65,0,1
60733,-133.333333333333,4,2,2,65,0,1
60927,-133.333333333333,4,2,2,65,0,1
61314,-133.333333333333,4,2,2,65,0,1
61508,-133.333333333333,4,2,2,65,0,1
61895,-133.333333333333,4,2,3,65,0,0
63056,-133.333333333333,4,2,3,45,0,0
64992,-133.333333333333,4,2,4,45,0,0
65766,-133.333333333333,4,2,1,45,0,0
66540,-133.333333333333,4,2,2,45,0,0
67185,-133.333333333333,4,2,2,45,0,0
67314,-133.333333333333,4,2,2,45,0,0
68669,-133.333333333333,4,2,1,45,0,0
69637,-133.333333333333,4,2,2,45,0,0
70024,-133.333333333333,4,2,2,45,0,0
70411,-133.333333333333,4,2,2,45,0,0
71572,-133.333333333333,4,2,4,45,0,0
71959,-133.333333333333,4,2,1,45,0,0
72346,-133.333333333333,4,2,4,45,0,0
72540,-133.333333333333,4,2,4,45,0,0
73701,-133.333333333333,4,2,2,45,0,0
75056,-133.333333333333,4,2,1,45,0,0
75830,-133.333333333333,4,2,2,45,0,0
76217,-133.333333333333,4,2,1,45,0,0
77379,-133.333333333333,4,2,2,45,0,0
77766,-133.333333333333,4,2,1,45,0,0
78153,-133.333333333333,4,2,1,45,0,0
78927,-133.333333333333,4,2,2,45,0,0
79314,-133.333333333333,4,2,2,45,0,0
79894,-133.333333333333,4,2,2,45,0,0
80088,-133.333333333333,4,2,2,45,0,0
82024,-133.333333333333,4,2,2,45,0,0
82798,-133.333333333333,4,2,2,45,0,0
82992,-133.333333333333,4,2,2,45,0,0
83379,-133.333333333333,4,2,4,45,0,0
83572,-133.333333333333,4,2,3,45,0,0
83765,-133.333333333333,4,2,1,45,0,0
84152,-133.333333333333,4,2,1,45,0,0
85121,-133.333333333333,4,2,2,45,0,0
86088,-133.333333333333,4,2,2,45,0,0
86863,-133.333333333333,4,2,2,45,0,0
88217,-133.333333333333,4,2,2,45,0,0
88604,-133.333333333333,4,2,2,45,0,0
88992,-133.333333333333,4,2,4,45,0,0
89185,-133.333333333333,4,2,2,45,0,0
89379,-133.333333333333,4,2,3,45,0,0
89669,-133.333333333333,4,2,1,45,0,0
89766,-133.333333333333,4,2,1,45,0,0
90540,-133.333333333333,4,2,2,35,0,0
99830,-133.333333333333,4,2,1,35,0,0
101766,-133.333333333333,4,2,2,35,0,0
102540,-133.333333333333,4,2,1,55,0,0
102927,-133.333333333333,4,2,3,65,0,1
103314,-133.333333333333,4,2,3,65,0,1
103701,-133.333333333333,4,2,2,65,0,1
106024,-133.333333333333,4,2,3,65,0,1
106411,-133.333333333333,4,2,3,65,0,1
106604,-133.333333333333,4,2,2,65,0,1
109120,-133.333333333333,4,2,3,65,0,1
109700,-133.333333333333,4,2,3,65,0,1
109895,-133.333333333333,4,2,2,65,0,1
112217,-133.333333333333,4,2,3,65,0,1
112797,-133.333333333333,4,2,3,65,0,1
112991,-133.333333333333,4,2,2,65,0,1
113379,-133.333333333333,4,2,2,65,0,1
113572,-133.333333333333,4,2,2,65,0,1
113959,-133.333333333333,4,2,2,65,0,1
114153,-133.333333333333,4,2,2,65,0,1
114540,-133.333333333333,4,2,3,65,0,0
114733,-133.333333333333,4,2,1,65,0,0
115314,-133.333333333333,4,2,3,65,0,1
115701,-133.333333333333,4,2,3,65,0,1
116088,-133.333333333333,4,2,2,65,0,1
118411,-133.333333333333,4,2,3,65,0,1
118798,-133.333333333333,4,2,3,65,0,1
118991,-133.333333333333,4,2,2,65,0,1
121508,-133.333333333333,4,2,3,65,0,1
122088,-133.333333333333,4,2,3,65,0,1
122282,-133.333333333333,4,2,2,65,0,1
124604,-133.333333333333,4,2,3,65,0,1
125184,-133.333333333333,4,2,3,65,0,1
125378,-133.333333333333,4,2,2,65,0,1
125766,-133.333333333333,4,2,2,65,0,1
126153,-133.333333333333,4,2,2,65,0,1
126346,-133.333333333333,4,2,2,65,0,1
126733,-133.333333333333,4,2,2,65,0,1
127701,-133.333333333333,4,2,1,45,0,0
128475,-133.333333333333,4,2,2,45,0,0
128862,-133.333333333333,4,2,2,45,0,0
130024,-133.333333333333,4,2,4,45,0,0
130810,428.571428571429,4,2,1,30,1,0
131238,-133.333333333333,4,2,1,30,0,0
132524,-133.333333333333,4,2,1,50,0,0
135095,-133.333333333333,4,2,2,50,0,0
136810,-133.333333333333,4,2,1,50,0,0
138524,-133.333333333333,4,2,4,50,0,0
139381,-133.333333333333,4,2,1,50,0,0
141952,-133.333333333333,4,2,2,50,0,0
142810,-133.333333333333,4,2,2,50,0,0
143667,-133.333333333333,4,2,1,50,0,0
146238,-133.333333333333,4,2,2,50,0,0
147524,387.096774193548,4,2,2,50,1,0
147952,428.571428571429,4,2,2,50,1,0
147952,-133.333333333333,4,2,2,50,0,0
148810,-133.333333333333,4,2,1,50,0,0
153738,-133.333333333333,4,2,1,50,0,0
153952,-133.333333333333,4,2,2,50,0,0
154167,-133.333333333333,4,2,2,50,0,0
154810,-133.333333333333,4,2,2,50,0,0
155667,-133.333333333333,4,2,1,50,0,0
158237,-133.333333333333,4,2,1,60,0,1
158810,-133.333333333333,4,2,2,60,0,1
159381,-133.333333333333,4,2,1,60,0,1
159952,-133.333333333333,4,2,2,60,0,1
160595,-133.333333333333,4,2,1,60,0,1
160810,-133.333333333333,4,2,2,60,0,1
161024,-133.333333333333,4,2,1,60,0,1
161237,-133.333333333333,4,2,1,45,0,0
161381,-133.333333333333,4,2,1,45,0,0
161667,387.096774193548,4,2,1,45,1,0
162441,-133.333333333333,4,2,1,55,0,0
163215,-133.333333333333,4,2,3,75,0,1
163602,-133.333333333333,4,2,3,75,0,1
163989,-133.333333333333,4,2,2,75,0,1
166312,-133.333333333333,4,2,3,75,0,1
166892,-133.333333333333,4,2,2,75,0,1
169408,-133.333333333333,4,2,3,75,0,1
169988,-133.333333333333,4,2,3,75,0,1
170183,-133.333333333333,4,2,2,75,0,1
172505,-133.333333333333,4,2,3,75,0,1
173085,-133.333333333333,4,2,3,75,0,1
173279,-133.333333333333,4,2,2,75,0,1
173667,-133.333333333333,4,2,2,75,0,1
173860,-133.333333333333,4,2,2,75,0,1
174247,-133.333333333333,4,2,1,75,0,1
174828,-133.333333333333,4,2,2,45,0,0
175408,-133.333333333333,4,2,1,45,0,0
175602,-133.333333333333,4,2,3,75,0,1
175989,-133.333333333333,4,2,3,75,0,1
176376,-133.333333333333,4,2,2,75,0,1
178699,-133.333333333333,4,2,3,75,0,1
179086,-133.333333333333,4,2,3,75,0,1
179279,-133.333333333333,4,2,2,75,0,1
181408,-133.333333333333,4,2,1,75,0,1
181796,-133.333333333333,4,2,3,75,0,1
182183,-133.333333333333,4,2,3,75,0,1
182570,-133.333333333333,4,2,2,75,0,1
184892,-133.333333333333,4,2,3,75,0,1
185279,-133.333333333333,4,2,3,75,0,1
185666,-133.333333333333,4,2,2,75,0,1
186634,-133.333333333333,4,2,2,75,0,1
187021,-133.333333333333,4,2,2,75,0,1
187796,-133.333333333333,4,2,1,75,0,1
187989,-133.333333333333,4,2,1,45,0,0
188376,-133.333333333333,4,2,1,45,0,0
188763,-133.333333333333,4,2,2,45,0,0
188957,-133.333333333333,4,2,2,45,0,0
189537,-133.333333333333,4,2,1,45,0,0
190312,-133.333333333333,4,2,4,45,0,0

[Colours]
Combo1 : 255,90,11
Combo2 : 168,0,168
Combo3 : 0,0,213
Combo4 : 0,174,225
Combo5 : 213,0,106

[HitObjects]
256,192,734,12,8,4992,0:1:0:0:
257,45,5766,6,0,L|328:49,2,52.5000020027161,10|2|2,0:3|0:3|0:3,0:0:0:0:
211,71,6346,1,2,0:3:0:0:
211,71,6540,1,2,0:3:0:0:
153,158,6927,6,0,P|191:184|234:245,1,105.000004005432,4|2,3:2|0:3,0:0:0:0:
232,282,7508,1,0,3:0:0:0:
232,282,7701,2,0,P|214:312|212:335,1,52.5000020027161,8|0,0:3|0:0,0:0:0:0:
233,376,8088,6,0,L|398:354,1,157.500006008148,2|0,3:3|3:0,0:0:0:0:
485,313,9056,1,2,0:3:0:0:
485,313,9250,2,0,P|493:275|475:196,1,105.000004005432,8|2,0:3|3:3,0:0:0:0:
277,46,10604,5,0,3:0:0:0:
277,46,10798,2,0,L|290:165,1,105.000004005432,12|2,0:2|3:3,0:0:0:0:
295,202,11379,1,2,0:3:0:0:
295,202,11572,2,0,P|276:235|271:265,2,52.5000020027161,2|8|10,0:3|3:1|0:3,0:0:0:0:
346,191,12153,1,8,0:1:0:0:
395,206,12346,1,12,0:3:0:0:
272,376,13121,6,0,P|228:358|157:344,1,105.000004005432,4|2,3:2|0:3,0:0:0:0:
122,363,13701,1,0,3:0:0:0:
122,363,13895,2,0,P|138:318|136:245,1,105.000004005432,8|2,0:3|3:3,0:0:0:0:
53,128,14863,5,0,3:0:0:0:
53,128,15056,2,0,L|178:110,1,105.000004005432,2|8,0:3|0:3,0:0:0:0:
204,134,15637,1,2,0:3:0:0:
204,134,15830,2,0,P|200:171|204:193,2,52.5000020027161,2|2|4,3:3|0:3|3:2,0:0:0:0:
264,48,16604,5,2,0:3:0:0:
264,48,16798,1,0,3:0:0:0:
312,69,16992,2,0,P|344:57|368:31,1,52.5000020027161,8|2,0:3|0:3,0:0:0:0:
387,2,17379,6,0,L|371:177,1,157.500006008148,6|4,0:3|0:3,0:0:0:0:
361,316,18540,1,12,0:3:0:0:
361,316,18733,1,8,0:1:0:0:
209,359,19314,6,0,B|144:357|174:321|93:324,1,105.000004005432,4|2,3:2|0:3,0:0:0:0:
63,342,19895,1,0,3:0:0:0:
63,342,20088,1,8,0:3:0:0:
17,247,20475,1,2,3:3:0:0:
17,247,20669,2,0,L|32:121,1,105.000004005432,2|4,0:3|3:3,0:0:0:0:
13,92,21250,1,2,0:3:0:0:
103,38,21637,6,0,B|130:27|130:27|170:37,1,52.5000020027161,8|2,0:3|0:3,0:0:0:0:
184,74,22024,2,0,B|211:85|211:85|251:75,1,52.5000020027161,6|2,3:3|0:3,0:0:0:0:
275,46,22411,2,0,P|370:32|388:95,1,157.500006008148,4|0,3:3|3:0,0:0:0:0:
379,125,23185,1,8,0:3:0:0:
287,176,23572,2,0,P|210:161|167:160,1,105.000004005432,6|2,3:3|0:3,0:0:0:0:
142,127,24153,1,4,0:3:0:0:
142,127,24346,2,0,P|90:150|90:209,1,105.000004005432,2|8,0:3|0:3,0:0:0:0:
40,289,25121,5,8,0:3:0:0:
131,340,25508,2,0,L|245:331,1,105.000004005432,6|2,0:3|0:3,0:0:0:0:
280,304,26088,1,0,3:0:0:0:
280,304,26282,2,0,L|404:328,1,105.000004005432,8|2,0:3|3:3,0:0:0:0:
481,286,27056,6,0,P|504:228|487:185,1,105.000004005432,2|2,0:3|0:3,0:0:0:0:
440,174,27637,1,2,0:3:0:0:
440,174,27830,2,0,P|417:116|434:73,1,105.000004005432,8|4,0:3|3:3,0:0:0:0:
473,48,28411,1,2,0:3:0:0:
473,48,28604,1,4,3:3:0:0:
378,1,28992,2,0,L|311:13,1,52.5000020027161,2|0,0:3|3:0,0:0:0:0:
277,29,29379,2,0,P|216:16|170:36,1,105.000004005432,8|4,0:3|3:3,0:0:0:0:
130,53,29959,1,2,0:3:0:0:
130,53,30153,2,0,P|151:115|156:170,1,105.000004005432,2|2,0:3|0:3,0:0:0:0:
67,211,30927,6,0,P|37:282|140:322,1,210.000008010865,8|6,0:3|3:3,0:0:0:0:
222,260,32088,6,0,P|251:262|274:277,1,52.5000020027161,2|0,0:3|3:0,0:0:0:0:
298,318,32475,2,0,P|337:349|399:340,1,105.000004005432,8|0,0:3|3:0,0:0:0:0:
433,315,33056,1,2,0:3:0:0:
433,315,33250,2,0,L|421:253,1,52.5000020027161,2|4,0:3|3:3,0:0:0:0:
457,224,33637,2,0,L|469:162,1,52.5000020027161,2|2,0:3|0:3,0:0:0:0:
447,123,34024,1,8,0:3:0:0:
483,24,34411,6,0,L|417:15,1,52.5000020027161,2|2,0:3|0:3,0:0:0:0:
382,36,34798,2,0,B|343:38|343:38|318:24|318:24|261:27,1,105.000004005432,4|2,3:3|0:3,0:0:0:0:
240,59,35379,1,0,3:0:0:0:
240,59,35572,2,0,L|253:121,1,52.5000020027161,8|2,0:3|0:3,0:0:0:0:
233,160,35959,2,0,L|245:223,2,52.5000020027161,4|2|2,3:3|0:3|0:3,0:0:0:0:
181,151,36540,1,6,3:3:0:0:
181,151,36733,1,2,0:3:0:0:
75,156,37121,6,0,P|31:115|102:11,1,210.000008010865,8|4,0:3|3:2,0:0:0:0:
354,138,39443,6,0,P|324:205|291:357,2,210.000008010865,2|2|2,0:3|0:3|0:3,0:0:0:0:
476,38,41572,1,2,0:3:0:0:
476,38,41766,2,0,P|423:51|365:41,1,105.000004005432,2|2,0:3|0:3,0:0:0:0:
61,4,43314,6,0,P|85:48|115:169,1,157.500006008148,2|0,0:3|0:0,0:0:0:0:
95,200,44088,2,0,B|147:222|191:189|190:180|188:169|229:132|291:154,1,210.000008010865,4|2,3:2|0:3,0:0:0:0:
186,337,45637,2,0,P|155:323|124:289,2,78.7500030040742,0|0|0,3:0|0:0|0:0,0:0:0:0:
222,299,46411,2,0,P|209:265|205:220,2,78.7500030040742,2|0|0,0:3|0:0|0:0,0:0:0:0:
274,292,47185,5,8,0:1:0:0:
374,262,47572,1,8,0:1:0:0:
477,228,47959,1,8,0:1:0:0:
460,124,48346,6,0,P|448:85|448:58,1,52.5000020027161,8|8,0:1|0:1,0:0:0:0:
406,40,48733,2,0,P|396:64|392:90,2,52.5000020027161,8|8|8,0:1|0:1|0:3,0:0:0:0:
91,56,50282,6,0,P|121:131|128:175,1,105.000004005432,6|2,3:3|0:3,0:0:0:0:
100,200,50863,1,2,0:3:0:0:
100,200,51056,2,0,P|85:240|84:268,1,52.5000020027161,8|4,0:3|3:3,0:0:0:0:
94,300,51443,1,2,0:3:0:0:
185,351,51830,6,0,B|224:349|224:349|249:367|249:367|307:361,1,105.000004005432,2|2,0:3|0:3,0:0:0:0:
328,334,52411,1,2,0:3:0:0:
328,334,52604,2,0,L|387:341,2,52.5000020027161,8|2|2,0:3|0:3|0:3,0:0:0:0:
293,293,53185,1,0,3:0:0:0:
307,242,53379,1,6,3:3:0:0:
405,204,53766,5,2,0:3:0:0:
405,204,53959,2,0,P|400:160|392:132,1,52.5000020027161,4|8,3:3|0:3,0:0:0:0:
427,108,54346,1,2,0:3:0:0:
427,108,54540,2,0,P|451:45|492:0,2,105.000004005432,0|2|2,3:0|0:3|0:3,0:0:0:0:
322,106,55701,6,0,L|254:92,1,52.5000020027161,8|4,0:3|3:3,0:0:0:0:
231,60,56088,2,0,L|170:74,1,52.5000020027161,2|2,0:3|3:3,0:0:0:0:
133,47,56475,2,0,P|71:66|70:163,1,157.500006008148,6|2,3:3|0:3,0:0:0:0:
106,174,57250,1,8,0:3:0:0:
106,174,57443,1,4,3:3:0:0:
108,278,57830,2,0,B|168:279|146:312|215:308,1,105.000004005432,2|4,0:3|3:3,0:0:0:0:
297,257,58604,5,2,0:3:0:0:
297,257,58798,2,0,B|280:233|280:233|282:194,1,52.5000020027161,8|2,0:3|0:3,0:0:0:0:
317,171,59185,2,0,L|302:97,1,52.5000020027161,2|2,0:3|3:3,0:0:0:0:
332,73,59572,2,0,P|393:45|456:101,1,157.500006008148,6|0,3:3|3:0,0:0:0:0:
443,149,60346,1,8,0:3:0:0:
475,248,60733,5,6,3:3:0:0:
475,248,60927,2,0,B|421:248|430:295|365:296,1,105.000004005432,2|6,0:3|3:3,0:0:0:0:
334,275,61508,2,0,P|295:253|270:249,1,52.5000020027161,2|2,0:3|0:3,0:0:0:0:
235,255,61895,1,8,0:3:0:0:
74,33,65766,6,0,P|94:83|105:154,1,105.000004005432,4|2,3:2|0:3,0:0:0:0:
89,183,66346,1,0,3:0:0:0:
89,183,66540,1,8,0:3:0:0:
155,263,66927,6,0,P|189:279|260:277,1,105.000004005432,0|0,3:0|3:0,0:0:0:0:
295,244,67508,2,0,P|308:213|302:140,1,105.000004005432,4|0,3:3|0:0,0:0:0:0:
273,99,68088,1,8,0:3:0:0:
331,11,68475,1,4,3:3:0:0:
431,43,68863,6,0,P|418:90|413:166,1,105.000004005432,4|2,3:3|0:3,0:0:0:0:
442,188,69443,1,4,3:3:0:0:
442,188,69637,1,8,0:3:0:0:
390,279,70024,6,0,L|268:291,1,105.000004005432,6|2,3:3|0:3,0:0:0:0:
235,306,70604,2,0,L|188:213,1,105.000004005432,4|0,3:3|0:0,0:0:0:0:
193,160,71185,1,8,0:3:0:0:
193,160,71379,1,8,0:3:0:0:
109,96,71766,5,2,0:3:0:0:
109,96,71959,2,0,P|67:111|30:165,1,105.000004005432,4|6,3:3|0:3,0:0:0:0:
18,208,72540,1,0,3:0:0:0:
18,208,72733,2,0,P|24:237|20:270,2,52.5000020027161,8|2|0,0:3|0:3|3:0,0:0:0:0:
123,208,73508,6,0,P|113:249|115:329,1,105.000004005432,2|2,0:3|0:3,0:0:0:0:
154,343,74088,1,2,0:3:0:0:
154,343,74282,2,0,L|260:333,1,105.000004005432,8|4,0:3|3:3,0:0:0:0:
359,363,75056,6,0,P|408:344|443:292,1,105.000004005432,4|2,3:2|0:3,0:0:0:0:
423,253,75637,1,4,3:3:0:0:
423,253,75830,1,8,0:3:0:0:
325,213,76217,2,0,B|307:198|307:198|320:109,1,105.000004005432,4|0,3:2|0:0,0:0:0:0:
16,28,77766,5,8,0:1:0:0:
66,119,78153,2,0,P|117:104|176:99,1,105.000004005432,4|2,3:2|0:3,0:0:0:0:
215,122,78733,1,2,3:3:0:0:
215,122,78927,2,0,P|262:141|266:205,1,105.000004005432,10|0,0:3|3:0,0:0:0:0:
327,279,79701,2,0,L|390:286,1,52.5000020027161,2|6,0:3|3:3,0:0:0:0:
429,304,80088,2,0,L|485:270,1,52.5000020027161,2|2,0:3|0:3,0:0:0:0:
494,228,80475,1,8,0:3:0:0:
447,77,81056,5,2,3:3:0:0:
447,77,81250,2,0,B|377:56|402:102|330:84,1,105.000004005432,4|2,3:3|0:3,0:0:0:0:
299,64,81830,1,2,3:3:0:0:
299,64,82024,2,0,P|248:87|250:141,1,105.000004005432,10|6,0:3|3:3,0:0:0:0:
142,155,82798,1,2,0:3:0:0:
142,155,82992,2,0,B|162:198|162:198|131:262,1,105.000004005432,6|6,3:3|0:3,0:0:0:0:
163,294,83572,6,0,L|214:286,1,52.5000020027161,8|8,0:3|0:1,0:0:0:0:
259,313,83959,2,0,L|328:301,1,52.5000020027161,8|8,0:1|3:1,0:0:0:0:
359,323,84346,1,4,3:2:0:0:
451,273,84733,6,0,P|464:237|466:205,1,52.5000020027161,2|2,0:3|3:3,0:0:0:0:
448,173,85121,2,0,B|401:175|401:175|384:190|384:190|343:193,1,105.000004005432,8|2,0:3|3:3,0:0:0:0:
252,149,85895,2,0,P|234:122|230:84,1,52.5000020027161,2|6,0:3|3:3,0:0:0:0:
189,68,86282,2,0,P|214:21|230:8,1,52.5000020027161,2|2,0:3|0:3,0:0:0:0:
264,13,86669,1,10,0:3:0:0:
264,13,86863,2,0,B|356:3|313:63|424:47,1,157.500006008148,2|2,3:3|3:3,0:0:0:0:
476,130,87830,6,0,P|462:192|460:204,1,52.5000020027161,2|2,0:3|3:3,0:0:0:0:
476,232,88217,2,0,P|499:286|501:298,1,52.5000020027161,8|2,0:3|0:3,0:0:0:0:
479,328,88604,2,0,P|385:321|352:320,1,105.000004005432,6|6,3:3|0:3,0:0:0:0:
336,284,89185,1,4,3:2:0:0:
336,284,89379,5,8,0:3:0:0:
231,281,89766,5,8,0:1:0:0:
176,191,90153,1,8,0:1:0:0:
240,107,90540,5,4,3:2:0:0:
122,83,99830,6,0,P|158:69|185:67,1,52.5000020027161,8|0,0:1|0:0,0:0:0:0:
220,86,100217,2,0,P|257:102|276:121,1,52.5000020027161,8|0,0:1|0:0,0:0:0:0:
283,159,100604,2,0,P|293:184|296:220,1,52.5000020027161,8|0,0:1|0:0,0:0:0:0:
275,264,100992,1,8,0:1:0:0:
275,264,101185,1,8,0:1:0:0:
275,264,101379,2,0,P|246:298|170:305,1,105.000004005432,8|8,0:1|0:3,0:0:0:0:
455,307,102927,6,0,P|425:232|418:188,1,105.000004005432,6|2,3:3|0:3,0:0:0:0:
446,163,103508,1,2,0:3:0:0:
446,163,103701,2,0,P|461:123|462:95,1,52.5000020027161,8|4,0:3|3:3,0:0:0:0:
452,63,104088,1,2,0:3:0:0:
361,12,104475,6,0,B|322:14|322:14|297:-4|297:-4|239:2,1,105.000004005432,2|2,0:3|0:3,0:0:0:0:
218,29,105056,1,2,0:3:0:0:
218,29,105249,2,0,L|159:22,2,52.5000020027161,8|2|2,0:3|0:3|0:3,0:0:0:0:
253,70,105830,1,0,3:0:0:0:
239,121,106024,1,6,3:3:0:0:
141,159,106411,5,2,0:3:0:0:
141,159,106604,2,0,P|146:203|154:231,1,52.5000020027161,4|8,3:3|0:3,0:0:0:0:
119,255,106991,1,2,0:3:0:0:
119,255,107185,2,0,P|95:318|54:363,2,105.000004005432,0|2|2,3:0|0:3|0:3,0:0:0:0:
224,257,108346,6,0,L|292:271,1,52.5000020027161,8|4,0:3|3:3,0:0:0:0:
315,303,108733,2,0,L|376:289,1,52.5000020027161,2|2,0:3|3:3,0:0:0:0:
413,316,109120,2,0,P|475:297|476:200,1,157.500006008148,6|2,3:3|0:3,0:0:0:0:
440,189,109895,1,8,0:3:0:0:
440,189,110088,1,4,3:3:0:0:
438,85,110475,2,0,B|378:84|400:51|331:55,1,105.000004005432,2|4,0:3|3:3,0:0:0:0:
249,106,111249,5,2,0:3:0:0:
249,106,111443,2,0,B|266:130|266:130|264:169,1,52.5000020027161,8|2,0:3|0:3,0:0:0:0:
229,192,111830,2,0,L|244:266,1,52.5000020027161,2|2,0:3|3:3,0:0:0:0:
214,290,112217,2,0,P|153:318|90:262,1,157.500006008148,6|0,3:3|3:0,0:0:0:0:
103,214,112991,1,8,0:3:0:0:
36,132,113379,5,6,3:3:0:0:
36,132,113572,2,0,B|43:69|-4:88|3:17,1,105.000004005432,2|6,0:3|3:3,0:0:0:0:
43,3,114153,1,2,0:3:0:0:
130,61,114540,6,0,L|189:52,1,52.5000020027161,8|8,0:3|0:1,0:0:0:0:
230,72,114927,2,0,L|289:81,1,52.5000020027161,8|8,0:1|0:1,0:0:0:0:
328,52,115314,6,0,P|351:86|367:159,1,105.000004005432,6|2,3:3|0:3,0:0:0:0:
354,198,115895,1,2,0:3:0:0:
354,198,116088,1,8,0:3:0:0:
310,228,116282,2,0,L|137:214,1,157.500006008148,4|2,3:3|0:3,0:0:0:0:
153,215,117056,1,0,3:0:0:0:
95,302,117443,5,2,0:3:0:0:
95,302,117637,2,0,P|136:318|155:317,2,52.5000020027161,8|2|2,0:3|0:3|0:3,0:0:0:0:
69,256,118217,1,0,3:0:0:0:
67,203,118411,2,0,L|80:80,1,105.000004005432,6|2,3:3|0:3,0:0:0:0:
106,54,118992,1,4,3:3:0:0:
106,54,119185,1,8,0:3:0:0:
193,111,119572,1,0,3:0:0:0:
282,55,119959,1,2,0:3:0:0:
282,55,120153,2,0,P|350:24|388:19,1,105.000004005432,4|2,3:3|0:3,0:0:0:0:
415,57,120733,2,0,L|401:125,1,52.5000020027161,8|4,0:3|3:3,0:0:0:0:
423,157,121121,2,0,L|411:227,1,52.5000020027161,2|2,0:3|3:3,0:0:0:0:
451,246,121508,6,0,P|373:258|328:328,1,157.500006008148,6|2,3:3|0:3,0:0:0:0:
347,368,122282,1,8,0:3:0:0:
347,368,122475,1,4,3:3:0:0:
248,331,122863,2,0,B|188:326,1,52.5000020027161,2|2,0:3|0:3,0:0:0:0:
148,349,123250,1,4,3:3:0:0:
53,303,123637,5,2,0:3:0:0:
53,303,123830,2,0,L|66:237,1,52.5000020027161,8|2,0:3|0:3,0:0:0:0:
53,199,124217,2,0,L|66:133,1,52.5000020027161,2|2,0:3|3:3,0:0:0:0:
56,95,124604,6,0,P|97:38|190:37,1,157.500006008148,6|0,3:3|3:0,0:0:0:0:
213,71,125379,1,8,0:3:0:0:
232,174,125766,2,0,P|272:201|341:190,1,105.000004005432,6|2,3:3|0:3,0:0:0:0:
361,158,126346,1,6,3:3:0:0:
452,209,126733,1,2,0:3:0:0:
452,209,126927,2,0,L|464:271,2,52.5000020027161,8|4|2,0:3|3:3|0:3,0:0:0:0:
492,112,127701,1,12,3:2:0:0:
345,53,128282,5,0,3:0:0:0:
345,53,128475,2,0,P|277:49|241:43,1,105.000004005432,10|0,0:3|3:0,0:0:0:0:
138,16,129250,1,2,0:3:0:0:
138,16,129443,2,0,P|90:56|93:110,1,105.000004005432,4|0,3:3|0:0,0:0:0:0:
125,131,130024,1,14,0:3:0:0:
54,209,130411,1,0,0:0:0:0:
127,273,130810,5,8,0:1:0:0:
202,200,131238,2,0,P|232:250|224:309,1,105.000004005432,8|2,0:1|0:3,0:0:0:0:
436,331,132524,6,0,P|469:268|462:123,1,210.000008010865,4|8,3:3|0:1,0:0:0:0:
378,73,133810,1,2,0:3:0:0:
378,73,134024,1,2,0:3:0:0:
378,73,134238,1,2,0:3:0:0:
286,124,134667,2,0,B|225:111|237:157|160:128,1,105.000004005432,2|8,0:3|0:3,0:0:0:0:
49,296,135952,6,0,B|163:269|127:364|269:341,1,210.000008010865,4|8,3:3|0:1,0:0:0:0:
333,286,137238,1,2,0:3:0:0:
333,286,137452,1,0,3:0:0:0:
425,335,137881,6,0,L|449:283,1,52.5000020027161,2|2,0:3|0:3,0:0:0:0:
494,263,138310,2,0,L|485:201,1,52.5000020027161,2|6,0:3|3:3,0:0:0:0:
491,158,138738,2,0,L|450:115,1,52.5000020027161,2|2,0:3|0:3,0:0:0:0:
441,68,139167,1,2,0:3:0:0:
441,68,139381,6,0,B|360:74|360:74|344:99|344:99|229:106,1,210.000008010865,4|10,3:3|0:3,0:0:0:0:
147,65,140667,1,2,0:3:0:0:
147,65,140881,1,2,0:3:0:0:
147,65,141095,1,2,0:3:0:0:
64,130,141524,2,0,P|79:181|80:188,1,52.5000020027161,2|2,0:3|0:3,0:0:0:0:
68,231,141952,1,10,0:3:0:0:
249,336,142810,6,0,P|321:311|326:231,1,157.500006008148,4|0,3:3|0:0,0:0:0:0:
288,206,143667,2,0,P|250:191|242:119,1,105.000004005432,8|2,0:1|0:3,0:0:0:0:
267,91,144310,1,0,3:0:0:0:
360,43,144738,5,0,0:0:0:0:
360,43,144952,2,0,L|422:59,2,52.5000020027161,0|0|8,0:0|0:0|0:1,0:0:0:0:
150,32,146238,6,0,P|137:102|133:160,1,105.000004005432,4|4,0:2|0:2,0:0:0:0:
236,158,147095,2,0,P|234:101|242:34,1,105.000004005432,4|2,0:2|0:3,0:0:0:0:
330,1,147952,6,0,P|400:15|420:55,1,105.000004005432,4|0,3:3|0:0,0:0:0:0:
410,91,148595,1,2,0:3:0:0:
410,91,148810,2,0,P|390:139|365:314,1,210.000008010865,10|2,0:3|0:3,0:0:0:0:
385,341,149881,1,0,3:0:0:0:
282,363,150310,1,2,0:3:0:0:
282,363,150524,2,0,P|270:324|266:297,2,52.5000020027161,8|0|2,0:1|0:0|0:3,0:0:0:0:
177,377,151381,6,0,P|134:322|91:313,1,105.000004005432,4|0,3:3|0:0,0:0:0:0:
51,327,152024,1,0,0:0:0:0:
51,327,152238,2,0,P|58:276|58:254,1,52.5000020027161,8|0,0:1|0:0,0:0:0:0:
39,225,152667,2,0,P|37:152|185:54,1,262.500010013581,2|2,3:3|0:3,0:0:0:0:
225,76,153952,5,10,0:3:0:0:
225,76,154167,2,0,P|218:119|218:140,2,52.5000020027161,2|2|2,3:3|0:3|0:3,0:0:0:0:
275,59,154810,6,0,P|329:51|385:17,1,105.000004005432,4|2,3:3|0:3,0:0:0:0:
473,56,155667,2,0,P|468:96|468:172,1,105.000004005432,8|0,0:1|3:0,0:0:0:0:
496,204,156310,1,0,0:0:0:0:
496,204,156524,1,2,0:3:0:0:
405,332,157167,5,0,0:0:0:0:
405,332,157381,2,0,B|396:298|396:298|358:267,2,70.0000026702882,8|8|8,0:1|0:1|0:1,0:0:0:0:
355,381,158238,6,0,L|279:373,1,70.0000026702882,4|10,3:3|0:3,0:0:0:0:
231,328,158810,1,8,0:3:0:0:
231,328,158952,1,2,0:3:0:0:
231,328,159095,2,0,L|140:281,1,70.0000026702882,8|8,0:3|0:1,0:0:0:0:
158,262,159523,1,4,3:3:0:0:
101,175,159952,6,0,P|65:171|44:165,2,52.5000020027161,8|4|2,0:3|3:3|0:3,0:0:0:0:
129,130,160595,1,8,0:1:0:0:
155,84,160810,2,0,P|156:36|148:13,1,52.5000020027161,12|8,3:3|0:1,0:0:0:0:
108,8,161238,5,8,3:1:0:0:
108,8,161381,1,8,0:1:0:0:
108,8,161524,1,8,0:1:0:0:
355,20,162441,6,0,P|397:28|418:43,1,52.5000020027161,8|0,0:1|0:0,0:0:0:0:
457,37,162828,2,0,P|485:81|489:104,1,52.5000020027161,8|0,0:1|0:0,0:0:0:0:
489,133,163215,6,0,B|427:130|455:170|370:164,1,105.000004005432,6|2,3:3|0:3,0:0:0:0:
292,131,163989,2,0,L|228:142,1,52.5000020027161,8|4,0:3|3:3,0:0:0:0:
191,119,164376,2,0,P|133:143|132:191,1,105.000004005432,2|2,0:3|0:3,0:0:0:0:
148,227,164957,1,0,3:0:0:0:
69,296,165344,5,2,0:3:0:0:
69,296,165537,2,0,B|87:320|87:320|128:330,1,52.5000020027161,8|2,0:3|0:3,0:0:0:0:
149,359,165925,2,0,B|178:353|178:353|210:322,1,52.5000020027161,2|0,0:3|3:0,0:0:0:0:
219,290,166312,2,0,B|304:282|275:344|384:337,1,157.500006008148,6|4,3:3|3:3,0:0:0:0:
409,310,167086,1,8,0:3:0:0:
358,217,167473,1,0,3:0:0:0:
434,145,167860,2,0,L|442:79,1,52.5000020027161,2|4,0:3|3:3,0:0:0:0:
446,41,168247,1,2,0:3:0:0:
342,25,168634,6,0,L|272:31,1,52.5000020027161,8|4,0:3|3:3,0:0:0:0:
252,66,169021,2,0,L|194:59,1,52.5000020027161,2|2,0:3|3:3,0:0:0:0:
161,24,169408,2,0,P|105:35|102:136,1,157.500006008148,6|2,3:3|0:3,0:0:0:0:
133,153,170183,1,8,0:3:0:0:
133,153,170376,1,4,3:3:0:0:
229,195,170763,2,0,P|225:250|224:308,1,105.000004005432,2|4,0:3|3:3,0:0:0:0:
309,359,171537,5,2,0:3:0:0:
309,359,171731,2,0,P|361:346|374:338,1,52.5000020027161,8|2,0:3|0:3,0:0:0:0:
411,351,172118,2,0,P|446:317|453:298,1,52.5000020027161,2|2,0:3|3:3,0:0:0:0:
469,266,172505,2,0,P|463:200|460:91,1,157.500006008148,6|0,3:3|3:0,0:0:0:0:
476,58,173279,1,8,0:3:0:0:
373,36,173667,1,6,3:3:0:0:
373,36,173860,2,0,B|305:41|313:66|260:63,1,105.000004005432,2|8,0:3|0:1,0:0:0:0:
227,90,174441,2,0,L|241:155,1,52.5000020027161,8|8,0:1|0:1,0:0:0:0:
251,192,174828,5,8,0:3:0:0:
453,134,175602,6,0,P|421:89|366:103,1,105.000004005432,6|2,3:3|0:3,0:0:0:0:
337,129,176183,1,2,0:3:0:0:
337,129,176376,1,8,0:3:0:0:
360,176,176570,2,0,P|374:210|382:286,1,105.000004005432,4|2,3:3|0:3,0:0:0:0:
317,359,177344,5,0,3:0:0:0:
317,359,177537,2,0,P|280:361|249:349,1,52.5000020027161,2|2,0:3|0:3,0:0:0:0:
227,319,177925,2,0,L|247:200,1,105.000004005432,8|2,0:3|0:3,0:0:0:0:
256,164,178505,1,0,3:0:0:0:
256,164,178699,1,6,3:3:0:0:
197,76,179086,1,2,0:3:0:0:
197,76,179279,1,4,3:3:0:0:
197,76,179473,1,8,0:3:0:0:
111,136,179860,2,0,L|127:259,1,105.000004005432,0|2,3:0|0:3,0:0:0:0:
109,290,180441,1,4,3:3:0:0:
195,349,180828,5,2,0:3:0:0:
246,357,181021,2,0,L|312:344,1,52.5000020027161,8|4,0:3|3:3,0:0:0:0:
341,317,181408,2,0,L|417:304,1,52.5000020027161,10|2,0:3|3:3,0:0:0:0:
442,324,181796,6,0,P|477:290|462:220,1,105.000004005432,6|2,3:3|0:3,0:0:0:0:
431,207,182376,1,2,0:3:0:0:
431,207,182570,1,8,0:3:0:0:
395,168,182763,2,0,P|392:133|406:104,1,52.5000020027161,4|2,3:3|0:3,0:0:0:0:
429,75,183150,1,2,0:3:0:0:
340,18,183537,6,0,P|285:11|227:22,1,105.000004005432,4|2,3:3|0:3,0:0:0:0:
208,63,184118,1,8,0:3:0:0:
208,63,184312,1,2,0:3:0:0:
183,109,184505,2,0,L|190:170,1,52.5000020027161,2|2,0:3|3:3,0:0:0:0:
151,198,184892,6,0,P|209:229|236:278,1,105.000004005432,6|2,3:3|0:3,0:0:0:0:
226,313,185473,1,0,3:0:0:0:
226,313,185666,1,8,0:3:0:0:
194,354,185860,2,0,P|150:366|76:359,1,105.000004005432,2|2,0:3|0:3,0:0:0:0:
31,276,186634,6,0,P|30:201|38:164,1,105.000004005432,6|2,3:3|0:3,0:0:0:0:
71,132,187215,1,8,0:3:0:0:
71,132,187408,2,0,P|103:141|131:161,1,52.5000020027161,4|2,3:0|0:3,0:0:0:0:
156,197,187796,1,8,0:1:0:0:
156,197,187989,1,12,3:2:0:0:
234,131,188376,6,0,L|241:93,1,35.0000013351441,2|2,0:3|0:3,0:0:0:0:
210,33,188763,1,10,0:3:0:0:
210,33,188957,1,4,3:3:0:0:
362,73,189537,6,0,L|371:118,1,35.0000013351441,10|2,0:3|0:3,0:0:0:0:
410,163,189925,2,0,L|403:213,1,35.0000013351441,10|2,0:3|0:3,0:0:0:0:
421,265,190312,1,6,0:3:0:0:
