osu file format v14

[General]
AudioFilename: audio.mp3
AudioLeadIn: 0
PreviewTime: 62863
Countdown: 0
SampleSet: Soft
StackLeniency: 0.3
Mode: 0
LetterboxInBreaks: 0
WidescreenStoryboard: 1

[Editor]
Bookmarks: 461,19041,37622,50009,62396,78153,90540,102927,115314,127701,147952,163215,175602,189988
DistanceSpacing: 1.3
BeatDivisor: 12
GridSize: 8
TimelineZoom: 2.4

[Metadata]
Title:GIANTS (feat. Becky G, Keke Palmer, SOYEON, DUCKWRTH, Thutmose)
TitleUnicode:GIANTS (feat. Becky G, Keke Palmer, 소연, DUCKWRTH, Thutmose)
Artist:True Damage
ArtistUnicode:True Damage
Creator:-Mikan
Version:Panda & Mikan's Gold
Source:League of Legends
Tags:rap pop adioni DeviousPanda skin ekko yasuo senna qiyana akali worlds 2019 finals riot games (G)I-DLE english korean video game kpop hip-hop hip hop
BeatmapID:2373740
BeatmapSetID:1136624

[Difficulty]
HPDrainRate:4
CircleSize:3.4
OverallDifficulty:7
ApproachRate:8.2
SliderMultiplier:1.6
SliderTickRate:1

[Events]
//Background and Video events
Video,241,"video.mp4"
0,0,"senna.jpg",0,0
//Break Periods
2,127901,130078
//Storyboard Layer 0 (Background)
//Storyboard Layer 1 (Fail)
//Storyboard Layer 2 (Pass)
//Storyboard Layer 3 (Foreground)
//Storyboard Layer 4 (Overlay)
//Storyboard Sound Samples

[TimingPoints]
734,387.096774193548,4,2,1,40,1,0
3830,-100,4,2,1,5,0,0
4217,-100,4,2,1,15,0,0
4604,-100,4,2,1,25,0,0
4992,-100,4,2,1,35,0,0
5379,-100,4,2,1,45,0,0
5766,-133.333333333333,4,2,1,45,0,0
6927,-133.333333333333,4,2,1,45,0,0
7121,-111.111111111111,4,2,1,45,0,0
7701,-111.111111111111,4,2,2,45,0,0
10798,-111.111111111111,4,2,2,45,0,0
11185,-111.111111111111,4,2,2,45,0,0
11766,-111.111111111111,4,2,1,45,0,0
11830,-111.111111111111,4,2,1,45,0,0
12346,-111.111111111111,4,2,2,45,0,0
13121,-100,4,2,2,45,0,0
13895,-100,4,2,2,45,0,0
16217,-100,4,2,2,45,0,0
16992,-100,4,2,3,45,0,0
17379,-100,4,2,2,45,0,0
18733,-100,4,2,1,45,0,0
19314,-100,4,2,1,45,0,0
20088,-100,4,2,2,45,0,0
22024,-100,4,2,2,45,0,0
22217,-100,4,2,2,45,0,0
23572,-100,4,2,2,45,0,0
23766,-100,4,2,2,45,0,0
24733,-100,4,2,2,55,0,0
24927,-100,4,2,1,55,0,0
25121,-100,4,2,2,55,0,0
25508,-100,4,2,3,60,0,0
26088,-100,4,2,3,60,0,0
26282,-100,4,2,2,60,0,0
30927,-100,4,2,2,50,0,0
31701,-100,4,2,4,50,0,0
32475,-100,4,2,4,50,0,0
33443,-100,4,2,2,50,0,0
36540,-100,4,2,2,50,0,0
36733,-100,4,2,2,50,0,0
37895,-100,4,2,2,35,0,0
38669,-250,4,2,2,35,0,0
44088,-166.666666666667,4,2,2,35,0,0
47185,-166.666666666667,4,2,1,35,0,0
48879,-166.666666666667,4,2,1,30,0,0
48927,-166.666666666667,4,2,1,30,0,0
49121,-166.666666666667,4,2,2,30,0,0
50088,-166.666666666667,4,2,1,55,0,0
50282,-100,4,2,3,65,0,1
50669,-100,4,2,3,65,0,1
51056,-100,4,2,2,65,0,1
53379,-100,4,2,3,65,0,1
53766,-100,4,2,3,65,0,1
53959,-100,4,2,2,65,0,1
56475,-100,4,2,3,65,0,1
56862,-100,4,2,3,65,0,1
57250,-100,4,2,2,65,0,1
59572,-100,4,2,3,65,0,1
59959,-100,4,2,3,65,0,1
60346,-100,4,2,2,65,0,1
60733,-100,4,2,2,65,0,1
60927,-100,4,2,2,65,0,1
61314,-100,4,2,2,65,0,1
61508,-100,4,2,2,65,0,1
61895,-100,4,2,3,65,0,0
63056,-100,4,2,3,45,0,0
63185,-117.647058823529,4,2,3,45,0,0
64992,-117.647058823529,4,2,4,45,0,0
65766,-117.647058823529,4,2,1,45,0,0
66540,-117.647058823529,4,2,2,45,0,0
67185,-117.647058823529,4,2,2,45,0,0
67314,-117.647058823529,4,2,2,45,0,0
67701,-100,4,2,2,45,0,0
68669,-100,4,2,1,45,0,0
69443,-117.647058823529,4,2,1,45,0,0
69637,-117.647058823529,4,2,2,45,0,0
70024,-117.647058823529,4,2,2,45,0,0
70153,-117.647058823529,4,2,2,45,0,0
71572,-117.647058823529,4,2,4,45,0,0
71959,-117.647058823529,4,2,1,45,0,0
72346,-117.647058823529,4,2,4,45,0,0
72540,-117.647058823529,4,2,4,45,0,0
73701,-117.647058823529,4,2,2,45,0,0
75056,-117.647058823529,4,2,1,45,0,0
75830,-117.647058823529,4,2,2,45,0,0
76217,-117.647058823529,4,2,1,45,0,0
77379,-117.647058823529,4,2,2,45,0,0
77766,-117.647058823529,4,2,1,45,0,0
78153,-117.647058823529,4,2,1,45,0,0
78927,-117.647058823529,4,2,2,45,0,0
79314,-117.647058823529,4,2,2,45,0,0
79894,-117.647058823529,4,2,2,45,0,0
80088,-117.647058823529,4,2,2,45,0,0
81927,-117.647058823529,4,2,2,45,0,0
82798,-117.647058823529,4,2,2,45,0,0
82992,-117.647058823529,4,2,2,45,0,0
83379,-117.647058823529,4,2,4,45,0,0
83572,-117.647058823529,4,2,3,45,0,0
83765,-117.647058823529,4,2,1,45,0,0
84153,-117.647058823529,4,2,1,45,0,0
85121,-117.647058823529,4,2,2,45,0,0
86088,-117.647058823529,4,2,2,45,0,0
86862,-117.647058823529,4,2,2,45,0,0
88217,-117.647058823529,4,2,2,45,0,0
88604,-117.647058823529,4,2,2,45,0,0
88992,-117.647058823529,4,2,4,45,0,0
89185,-117.647058823529,4,2,2,45,0,0
89379,-117.647058823529,4,2,3,45,0,0
89669,-117.647058823529,4,2,1,45,0,0
90540,-117.647058823529,4,2,2,35,0,0
91314,-250,4,2,2,35,0,0
96733,-166.666666666667,4,2,2,35,0,0
99830,-166.666666666667,4,2,1,35,0,0
101766,-166.666666666667,4,2,2,35,0,0
102540,-166.666666666667,4,2,1,55,0,0
102927,-100,4,2,3,65,0,1
103314,-100,4,2,3,65,0,1
103701,-100,4,2,2,65,0,1
106024,-100,4,2,3,65,0,1
106411,-100,4,2,3,65,0,1
106604,-100,4,2,2,65,0,1
109121,-100,4,2,3,65,0,1
109508,-100,4,2,3,65,0,1
109895,-100,4,2,2,65,0,1
112217,-100,4,2,3,65,0,1
112604,-100,4,2,3,65,0,1
112991,-100,4,2,2,65,0,1
113379,-100,4,2,2,65,0,1
113766,-100,4,2,2,65,0,1
113959,-100,4,2,2,65,0,1
114153,-100,4,2,2,65,0,1
114540,-100,4,2,3,45,0,0
114733,-100,4,2,1,45,0,0
115314,-100,4,2,3,65,0,1
115701,-100,4,2,3,65,0,1
116088,-100,4,2,2,65,0,1
118411,-100,4,2,3,65,0,1
118798,-100,4,2,3,65,0,1
118991,-100,4,2,2,65,0,1
121508,-100,4,2,3,65,0,1
121895,-100,4,2,3,65,0,1
122282,-100,4,2,2,65,0,1
124604,-100,4,2,3,65,0,1
124991,-100,4,2,3,65,0,1
125378,-100,4,2,2,65,0,1
125766,-100,4,2,2,65,0,1
126153,-100,4,2,2,65,0,1
126346,-100,4,2,2,65,0,1
126733,-100,4,2,2,65,0,1
127701,-100,4,2,1,45,0,0
128475,-100,4,2,2,45,0,0
130024,-100,4,2,4,45,0,0
130810,428.571428571429,4,2,1,30,1,0
131238,-100,4,2,1,30,0,0
132524,-117.647058823529,4,2,1,50,0,0
135095,-117.647058823529,4,2,2,50,0,0
136810,-117.647058823529,4,2,1,50,0,0
138524,-117.647058823529,4,2,4,50,0,0
139381,-117.647058823529,4,2,1,50,0,0
141952,-117.647058823529,4,2,2,50,0,0
142810,-117.647058823529,4,2,2,50,0,0
143667,-117.647058823529,4,2,1,50,0,0
146238,-117.647058823529,4,2,2,50,0,0
147524,387.096774193548,4,2,2,50,1,0
147524,-79.9999999999998,4,2,2,50,0,0
147952,428.571428571429,4,2,2,50,1,0
147952,-105.263157894737,4,2,2,50,0,0
148810,-105.263157894737,4,2,1,50,0,0
153095,-105.263157894737,4,2,1,50,0,0
153952,-105.263157894737,4,2,2,50,0,0
154166,-105.263157894737,4,2,2,50,0,0
154810,-105.263157894737,4,2,2,50,0,0
155667,-105.263157894737,4,2,1,50,0,0
158237,-86.9565217391304,4,2,1,60,0,1
158810,-86.9565217391304,4,2,2,60,0,1
159381,-86.9565217391304,4,2,1,60,0,1
159952,-86.9565217391304,4,2,2,60,0,1
160595,-86.9565217391304,4,2,1,60,0,1
160810,-86.9565217391304,4,2,2,60,0,1
161024,-86.9565217391304,4,2,1,60,0,1
161237,-86.9565217391304,4,2,1,45,0,0
161381,-86.9565217391304,4,2,1,45,0,0
161667,387.096774193548,4,2,1,45,1,0
162441,-100,4,2,1,55,0,0
163215,-100,4,2,3,75,0,1
163602,-100,4,2,3,75,0,1
163989,-100,4,2,2,75,0,1
166312,-100,4,2,3,75,0,1
166699,-100,4,2,3,75,0,1
166892,-100,4,2,2,75,0,1
169408,-100,4,2,3,75,0,1
169795,-100,4,2,3,75,0,1
170183,-100,4,2,2,75,0,1
172505,-100,4,2,3,75,0,1
172892,-100,4,2,3,75,0,1
173279,-100,4,2,2,75,0,1
173667,-100,4,2,2,75,0,1
174054,-100,4,2,2,75,0,1
174247,-100,4,2,1,75,0,1
174828,-100,4,2,2,45,0,0
175408,-117.647058823529,4,2,1,45,0,0
175602,-100,4,2,3,75,0,1
175989,-100,4,2,3,75,0,1
176376,-100,4,2,2,75,0,1
178699,-100,4,2,3,75,0,1
179086,-100,4,2,3,75,0,1
179279,-100,4,2,2,75,0,1
181408,-100,4,2,1,75,0,1
181796,-100,4,2,3,75,0,1
182183,-100,4,2,3,75,0,1
182570,-100,4,2,2,75,0,1
184892,-100,4,2,3,75,0,1
185279,-100,4,2,3,75,0,1
185666,-100,4,2,2,75,0,1
186054,-100,4,2,2,75,0,1
186441,-100,4,2,2,75,0,1
186634,-100,4,2,2,75,0,1
187021,-100,4,2,2,75,0,1
187796,-100,4,2,1,75,0,1
187989,-100,4,2,1,45,0,0
188376,-117.647058823529,4,2,1,45,0,0
188763,-117.647058823529,4,2,2,45,0,0
188957,-117.647058823529,4,2,2,45,0,0
189537,-117.647058823529,4,2,1,45,0,0
190312,-117.647058823529,4,2,4,45,0,0

[Colours]
Combo1 : 255,90,11
Combo2 : 168,0,168
Combo3 : 0,0,213
Combo4 : 0,174,225
Combo5 : 213,0,106

[HitObjects]
256,192,734,12,8,5379,0:1:0:0:
416,201,5766,6,0,P|401:199|386:200,1,30.0000011444092,10|0,0:3|0:0,0:0:0:0:
375,209,5959,1,2,0:3:0:0:
337,276,6153,2,0,P|361:308|375:350,2,60.0000022888184,2|2|2,0:3|0:3|0:3,0:0:0:0:
146,211,6927,5,4,3:2:0:0:
177,283,7121,2,0,P|183:211|202:141,1,143.999995605469,2|0,0:3|3:0,0:0:0:0:
210,137,7604,1,0,0:0:0:0:
219,134,7701,2,0,P|262:155|289:186,2,71.9999978027344,8|0|2,0:3|0:0|3:3,0:0:0:0:
61,87,8282,2,0,P|132:82|193:44,1,143.999995605469,2|0,0:3|3:0,0:0:0:0:
270,0,8863,2,0,P|269:36|279:71,1,71.9999978027344,2|2,0:3|0:3,0:0:0:0:
447,147,9250,5,8,0:3:0:0:
447,147,9443,2,0,L|475:143,10,17.9999994506836,4|0|0|0|2|0|0|0|0|0|0,0:3|0:0|0:0|0:0|3:3|0:0|0:0|0:0|0:0|0:0|0:0,0:0:0:0:
367,184,10604,5,0,3:0:0:0:
373,194,10798,2,0,L|329:190,1,35.9999989013672,12|0,0:2|0:0,0:0:0:0:
378,203,10992,2,0,L|334:199,1,35.9999989013672,2|0,0:3|0:0,0:0:0:0:
441,263,11185,6,0,L|485:259,1,35.9999989013672,2|0,3:3|0:0,0:0:0:0:
436,272,11379,2,0,L|480:268,1,35.9999989013672,2|0,0:3|0:0,0:0:0:0:
431,281,11572,2,0,L|475:277,1,35.9999989013672,2|0,0:3|0:0,0:0:0:0:
350,348,11766,6,0,L|356:304,3,23.9999992675781,8|8|8|10,3:1|0:1|0:1|0:3,0:0:0:0:
349,316,12153,1,8,0:1:0:0:
512,364,12346,5,12,0:3:0:0:
512,82,13121,6,0,P|456:89|463:190,1,160,4|2,3:2|0:3,0:0:0:0:
455,182,13604,1,0,0:0:0:0:
465,182,13701,1,0,3:0:0:0:
436,63,13895,1,8,0:3:0:0:
436,63,14088,1,2,0:3:0:0:
329,134,14282,6,0,P|349:186|355:244,1,80,2|2,3:3|0:3,0:0:0:0:
340,233,14669,1,2,0:3:0:0:
401,348,14863,6,0,P|410:282|494:279,1,160,0|2,3:0|0:3,0:0:0:0:
490,284,15346,1,2,0:3:0:0:
490,293,15443,1,8,0:3:0:0:
439,216,15637,2,0,P|443:185|457:153,2,40,2|2|2,0:3|0:3|3:3,0:0:0:0:
480,384,16024,5,2,0:3:0:0:
480,384,16217,2,0,P|426:371|314:381,1,160,4|2,3:2|0:3,0:0:0:0:
220,314,16798,2,0,P|250:326|283:328,1,40,0|2,3:0|0:3,0:0:0:0:
271,323,16992,1,8,0:3:0:0:
308,255,17185,1,2,0:3:0:0:
220,188,17379,6,0,L|208:69,1,120,6|0,0:3|0:0,0:0:0:0:
208,69,17766,1,2,0:3:0:0:
133,207,17959,6,0,L|119:75,1,120,4|0,0:3|0:0,0:0:0:0:
121,88,18346,1,2,0:3:0:0:
40,51,18540,5,12,0:3:0:0:
40,51,18733,1,8,0:1:0:0:
1,134,18927,1,2,0:3:0:0:
1,134,19120,1,2,0:3:0:0:
84,206,19314,6,0,B|173:204|141:270|231:274,1,160,4|2,3:2|0:3,0:0:0:0:
307,230,19895,1,0,3:0:0:0:
383,292,20088,2,0,P|374:328|374:345,1,40,8|0,0:3|0:0,0:0:0:0:
395,302,20282,2,0,P|389:328|387:352,1,40,2|0,0:3|0:0,0:0:0:0:
474,281,20475,1,2,3:3:0:0:
474,281,20669,6,0,B|459:181|459:181|490:171|505:141,1,160,2|4,0:3|3:3,0:0:0:0:
426,101,21250,2,0,L|321:95,1,80,2|2,0:3|0:3,0:0:0:0:
268,17,21637,5,8,0:3:0:0:
221,93,21830,1,2,0:3:0:0:
133,113,22024,1,6,3:3:0:0:
43,77,22217,6,0,P|109:123|83:218,1,160,2|0,0:3|0:0,0:0:0:0:
87,207,22701,2,0,L|61:203,6,20,0|0|2|0|0|0|0,0:0|0:0|0:3|0:0|0:0|0:0|3:0,0:0:0:0:
155,283,23185,6,0,L|261:268,1,80,8|2,0:3|0:3,0:0:0:0:
316,317,23572,1,6,3:3:0:0:
352,228,23766,1,2,0:3:0:0:
440,281,23959,1,2,0:3:0:0:
440,281,24056,1,2,0:3:0:0:
440,281,24153,1,4,0:3:0:0:
497,213,24346,6,0,P|479:148|469:33,1,160,2|8,0:3|0:3,0:0:0:0:
379,17,24927,2,0,P|374:40|374:60,3,26.6666666666667,8|8|8|8,0:1|0:1|0:1|0:3,0:0:0:0:
289,77,25314,1,0,3:0:0:0:
210,26,25508,6,0,L|143:34,1,40,6|2,0:3|0:3,0:0:0:0:
143,54,25701,2,0,L|84:61,1,40,2|2,0:3|0:3,0:0:0:0:
60,41,25895,1,2,0:3:0:0:
60,41,25992,1,2,0:3:0:0:
60,41,26088,1,0,3:0:0:0:
9,131,26282,6,0,P|29:197|33:234,1,80,8|2,0:3|0:3,0:0:0:0:
45,221,26572,1,0,0:0:0:0:
54,237,26669,2,0,P|34:303|30:340,1,80,2|2,3:3|0:3,0:0:0:0:
129,366,27056,2,0,B|163:361|163:361|181:368|181:368|220:363,1,80,2|4,0:3|3:3,0:0:0:0:
222,346,27346,1,2,0:3:0:0:
247,337,27443,2,0,B|281:342|281:342|299:335|299:335|338:340,1,80,2|2,0:3|0:3,0:0:0:0:
426,374,27830,5,8,0:3:0:0:
496,300,28024,1,2,0:3:0:0:
496,300,28121,1,2,0:3:0:0:
496,300,28217,2,0,L|478:233,1,40,4|2,3:3|0:3,0:0:0:0:
447,233,28411,2,0,L|465:166,1,40,2|2,0:3|0:3,0:0:0:0:
439,147,28604,6,0,B|343:127|373:196|275:173,1,160,4|2,3:3|0:3,0:0:0:0:
208,106,29185,2,0,L|196:52,2,40,0|2|8,3:0|0:3|0:3,0:0:0:0:
137,169,29572,2,0,L|125:223,2,40,2|2|4,0:3|0:3|3:3,0:0:0:0:
34,127,29959,5,2,0:3:0:0:
29,113,30056,1,2,0:3:0:0:
23,100,30153,2,0,L|123:84,1,80,2|4,0:3|3:3,0:0:0:0:
179,31,30540,2,0,L|279:47,1,80,2|2,0:3|0:3,0:0:0:0:
319,145,30927,6,0,B|418:128|352:81|419:35|497:55|496:117|466:141,1,240,8|0,0:3|3:0,0:0:0:0:
472,135,31701,1,6,3:3:0:0:
426,214,31895,6,0,P|451:260|444:295,1,80,2|2,0:3|0:3,0:0:0:0:
380,350,32282,1,0,3:0:0:0:
295,310,32475,2,0,B|264:315|232:300|232:300|200:329|200:329|178:320|130:323,1,160,8|0,0:3|3:0,0:0:0:0:
60,334,33056,5,2,0:3:0:0:
60,334,33153,1,2,0:3:0:0:
60,334,33250,2,0,P|54:282|41:231,1,80,2|4,0:3|3:3,0:0:0:0:
131,203,33637,2,0,P|137:151|150:100,1,80,2|2,0:3|0:3,0:0:0:0:
55,78,34024,2,0,P|96:19|194:41,1,160,8|2,0:3|0:3,0:0:0:0:
259,81,34604,6,0,L|298:72,1,40,2|0,0:3|0:0,0:0:0:0:
326,89,34798,1,4,3:3:0:0:
406,50,34992,2,0,L|410:-7,2,40,2|2|2,0:3|0:3|0:3,0:0:0:0:
479,110,35379,2,0,L|486:157,1,40,0|2,3:0|0:3,0:0:0:0:
466,182,35572,6,0,P|401:174|359:171,1,80,8|2,0:3|0:3,0:0:0:0:
362,186,35863,1,2,0:3:0:0:
350,206,35959,2,0,P|357:233|362:256,4,40,4|0|2|2|2,3:3|0:0|0:3|0:3|0:3,0:0:0:0:
266,165,36540,1,6,3:3:0:0:
174,207,36733,2,0,P|213:203|253:197,1,80,2|2,0:3|0:3,0:0:0:0:
172,295,37121,6,0,P|109:268|103:164,2,160,8|2|4,0:3|0:3|3:2,0:0:0:0:
327,114,38669,6,0,P|306:167|290:247,1,128,2|2,0:3|0:3,0:0:0:0:
300,250,39733,2,0,P|328:244|359:244,1,48,2|2,0:3|0:3,0:0:0:0:
389,337,40217,2,0,P|396:312|412:284,2,48,2|2|2,0:3|0:3|0:3,0:0:0:0:
512,384,40992,6,0,P|490:326|487:287,1,96,2|2,0:3|0:3,0:0:0:0:
492,275,41766,1,2,0:3:0:0:
478,140,42153,6,0,P|398:153|315:153,1,160,2|0,0:3|0:0,0:0:0:0:
303,141,43314,1,2,0:3:0:0:
166,15,44088,6,0,P|179:49|189:121,1,95.9999970703126,4|0,3:2|0:0,0:0:0:0:
152,178,44669,1,0,0:0:0:0:
141,190,44863,2,0,P|89:179|47:174,1,95.9999970703126,2|0,0:3|0:0,0:0:0:0:
25,300,45443,5,0,0:0:0:0:
36,312,45637,2,0,P|76:298|111:291,2,71.9999978027344,0|2|2,3:0|0:3|0:3,0:0:0:0:
157,364,46411,5,2,0:3:0:0:
196,292,46701,1,2,0:3:0:0:
279,271,46992,1,2,0:3:0:0:
378,314,47185,5,8,0:1:0:0:
378,314,47572,1,8,0:1:0:0:
378,314,47959,1,8,0:1:0:0:
431,88,48346,5,8,0:1:0:0:
324,114,48540,1,8,0:1:0:0:
350,221,48733,1,8,0:1:0:0:
456,194,48927,2,0,L|436:198,4,11.9999996337891,8|8|8|8|8,0:1|0:1|0:1|0:1|0:3,0:0:0:0:
456,194,50282,6,0,B|419:169|371:184|371:184|350:235|299:232,1,160,6|2,3:3|0:3,0:0:0:0:
243,174,50863,1,2,0:3:0:0:
174,242,51056,2,0,B|200:274|200:274|197:350,1,80,8|4,0:3|3:3,0:0:0:0:
105,342,51443,2,0,B|79:310|79:310|82:234,1,80,2|2,0:3|0:3,0:0:0:0:
103,186,51830,5,2,0:3:0:0:
25,135,52024,1,0,3:0:0:0:
108,92,52217,1,2,0:3:0:0:
30,42,52411,5,2,0:3:0:0:
108,92,52604,2,0,L|202:79,2,80,8|2|2,0:3|0:3|0:3,0:0:0:0:
103,186,53185,5,0,3:0:0:0:
122,196,53282,1,0,3:0:0:0:
139,204,53379,2,0,B|128:271|128:271|145:298|145:298|135:360,1,160,6|2,3:3|0:3,0:0:0:0:
232,316,53959,1,4,3:3:0:0:
315,362,54153,2,0,L|407:368,1,80,8|2,0:3|0:3,0:0:0:0:
404,280,54540,2,0,L|312:274,1,80,0|2,3:0|0:3,0:0:0:0:
258,205,54927,6,0,B|234:118|313:142|282:42,1,160,2|2,0:3|0:3,0:0:0:0:
366,5,55508,1,2,0:3:0:0:
428,78,55701,1,8,0:3:0:0:
502,19,55895,1,4,3:3:0:0:
428,78,56088,2,0,P|441:124|449:178,1,80,2|2,0:3|3:3,0:0:0:0:
512,268,56475,6,0,P|442:245|379:319,1,160,6|2,3:3|0:3,0:0:0:0:
292,248,57056,1,2,0:3:0:0:
292,248,57250,1,8,0:3:0:0:
234,326,57443,2,0,L|141:313,1,80,4|2,3:3|0:3,0:0:0:0:
57,344,57830,2,0,B|110:311|110:311|88:216,1,160,2|4,0:3|3:3,0:0:0:0:
14,147,58411,5,2,0:3:0:0:
14,147,58604,1,2,0:3:0:0:
77,81,58798,2,0,B|114:68|114:68|175:93,1,80,8|2,0:3|0:3,0:0:0:0:
218,28,59185,2,0,B|255:41|255:41|316:16,1,80,2|2,0:3|3:3,0:0:0:0:
369,67,59572,6,0,P|460:98|461:182,1,160,6|2,3:3|0:3,0:0:0:0:
414,219,60153,1,0,3:0:0:0:
414,219,60346,1,8,0:3:0:0:
327,186,60540,2,0,P|278:176|230:174,1,80,2|6,0:3|3:3,0:0:0:0:
190,253,60927,2,0,B|96:247|135:317|7:292,1,160,2|6,0:3|3:3,0:0:0:0:
0,217,61508,6,0,L|8:157,3,40,2|2|2|2,0:3|0:3|0:3|0:3,0:0:0:0:
30,155,61895,1,8,0:3:0:0:
323,27,63056,5,2,0:3:0:0:
336,33,63185,2,0,P|341:68|333:106,1,68.0000012969971,2|0,0:3|0:0,0:0:0:0:
390,159,63443,2,0,B|349:129|288:161|294:172|303:182|257:219|201:199,1,204.000003890991,2|0,0:3|0:0,0:0:0:0:
152,133,64217,5,2,0:3:0:0:
152,133,64346,1,2,0:3:0:0:
82,239,64604,5,2,0:3:0:0:
82,239,64733,1,2,0:3:0:0:
213,344,64992,6,0,P|205:302|214:205,1,136.000002593994,6|0,0:3|0:0,0:0:0:0:
479,255,65766,6,0,P|439:246|405:245,1,68.0000012969971,4|0,3:2|0:0,0:0:0:0:
354,295,66153,1,2,0:3:0:0:
390,361,66346,1,0,3:0:0:0:
433,151,66540,6,0,P|360:171|315:173,1,102.000001945496,8|0,0:3|0:0,0:0:0:0:
323,165,66927,2,0,B|316:138|316:138|327:100,2,45.3333341979981,0|0|2,3:0|0:0|0:3,0:0:0:0:
270,224,67314,6,0,B|263:251|263:251|274:289,2,45.3333341979981,0|0|0,3:0|0:0|0:0,0:0:0:0:
226,142,67701,6,0,L|235:79,2,53.3333333333333,2|2|2,0:3|0:3|0:3,0:0:0:0:
173,222,68088,6,0,L|181:282,2,53.3333333333333,8|2|2,0:3|0:3|0:3,0:0:0:0:
111,112,68475,5,4,3:3:0:0:
32,146,68669,2,0,L|2:143,2,26.6666666666667,8|8|8,0:1|0:1|0:1,0:0:0:0:
38,152,68863,1,4,3:3:0:0:
40,346,69250,5,2,0:3:0:0:
40,346,69346,1,2,0:3:0:0:
40,346,69443,2,0,P|50:324|51:298,1,34.0000006484985,4|0,3:3|0:0,0:0:0:0:
150,359,69637,2,0,P|131:307|137:243,1,102.000001945496,8|0,0:3|0:0,0:0:0:0:
141,252,70024,6,0,B|165:258|165:258|190:279,2,45.3333341979981,6|2|2,3:3|0:3|0:3,0:0:0:0:
64,298,70411,1,2,0:3:0:0:
264,280,70604,5,4,3:3:0:0:
301,207,70798,2,0,B|298:182|298:182|283:161,2,45.3333341979981,2|2|2,0:3|0:3|0:3,0:0:0:0:
177,354,71185,6,0,L|226:345,1,34.0000006484985,8|2,0:3|0:3,0:0:0:0:
185,362,71379,2,0,L|234:353,1,34.0000006484985,8|2,0:3|0:3,0:0:0:0:
304,352,71572,5,6,0:3:0:0:
385,384,71766,1,2,0:3:0:0:
457,331,71959,6,0,P|446:280|446:200,1,102.000001945496,4|0,3:3|0:0,0:0:0:0:
447,234,72346,1,6,0:3:0:0:
505,171,72540,1,0,3:0:0:0:
375,100,72733,6,0,P|403:123|429:163,2,68.0000012969971,8|2|0,0:3|0:3|3:0,0:0:0:0:
295,116,73314,1,2,0:3:0:0:
167,178,73508,5,2,0:3:0:0:
250,191,73701,2,0,P|265:251|268:278,2,68.0000012969971,4|2|2,3:3|0:3|0:3,0:0:0:0:
95,84,74282,6,0,L|140:77,1,34.0000006484985,8|0,0:3|0:0,0:0:0:0:
128,78,74475,1,2,0:3:0:0:
61,161,74669,6,0,L|32:156,4,22.666667098999,4|0|0|2|2,3:3|0:0|0:0|3:3|3:3,0:0:0:0:
120,221,75056,5,4,3:2:0:0:
102,300,75250,1,2,0:3:0:0:
183,280,75443,5,2,0:3:0:0:
187,326,75637,1,4,3:3:0:0:
263,288,75830,5,8,0:3:0:0:
269,304,76024,1,2,0:3:0:0:
306,221,76217,5,4,3:2:0:0:
230,60,77379,6,0,P|229:95|223:153,1,68.0000012969971,4|2,0:2|0:3,0:0:0:0:
323,67,77766,2,0,P|318:107|319:144,1,68.0000012969971,8|8,0:1|0:1,0:0:0:0:
324,144,78056,1,0,0:0:0:0:
334,151,78153,6,0,P|390:143|423:146,1,68.0000012969971,4|2,3:2|0:3,0:0:0:0:
364,251,78540,2,0,P|308:259|275:256,1,68.0000012969971,2|2,0:3|3:3,0:0:0:0:
238,207,78927,1,10,0:3:0:0:
238,207,79024,1,2,0:3:0:0:
238,207,79121,1,2,0:3:0:0:
182,269,79314,2,0,P|206:315|209:349,1,68.0000012969971,0|2,3:0|0:3,0:0:0:0:
56,307,79701,6,0,P|65:276|75:255,2,34.0000006484985,2|0|6,0:3|0:0|3:3,0:0:0:0:
88,384,80088,1,2,0:3:0:0:
88,384,80185,1,0,0:0:0:0:
94,190,80475,5,8,0:3:0:0:
64,110,80669,1,2,0:3:0:0:
39,30,80863,1,2,0:3:0:0:
158,47,81056,5,2,3:3:0:0:
158,47,81153,1,2,0:3:0:0:
158,47,81250,2,0,L|241:38,1,68.0000012969971,4|2,3:3|0:3,0:0:0:0:
300,145,81637,2,0,L|205:139,1,68.0000012969971,2|2,0:3|3:3,0:0:0:0:
232,140,81927,1,2,0:3:0:0:
232,140,82024,1,10,0:3:0:0:
181,201,82217,1,2,0:3:0:0:
203,283,82411,6,0,P|266:286|337:230,1,136.000002593994,6|2,3:3|0:3,0:0:0:0:
404,233,82992,2,0,P|404:307|362:369,1,136.000002593994,6|6,3:3|0:3,0:0:0:0:
297,384,83572,2,0,P|245:375|203:378,2,68.0000012969971,8|8|8,0:3|0:1|0:1,0:0:0:0:
504,354,84153,5,8,3:1:0:0:
508,339,84250,1,0,3:0:0:0:
512,323,84346,2,0,L|489:162,1,136.000002593994,4|2,3:2|0:3,0:0:0:0:
440,111,84927,1,2,3:3:0:0:
478,40,85121,2,0,P|477:77|452:131,1,68.0000012969971,8|2,0:3|0:3,0:0:0:0:
371,166,85508,6,0,P|320:146|226:149,1,136.000002593994,2|2,3:3|0:3,0:0:0:0:
167,110,86088,2,0,P|214:55|292:20,1,136.000002593994,6|2,3:3|0:3,0:0:0:0:
340,62,86669,2,0,P|344:106|327:153,1,68.0000012969971,10|2,0:3|3:3,0:0:0:0:
277,182,87056,2,0,P|265:230|264:275,1,68.0000012969971,2|2,0:3|0:3,0:0:0:0:
386,384,87443,5,2,3:3:0:0:
469,358,87637,1,2,0:3:0:0:
476,267,87830,1,2,0:3:0:0:
393,293,88024,1,2,3:3:0:0:
404,202,88217,2,0,P|398:144|389:107,1,68.0000012969971,8|2,0:3|0:3,0:0:0:0:
286,90,88604,6,0,P|280:129|248:239,1,136.000002593994,6|6,3:3|0:3,0:0:0:0:
196,275,89185,1,4,3:2:0:0:
196,275,89282,1,0,0:0:0:0:
196,275,89379,1,8,0:3:0:0:
98,269,89669,5,8,0:1:0:0:
98,269,89766,1,8,0:1:0:0:
48,186,90056,5,8,0:1:0:0:
48,186,90153,1,8,0:1:0:0:
248,144,90540,5,4,3:2:0:0:
62,14,91314,6,0,P|37:36|2:89,1,96,2|0,0:3|0:0,0:0:0:0:
3,118,92088,1,2,0:3:0:0:
99,166,92379,2,0,P|89:140|88:117,1,48,2|2,0:3|0:3,0:0:0:0:
167,99,92863,2,0,P|184:126|200:140,2,48,2|2|2,0:3|0:3|0:3,0:0:0:0:
304,47,93637,6,0,L|318:156,1,96,2|2,0:3|0:3,0:0:0:0:
306,163,94411,1,2,0:3:0:0:
172,225,94798,6,0,P|227:212|267:262,1,128,2|0,0:3|0:0,0:0:0:0:
231,338,95959,1,2,0:3:0:0:
432,364,96733,6,0,P|418:314|410:258,1,95.9999970703126,4|0,3:2|0:0,0:0:0:0:
431,187,97314,1,0,0:0:0:0:
447,182,97508,2,0,P|460:130|429:98,1,95.9999970703126,2|0,0:3|0:0,0:0:0:0:
336,72,98088,5,0,0:0:0:0:
314,95,98282,2,0,P|277:98|236:95,2,71.9999978027344,0|2|2,3:0|0:3|0:3,0:0:0:0:
288,232,99056,5,2,0:3:0:0:
209,222,99346,1,2,0:3:0:0:
150,149,99637,1,2,0:3:0:0:
148,34,99830,5,8,0:1:0:0:
148,34,100217,1,8,0:1:0:0:
148,34,100604,1,8,0:1:0:0:
23,64,100992,5,8,0:1:0:0:
79,170,101185,1,8,0:1:0:0:
1,259,101379,1,8,0:1:0:0:
57,365,101572,2,0,L|75:361,4,11.9999996337891,8|8|8|8|8,0:1|0:1|0:1|0:1|0:3,0:0:0:0:
244,273,102540,6,0,B|236:295|236:295|242:322,2,31.9999990234375,8|8|8,0:1|0:1|0:1,0:0:0:0:
303,223,102927,2,0,P|379:216|419:114,1,160,6|2,3:3|0:3,0:0:0:0:
388,67,103508,1,2,0:3:0:0:
308,104,103701,2,0,L|215:96,2,80,8|4|2,0:3|3:3|0:3,0:0:0:0:
512,20,104282,6,0,P|502:93|494:201,1,160,2|0,0:3|3:0,0:0:0:0:
512,266,104863,1,2,0:3:0:0:
457,332,105056,1,2,0:3:0:0:
354,212,105250,6,0,P|373:276|380:319,2,80,8|2|2,0:3|0:3|0:3,0:0:0:0:
269,162,105830,1,0,3:0:0:0:
240,164,105927,1,0,0:0:0:0:
217,177,106024,2,0,P|191:239|193:358,1,160,6|2,3:3|0:3,0:0:0:0:
263,384,106604,1,4,3:3:0:0:
95,306,106798,2,0,P|108:356|108:397,1,80,8|2,0:3|0:3,0:0:0:0:
14,205,107185,6,0,L|200:220,1,160,0|2,3:0|0:3,0:0:0:0:
64,129,107766,2,0,L|167:138,1,80,4|2,3:3|0:3,0:0:0:0:
298,19,108153,5,2,0:3:0:0:
233,83,108346,1,8,0:3:0:0:
311,128,108540,1,4,3:3:0:0:
243,184,108733,2,0,P|255:252|262:275,1,80,2|2,0:3|3:3,0:0:0:0:
265,271,109024,1,0,0:0:0:0:
265,271,109121,6,0,P|194:262|114:341,2,160,6|2|8,3:3|0:3|0:3,0:0:0:0:
364,235,110088,2,0,P|342:289|341:331,1,80,4|2,3:3|0:3,0:0:0:0:
499,353,110475,2,0,P|492:293|436:202,2,160,2|4|2,0:3|3:3|0:3,0:0:0:0:
373,384,111443,5,8,0:3:0:0:
287,373,111637,1,2,0:3:0:0:
201,362,111830,2,0,L|111:350,1,80,2|2,0:3|3:3,0:0:0:0:
114,357,112121,1,0,0:0:0:0:
103,363,112217,6,0,P|69:312|85:203,1,160,6|2,3:3|0:3,0:0:0:0:
59,131,112798,1,0,3:0:0:0:
144,158,112992,2,0,P|189:141|211:103,1,80,8|2,0:3|0:3,0:0:0:0:
121,20,113379,6,0,L|294:42,1,160,6|2,3:3|0:3,0:0:0:0:
377,84,113959,1,6,3:3:0:0:
347,181,114153,1,2,0:3:0:0:
326,198,114250,1,2,0:3:0:0:
302,206,114346,1,2,0:3:0:0:
280,202,114443,1,2,0:3:0:0:
266,191,114540,5,8,0:3:0:0:
291,114,114733,5,8,0:1:0:0:
209,91,114927,5,8,0:1:0:0:
238,16,115121,5,8,0:1:0:0:
247,24,115314,6,0,P|255:89|253:197,1,160,6|2,3:3|0:3,0:0:0:0:
197,249,115895,1,2,0:3:0:0:
140,182,116088,1,8,0:3:0:0:
150,326,116282,6,0,P|104:311|19:377,1,160,4|2,3:3|0:3,0:0:0:0:
17,205,116863,1,2,0:3:0:0:
37,213,117056,2,0,P|56:251|64:290,1,80,0|2,3:0|0:3,0:0:0:0:
267,269,117443,5,2,0:3:0:0:
236,346,117637,2,0,P|239:302|277:136,1,200,8|0,0:3|0:0,0:0:0:0:
283,147,118217,2,0,P|304:175|309:184,1,40,0|0,3:0|0:0,0:0:0:0:
215,206,118411,6,0,P|167:189|166:90,1,160,6|2,3:3|0:3,0:0:0:0:
240,59,118992,1,4,3:3:0:0:
378,133,119185,6,0,L|392:14,1,120,8|2,0:3|0:3,0:0:0:0:
406,10,119572,2,0,L|397:95,1,80,0|2,3:0|0:3,0:0:0:0:
457,157,119959,1,2,0:3:0:0:
304,227,120153,6,0,P|351:217|442:289,1,160,4|2,3:3|0:3,0:0:0:0:
431,359,120733,1,8,0:3:0:0:
431,359,120927,1,4,3:3:0:0:
340,354,121121,6,0,P|297:341|253:342,1,80,2|2,0:3|3:3,0:0:0:0:
254,349,121411,1,0,0:0:0:0:
245,357,121508,2,0,P|191:375|106:314,1,160,6|2,3:3|0:3,0:0:0:0:
115,245,122088,1,2,0:3:0:0:
115,245,122282,1,8,0:3:0:0:
141,165,122475,6,0,P|146:136|56:35,2,160,4|2|4,3:3|0:3|3:3,0:0:0:0:
17,315,123637,5,2,0:3:0:0:
86,358,123830,2,0,L|178:346,1,80,8|2,0:3|0:3,0:0:0:0:
327,275,124217,2,0,L|236:264,1,80,2|2,0:3|3:3,0:0:0:0:
237,257,124508,1,0,0:0:0:0:
224,245,124604,6,0,P|236:204|344:143,1,160,6|2,3:3|0:3,0:0:0:0:
424,90,125185,2,0,P|418:109|411:142,1,40,0|0,3:0|0:0,0:0:0:0:
419,142,125379,1,8,0:3:0:0:
353,48,125572,1,2,0:3:0:0:
270,87,125766,2,0,P|281:135|294:260,1,160,6|2,3:3|0:3,0:0:0:0:
107,286,126346,6,0,P|145:257|210:326,1,160,6|2,3:3|0:3,0:0:0:0:
210,323,126830,1,2,0:3:0:0:
210,323,126927,1,8,0:3:0:0:
295,361,127121,1,4,3:3:0:0:
365,315,127314,2,0,L|374:221,1,80,2|2,0:3|0:3,0:0:0:0:
454,147,127701,5,12,3:2:0:0:
276,0,130798,5,0,0:0:0:0:
235,161,131238,1,8,0:1:0:0:
277,272,131667,1,2,0:3:0:0:
261,370,132095,1,2,0:3:0:0:
55,275,132524,6,0,B|93:263|116:292|112:297|124:330|177:320,1,136.000002593994,4|2,3:3|0:3,0:0:0:0:
238,260,133167,1,2,0:3:0:0:
238,260,133274,1,0,0:0:0:0:
238,260,133381,2,0,P|223:203|207:180,1,68.0000012969971,8|0,0:1|0:0,0:0:0:0:
128,168,133810,2,0,P|75:177|59:88,1,136.000002593994,2|2,0:3|0:3,0:0:0:0:
228,69,134667,6,0,P|220:92|216:136,2,45.3333341979981,2|2|2,0:3|0:3|0:3,0:0:0:0:
298,32,135095,2,0,P|310:58|318:100,1,45.3333341979981,8|2,0:3|0:3,0:0:0:0:
294,151,135381,1,2,0:3:0:0:
306,163,135524,2,0,P|371:159|420:90,1,136.000002593994,2|4,0:3|3:3,0:0:0:0:
512,198,136381,5,2,0:3:0:0:
512,198,136488,1,2,0:3:0:0:
512,198,136595,1,2,0:3:0:0:
427,246,136810,2,0,P|411:290|410:331,2,45.3333341979981,8|2|2,0:1|0:3|0:3,0:0:0:0:
427,246,137238,1,2,0:3:0:0:
512,285,137452,1,0,3:0:0:0:
256,192,137667,12,4,139381,3:3:0:0:
138,270,139810,6,0,P|123:293|119:318,1,45.3333341979981,2|0,0:3|0:0,0:0:0:0:
143,347,140095,1,2,0:3:0:0:
185,362,140238,2,0,P|234:320|236:246,1,136.000002593994,10|2,0:3|0:3,0:0:0:0:
51,152,141095,1,2,0:3:0:0:
175,171,141524,6,0,P|206:153|218:134,1,45.3333341979981,2|2,0:3|0:3,0:0:0:0:
216,104,141810,1,2,0:3:0:0:
186,71,141952,1,10,0:3:0:0:
341,176,142810,6,0,L|392:165,1,45.3333341979981,4|2,3:3|0:3,0:0:0:0:
419,179,143095,1,2,0:3:0:0:
463,156,143238,2,0,L|470:83,1,68.0000012969971,2|0,0:3|0:0,0:0:0:0:
379,11,143667,5,8,0:1:0:0:
379,11,143774,1,0,0:0:0:0:
379,11,143881,1,0,0:0:0:0:
301,60,144095,6,0,P|291:112|291:154,1,68.0000012969971
216,59,144524,2,0,P|213:30|201:-10,2,45.3333341979981,0|2|0,3:0|0:3|0:0,0:0:0:0:
150,125,145060,1,0,0:0:0:0:
61,81,145381,1,8,0:1:0:0:
245,164,146238,5,4,0:2:0:0:
179,250,146667,2,0,L|191:321,2,45.3333341979981,4|2|2,0:2|0:3|0:3,0:0:0:0:
258,157,147095,5,4,0:2:0:0:
334,283,147524,2,0,L|322:379,2,66.6666666666667,2|2|2,0:3|0:3|0:3,0:0:0:0:
484,212,147952,6,0,P|418:204|394:71,1,202.666661254883,4|0,3:3|0:0,0:0:0:0:
383,87,148595,1,2,0:3:0:0:
218,0,148810,2,0,P|243:41|247:78,1,75.9999979705811,10|0,0:3|0:0,0:0:0:0:
140,116,149238,2,0,P|144:91|143:66,2,50.6666653137207,2|2|0,0:3|0:3|0:0,0:0:0:0:
64,191,149667,5,2,0:3:0:0:
125,244,149881,2,0,P|163:207|249:181,1,126.666663284302,0|0,3:0|0:0,0:0:0:0:
231,181,150309,1,2,0:3:0:0:
335,194,150524,6,0,P|320:156|320:93,1,75.9999979705811,8|0,0:1|0:0,0:0:0:0:
374,63,150952,1,2,0:3:0:0:
374,63,151167,1,2,0:3:0:0:
496,152,151381,6,0,P|432:193|421:313,1,202.666661254883,4|2,3:3|0:3,0:0:0:0:
420,311,152024,1,0,0:0:0:0:
257,342,152238,2,0,P|277:304|284:257,1,75.9999979705811,8|0,0:1|0:0,0:0:0:0:
135,300,152667,2,0,P|164:341|170:356,2,50.6666653137207,2|0|0,3:3|0:0|0:0,0:0:0:0:
5,289,153094,5,2,0:3:0:0:
0,286,153381,2,0,P|46:249|136:212,1,151.999995941162,2|0,0:3|0:0,0:0:0:0:
139,221,153952,2,0,P|152:162|170:135,1,75.9999979705811,10|2,0:3|3:3,0:0:0:0:
26,80,154381,2,0,P|42:107|58:167,1,75.9999979705811,2|2,0:3|0:3,0:0:0:0:
182,293,154809,5,4,3:0:0:0:
54,331,155238,1,2,0:3:0:0:
54,331,155381,2,0,P|17:316|3:290,1,50.6666653137207,2|2,0:3|0:3,0:0:0:0:
40,214,155667,6,0,P|39:176|48:45,1,151.999995941162,8|0,0:1|3:0,0:0:0:0:
122,31,156238,1,2,0:3:0:0:
122,31,156381,1,2,0:3:0:0:
122,31,156523,1,2,0:3:0:0:
232,86,156952,5,2,0:3:0:0:
328,18,157238,5,2,0:3:0:0:
341,28,157381,2,0,P|348:72|343:140,2,101.333330627441,8|8|8,0:1|0:1|0:1,0:0:0:0:
461,16,158238,6,0,P|435:55|500:84,1,122.666669006348,4|10,3:3|0:3,0:0:0:0:
512,169,158810,5,8,0:3:0:0:
440,209,159095,6,0,P|421:261|435:286,2,61.3333345031739,8|2|8,0:3|0:3|0:1,0:0:0:0:
390,139,159524,6,0,P|350:143|318:170,1,61.3333345031739,4|2,3:3|0:3,0:0:0:0:
332,154,159810,1,2,0:3:0:0:
249,190,159952,6,0,L|208:184,3,30.6666672515869,8|2|2|4,0:3|0:3|0:3|3:0,0:0:0:0:
249,190,160381,1,2,0:3:0:0:
317,255,160595,6,0,L|356:249,3,30.6666672515869,8|8|8|12,0:1|0:1|0:1|3:0,0:0:0:0:
317,255,161024,1,8,0:1:0:0:
245,174,161238,5,8,3:1:0:0:
232,96,161380,2,8,L|220:10,1,61.3333345031739,8|8,0:1|0:1,0:1:0:0:
224,36,162441,5,8,0:1:0:0:
212,63,162570,1,8,0:1:0:0:
226,87,162699,1,8,0:1:0:0:
203,116,162828,1,8,0:1:0:0:
232,142,162957,1,8,0:1:0:0:
192,170,163086,1,8,0:1:0:0:
227,211,163215,6,0,P|301:199|367:98,1,160,6|2,3:3|0:3,0:0:0:0:
410,64,163796,1,2,0:3:0:0:
471,140,163989,2,0,P|485:192|480:232,1,80,8|4,0:3|3:3,0:0:0:0:
512,353,164376,6,0,P|433:330|322:328,1,160,2|2,0:3|0:3,0:0:0:0:
272,384,164957,1,0,3:0:0:0:
187,329,165150,2,0,P|177:288|179:227,1,80,2|2,0:3|0:3,0:0:0:0:
317,110,165537,6,0,L|303:204,2,80,8|2|2,0:3|0:3|0:3,0:0:0:0:
245,65,166118,1,0,3:0:0:0:
245,65,166215,1,0,0:0:0:0:
245,65,166312,2,0,L|266:236,1,160,6|2,3:3|0:3,0:0:0:0:
219,308,166892,1,4,3:3:0:0:
124,332,167086,2,0,P|67:310|37:282,1,80,8|2,0:3|0:3,0:0:0:0:
0,174,167473,6,0,P|71:163|143:87,1,160,0|2,3:0|0:3,0:0:0:0:
140,4,168054,1,4,3:3:0:0:
234,42,168247,2,0,P|260:80|268:138,1,80,2|2,0:3|0:3,0:0:0:0:
184,246,168634,5,8,0:3:0:0:
270,263,168828,1,4,3:3:0:0:
356,282,169021,1,2,0:3:0:0:
443,306,169215,1,2,3:3:0:0:
443,306,169312,1,0,3:0:0:0:
443,306,169408,6,0,P|496:255|465:166,2,160,6|2|8,3:3|0:3|0:3,0:0:0:0:
362,202,170376,2,0,P|366:162|364:122,1,80,4|2,3:3|0:3,0:0:0:0:
244,150,170763,2,0,P|203:207|232:297,2,160,2|4|2,0:3|3:3|0:3,0:0:0:0:
340,46,171731,5,8,0:3:0:0:
352,131,171925,1,2,0:3:0:0:
365,216,172118,1,2,0:3:0:0:
384,306,172312,1,2,3:3:0:0:
384,306,172408,1,0,3:0:0:0:
384,306,172505,6,0,P|333:355|243:350,1,160,6|2,3:3|0:3,0:0:0:0:
188,271,173086,1,0,3:0:0:0:
132,358,173279,2,0,P|95:331|74:279,1,80,8|2,0:3|0:3,0:0:0:0:
44,151,173667,6,0,L|237:173,1,160,6|2,3:3|0:3,0:0:0:0:
282,104,174247,5,8,0:1:0:0:
372,221,174441,1,8,0:1:0:0:
429,85,174634,1,8,0:1:0:0:
362,137,174828,1,8,0:3:0:0:
84,30,175408,6,0,L|118:32,2,22.666667098999,8|0|0,0:1|0:0|0:0,0:0:0:0:
72,38,175602,6,0,P|52:96|62:212,1,160,6|2,3:3|0:3,0:0:0:0:
112,255,176183,1,2,0:3:0:0:
177,205,176376,2,0,P|174:166|134:143,1,80,8|4,0:3|3:3,0:0:0:0:
64,334,176763,2,0,P|115:313|228:292,1,160,2|2,0:3|0:3,0:0:0:0:
224,307,177344,2,0,P|145:320|70:348,1,160,0|2,3:0|0:3,0:0:0:0:
0,262,177925,6,0,L|11:175,1,80,8|2,0:3|0:3,0:0:0:0:
66,124,178312,1,2,0:3:0:0:
66,124,178505,2,0,L|62:78,1,40,0|0,3:0|0:0,0:0:0:0:
170,18,178699,6,0,P|163:66|262:103,1,160,6|2,3:3|0:3,0:0:0:0:
292,37,179279,1,4,3:3:0:0:
388,247,179473,2,0,P|357:177|359:111,1,120,8|2,0:3|0:3,0:0:0:0:
367,123,179860,2,0,P|350:169|317:202,1,80,0|2,3:0|0:3,0:0:0:0:
142,176,180247,5,2,0:3:0:0:
210,220,180441,2,0,P|234:268|245:315,1,80,4|2,3:3|0:3,0:0:0:0:
190,368,180828,5,2,0:3:0:0:
316,336,181021,1,8,0:3:0:0:
393,361,181215,1,4,3:3:0:0:
511,332,181408,1,10,0:3:0:0:
466,255,181602,6,0,L|465:269,4,13.3333333333333,2|0|0|0|0,3:3|0:0|3:0|0:0|3:0,0:0:0:0:
469,241,181796,2,0,P|472:167|430:77,1,160,6|2,3:3|0:3,0:0:0:0:
357,73,182376,1,2,0:3:0:0:
299,139,182570,1,8,0:3:0:0:
299,139,182763,2,0,P|314:187|351:199,1,80,4|2,3:3|0:3,0:0:0:0:
268,54,183150,2,0,P|207:59|143:45,1,120,2|0,0:3|0:0,0:0:0:0:
142,34,183537,1,4,3:3:0:0:
72,90,183731,2,0,P|93:131|103:174,1,80,2|2,0:3|0:3,0:0:0:0:
35,256,184118,5,8,0:3:0:0:
118,246,184312,1,2,0:3:0:0:
128,329,184505,1,2,0:3:0:0:
45,339,184699,2,0,L|6:336,1,40,2|0,3:3|3:0,0:0:0:0:
125,234,184892,6,0,P|189:228|288:250,1,160,6|2,3:3|0:3,0:0:0:0:
321,323,185473,1,0,3:0:0:0:
257,384,185666,2,0,P|221:354|214:310,1,80,8|2,0:3|0:3,0:0:0:0:
401,100,186054,2,0,P|375:165|364:274,1,160,6|2,3:3|0:3,0:0:0:0:
373,255,186634,2,0,P|382:175|410:101,1,160,6|2,3:3|0:3,0:0:0:0:
512,0,187215,5,8,0:3:0:0:
512,0,187408,2,0,P|484:20|429:31,1,80,4|2,3:3|0:3,0:0:0:0:
361,32,187796,6,0,L|311:22,3,26.6666666666667,8|0|0|12,0:1|0:0|0:0|3:2,0:0:0:0:
483,141,188376,6,0,P|479:174|479:199,1,45.3333341979981,2|2,0:3|0:3,0:0:0:0:
346,153,188763,2,0,P|347:192|350:214,1,34.0000006484985,10|0,0:3|0:0,0:0:0:0:
359,148,188957,2,0,P|363:198|386:287,1,136.000002593994,4|0,3:3|0:0,0:0:0:0:
469,349,189537,5,10,0:3:0:0:
469,349,189666,1,2,0:3:0:0:
314,337,189925,5,10,0:3:0:0:
314,337,190054,1,2,0:3:0:0:
134,313,190312,5,6,0:3:0:0:
