osu file format v14

[General]
AudioFilename: audio.mp3
AudioLeadIn: 0
PreviewTime: 62863
Countdown: 0
SampleSet: Soft
StackLeniency: 0.3
Mode: 0
LetterboxInBreaks: 0
WidescreenStoryboard: 1

[Editor]
Bookmarks: 461,19041,37622,50009,62396,77880,90267,102654,115041,127428,146009,163041,175428,189988
DistanceSpacing: 1.3
BeatDivisor: 12
GridSize: 8
TimelineZoom: 2.4

[Metadata]
Title:GIANTS (feat. Becky G, Keke Palmer, SOYEON, DUCKWRTH, Thutmose)
TitleUnicode:GIANTS (feat. Becky G, Keke Palmer, 소연, DUCKWRTH, Thutmose)
Artist:True Damage
ArtistUnicode:True Damage
Creator:-Mikan
Version:Panda & Mikan's Diamond
Source:League of Legends
Tags:rap pop adioni DeviousPanda skin ekko yasuo senna qiyana akali worlds 2019 finals riot games (G)I-DLE english korean video game kpop hip-hop hip hop
BeatmapID:2373741
BeatmapSetID:1136624

[Difficulty]
HPDrainRate:4.7
CircleSize:3.8
OverallDifficulty:8.1
ApproachRate:9
SliderMultiplier:2.2
SliderTickRate:1

[Events]
//Background and Video events
Video,241,"video.mp4"
0,0,"prestige_yasuo_aape_announcement.jpg",0,0
//Break Periods
//Storyboard Layer 0 (Background)
//Storyboard Layer 1 (Fail)
//Storyboard Layer 2 (Pass)
//Storyboard Layer 3 (Foreground)
//Storyboard Layer 4 (Overlay)
//Storyboard Sound Samples

[TimingPoints]
734,387.096774193548,4,2,1,40,1,0
3830,-100,4,2,1,5,0,0
4217,-100,4,2,1,15,0,0
4604,-100,4,2,1,25,0,0
4992,-100,4,2,1,35,0,0
5379,-100,4,2,1,45,0,0
5766,-100,4,2,1,45,0,0
6927,-133.333333333333,4,2,1,45,0,0
7701,-133.333333333333,4,2,2,45,0,0
9443,-111.111111111111,4,2,2,45,0,0
10798,-133.333333333333,4,2,2,45,0,0
11185,-133.333333333333,4,2,2,45,0,0
11766,-133.333333333333,4,2,1,45,0,0
11830,-133.333333333333,4,2,1,45,0,0
12346,-133.333333333333,4,2,2,45,0,0
13121,-100,4,2,2,45,0,0
13895,-100,4,2,2,45,0,0
14282,-500,4,2,2,45,0,0
15443,-100,4,2,2,45,0,0
16217,-100,4,2,2,45,0,0
16992,-100,4,2,3,45,0,0
17379,-100,4,2,2,45,0,0
17959,-133.333333333333,4,2,2,45,0,0
18540,-100,4,2,2,45,0,0
18733,-100,4,2,1,45,0,0
19314,-100,4,2,1,45,0,0
20088,-100,4,2,2,45,0,0
20669,-133.333333333333,4,2,2,45,0,0
21637,-100,4,2,2,45,0,0
22024,-100,4,2,2,45,0,0
22217,-83.3333333333333,4,2,2,45,0,0
23185,-100,4,2,2,45,0,0
23572,-100,4,2,2,45,0,0
23766,-100,4,2,2,45,0,0
24346,-83.3333333333333,4,2,2,45,0,0
24733,-83.3333333333333,4,2,2,55,0,0
24927,-133.333333333333,4,2,1,55,0,0
25121,-83.3333333333333,4,2,2,55,0,0
25508,-83.3333333333333,4,2,3,60,0,1
26088,-83.3333333333333,4,2,3,60,0,1
26282,-83.3333333333333,4,2,2,60,0,1
28604,-71.4285714285714,4,2,2,60,0,1
28992,-83.3333333333333,4,2,2,60,0,1
30927,-117.647058823529,4,2,2,50,0,0
31701,-117.647058823529,4,2,4,50,0,0
31895,-100,4,2,4,50,0,0
32475,-100,4,2,4,50,0,0
33443,-100,4,2,2,50,0,0
36539,-100,4,2,2,50,0,0
36733,-100,4,2,2,50,0,0
37895,-100,4,2,2,35,0,0
38669,-333.333333333333,4,2,2,35,0,0
47185,-333.333333333333,4,2,1,35,0,0
48878,-333.333333333333,4,2,1,30,0,0
49121,-333.333333333333,4,2,2,30,0,0
50088,-133.333333333333,4,2,1,55,0,0
50282,-100,4,2,3,65,0,1
50669,-100,4,2,3,65,0,1
51056,-100,4,2,2,65,0,1
53379,-100,4,2,3,65,0,1
53766,-100,4,2,3,65,0,1
53959,-100,4,2,2,65,0,1
56475,-100,4,2,3,65,0,1
56765,-100,4,2,3,65,0,1
57250,-100,4,2,2,65,0,1
59572,-100,4,2,3,65,0,1
59959,-100,4,2,3,65,0,1
60346,-100,4,2,2,65,0,1
60733,-100,4,2,2,65,0,1
60927,-100,4,2,2,65,0,1
61314,-100,4,2,2,65,0,1
61508,-100,4,2,2,65,0,1
61895,-100,4,2,3,65,0,1
62669,-100,4,2,3,65,0,0
63056,-100,4,2,3,45,0,0
64992,-100,4,2,4,45,0,0
65766,-100,4,2,1,45,0,0
66540,-133.333333333333,4,2,2,45,0,0
67185,-133.333333333333,4,2,2,45,0,0
67314,-133.333333333333,4,2,2,45,0,0
68669,-133.333333333333,4,2,1,45,0,0
69637,-133.333333333333,4,2,2,45,0,0
70024,-133.333333333333,4,2,2,45,0,0
70153,-133.333333333333,4,2,2,45,0,0
71572,-133.333333333333,4,2,4,45,0,0
71959,-133.333333333333,4,2,1,45,0,0
72346,-133.333333333333,4,2,4,45,0,0
72540,-133.333333333333,4,2,4,45,0,0
73701,-133.333333333333,4,2,2,45,0,0
74475,-100,4,2,2,45,0,0
75056,-100,4,2,1,45,0,0
75830,-100,4,2,2,45,0,0
76217,-100,4,2,1,45,0,0
77379,-100,4,2,2,45,0,0
77766,-100,4,2,1,45,0,0
78153,-100,4,2,1,45,0,0
78927,-100,4,2,2,45,0,0
79314,-100,4,2,2,45,0,0
79895,-100,4,2,2,45,0,0
80088,-100,4,2,2,45,0,0
81927,-100,4,2,2,45,0,0
82604,-100,4,2,2,45,0,0
82992,-100,4,2,2,45,0,0
83379,-100,4,2,4,45,0,0
83572,-100,4,2,3,45,0,0
83766,-100,4,2,1,45,0,0
84153,-100,4,2,1,45,0,0
85121,-100,4,2,2,45,0,0
86088,-100,4,2,2,45,0,0
86863,-100,4,2,2,45,0,0
88217,-100,4,2,2,45,0,0
88604,-100,4,2,2,45,0,0
88992,-100,4,2,4,45,0,0
89185,-100,4,2,2,45,0,0
89379,-100,4,2,3,45,0,0
89669,-100,4,2,1,45,0,0
90540,-100,4,2,2,35,0,0
91314,-200,4,2,2,35,0,0
99830,-200,4,2,1,35,0,0
101766,-200,4,2,2,35,0,0
102540,-200,4,2,1,55,0,0
102927,-83.3333333333333,4,2,3,65,0,1
103314,-83.3333333333333,4,2,3,65,0,1
103701,-83.3333333333333,4,2,2,65,0,1
106024,-83.3333333333333,4,2,3,65,0,1
106411,-83.3333333333333,4,2,3,65,0,1
106604,-83.3333333333333,4,2,2,65,0,1
109121,-83.3333333333333,4,2,3,65,0,1
109411,-83.3333333333333,4,2,3,65,0,1
109895,-83.3333333333333,4,2,2,65,0,1
112217,-83.3333333333333,4,2,3,65,0,1
112507,-83.3333333333333,4,2,3,65,0,1
112991,-83.3333333333333,4,2,2,65,0,1
113378,-83.3333333333333,4,2,2,65,0,1
113572,-83.3333333333333,4,2,2,65,0,1
113959,-83.3333333333333,4,2,2,65,0,1
114153,-83.3333333333333,4,2,2,65,0,1
114540,-83.3333333333333,4,2,3,45,0,1
114733,-83.3333333333333,4,2,1,45,0,1
115314,-100,4,2,3,65,0,1
115701,-100,4,2,3,65,0,1
116088,-100,4,2,2,65,0,1
118411,-100,4,2,3,65,0,1
118604,-100,4,2,3,65,0,1
118991,-100,4,2,2,65,0,1
121508,-100,4,2,3,65,0,1
121895,-100,4,2,3,65,0,1
122282,-100,4,2,2,65,0,1
124604,-100,4,2,3,65,0,1
124991,-100,4,2,3,65,0,1
125378,-100,4,2,2,65,0,1
125766,-100,4,2,2,65,0,1
126153,-100,4,2,2,65,0,1
126346,-100,4,2,2,65,0,1
126539,-100,4,2,2,65,0,1
127701,-100,4,2,1,45,0,0
128475,-100,4,2,2,45,0,0
128863,-100,4,2,2,45,0,0
130024,-100,4,2,4,45,0,0
130810,428.571428571429,4,2,1,30,1,0
130810,-117.647058823529,4,2,1,30,0,0
132524,-117.647058823529,4,2,1,50,0,0
135095,-117.647058823529,4,2,2,50,0,0
136810,-117.647058823529,4,2,1,50,0,0
138524,-117.647058823529,4,2,4,50,0,0
139381,-117.647058823529,4,2,1,50,0,0
141952,-117.647058823529,4,2,2,50,0,0
142810,-117.647058823529,4,2,2,50,0,0
143667,-117.647058823529,4,2,1,50,0,0
146238,-117.647058823529,4,2,2,50,0,0
147524,387.096774193548,4,2,2,50,1,0
147952,428.571428571429,4,2,2,50,1,0
147952,-100,4,2,2,50,0,0
148810,-100,4,2,1,50,0,0
152774,-100,4,2,1,50,0,0
153952,-100,4,2,2,50,0,0
154167,-100,4,2,2,50,0,0
154810,-100,4,2,2,50,0,0
155667,-100,4,2,1,50,0,0
158238,-83.3333333333333,4,2,1,60,0,1
158810,-83.3333333333333,4,2,2,60,0,1
159381,-83.3333333333333,4,2,1,60,0,1
159952,-83.3333333333333,4,2,2,60,0,1
160595,-83.3333333333333,4,2,1,60,0,1
160810,-83.3333333333333,4,2,2,60,0,1
161024,-83.3333333333333,4,2,1,60,0,1
161238,-83.3333333333333,4,2,1,45,0,0
161381,-83.3333333333333,4,2,1,45,0,0
161667,387.096774193548,4,2,1,45,1,0
162441,-100,4,2,1,55,0,0
163215,-83.3333333333333,4,2,3,75,0,1
163602,-83.3333333333333,4,2,3,75,0,1
163796,-100,4,2,3,75,0,1
163989,-100,4,2,2,75,0,1
166312,-100,4,2,3,75,0,1
166699,-100,4,2,3,75,0,1
166892,-100,4,2,2,75,0,1
169408,-100,4,2,3,75,0,1
169698,-100,4,2,3,75,0,1
170183,-100,4,2,2,75,0,1
172505,-100,4,2,3,75,0,1
172892,-100,4,2,3,75,0,1
173279,-100,4,2,2,75,0,1
173666,-100,4,2,2,75,0,1
173860,-100,4,2,2,75,0,1
174247,-100,4,2,1,75,0,1
174828,-100,4,2,2,45,0,1
175408,-100,4,2,1,45,0,1
175602,-66.6666666666667,4,2,3,75,0,1
175989,-83.3333333333333,4,2,3,75,0,1
176376,-83.3333333333333,4,2,2,75,0,1
178699,-83.3333333333333,4,2,3,75,0,1
178989,-83.3333333333333,4,2,3,75,0,1
179279,-83.3333333333333,4,2,2,75,0,1
181408,-83.3333333333333,4,2,1,75,0,1
181796,-83.3333333333333,4,2,3,75,0,1
181989,-83.3333333333333,4,2,3,75,0,1
182570,-83.3333333333333,4,2,2,75,0,1
184892,-83.3333333333333,4,2,3,75,0,1
185182,-83.3333333333333,4,2,3,75,0,1
185666,-83.3333333333333,4,2,2,75,0,1
186054,-83.3333333333333,4,2,2,75,0,1
186441,-83.3333333333333,4,2,2,75,0,1
186634,-83.3333333333333,4,2,2,75,0,1
187021,-83.3333333333333,4,2,2,75,0,1
187796,-83.3333333333333,4,2,1,75,0,1
187989,-133.333333333333,4,2,1,45,0,0
188376,-133.333333333333,4,2,1,45,0,0
188763,-133.333333333333,4,2,2,45,0,0
188957,-133.333333333333,4,2,2,45,0,0
189537,-133.333333333333,4,2,1,45,0,0
190312,-133.333333333333,4,2,4,45,0,0

[Colours]
Combo1 : 255,90,11
Combo2 : 168,0,168
Combo3 : 0,0,213
Combo4 : 0,174,225
Combo5 : 213,0,106

[HitObjects]
256,192,734,12,8,5379,0:1:0:0:
255,15,5766,5,10,0:3:0:0:
255,15,5959,1,2,0:3:0:0:
255,15,6153,1,2,0:3:0:0:
228,96,6346,5,2,0:3:0:0:
298,198,6540,5,2,0:3:0:0:
159,364,6927,6,0,P|205:342|249:337,2,82.5000031471253,4|2|2,3:2|0:3|0:3,0:0:0:0:
79,250,7508,2,0,P|85:270|88:291,1,41.2500015735627,0|0,3:0|0:0,0:0:0:0:
51,356,7701,6,0,P|60:297|94:232,1,123.750004720688,8|0,0:3|0:0,0:0:0:0:
8,161,8088,6,0,P|11:186|21:205,1,41.2500015735627,2|0,3:3|0:0,0:0:0:0:
167,237,8282,1,2,0:3:0:0:
167,237,8475,1,2,0:3:0:0:
182,80,8669,6,0,P|127:115|84:173,1,123.750004720688,0|0,3:0|0:0,0:0:0:0:
105,159,9056,2,0,P|110:131|107:112,1,41.2500015735627,2|0,0:3|0:0,0:0:0:0:
83,0,9250,5,8,0:3:0:0:
91,6,9443,2,0,B|53:23|69:65|133:45|206:-11|311:-2|323:29|293:58|235:37,1,296.99999093628,4|0,0:3|0:0,0:0:0:0:
385,201,10604,5,0,3:0:0:0:
392,192,10798,2,0,P|359:170|344:167,1,41.2500015735627,12|0,0:2|0:0,0:0:0:0:
402,161,10992,2,0,P|362:158|347:163,1,41.2500015735627,2|0,0:3|0:0,0:0:0:0:
300,279,11185,6,0,P|311:262|318:242,1,41.2500015735627,2|0,3:3|0:0,0:0:0:0:
284,274,11379,2,0,P|285:253|281:233,1,41.2500015735627,2|0,0:3|0:0,0:0:0:0:
267,279,11572,2,0,P|258:260|244:244,1,41.2500015735627,2|0,0:3|0:0,0:0:0:0:
399,333,11766,5,8,3:1:0:0:
396,325,11830,5,8,0:1:0:0:
392,319,11895,5,8,0:1:0:0:
389,312,11959,6,0,P|418:283|463:265,1,82.5000031471254,10|8,0:3|0:1,0:0:0:0:
496,193,12346,6,0,P|486:188|476:185,1,20.6250007867813,12|0,0:3|0:0,0:0:0:0:
238,352,12733,5,2,0:3:0:0:
250,345,13121,6,0,P|257:300|161:246,1,165,4|0,3:2|0:0,0:0:0:0:
130,366,13508,2,0,P|148:351|150:315,1,55,2|0,0:3|0:0,0:0:0:0:
27,226,13701,1,0,3:0:0:0:
146,167,13895,5,8,0:3:0:0:
146,167,13992,1,2,0:3:0:0:
146,167,14088,2,0,P|113:179|102:224,1,55,2|0,0:3|0:0,0:0:0:0:
266,341,14282,6,0,L|272:366,2,22,2|2|2,3:3|0:3|0:3,0:0:0:0:
102,279,14863,5,0,3:0:0:0:
102,279,14959,1,2,0:3:0:0:
102,279,15056,1,2,0:3:0:0:
292,149,15250,5,2,0:3:0:0:
280,147,15346,1,2,0:3:0:0:
269,151,15443,2,0,P|240:202|226:256,1,110,8|2,0:3|0:3,0:0:0:0:
348,296,15733,1,2,0:3:0:0:
354,287,15830,2,0,P|345:256|313:225,1,55,2|0,3:3|0:0,0:0:0:0:
181,320,16024,1,2,0:3:0:0:
512,169,16217,6,0,P|434:162|332:109,1,165,4|2,3:2|0:3,0:0:0:0:
347,131,16604,2,0,P|353:152|350:180,2,27.5,2|0|0,0:3|0:0|0:0,0:0:0:0:
459,21,16798,5,0,3:0:0:0:
459,21,16895,1,2,0:3:0:0:
459,21,16992,2,0,P|439:54|431:87,1,55,8|0,0:3|0:0,0:0:0:0:
511,182,17185,1,2,0:3:0:0:
248,326,17379,6,0,P|326:279|462:256,1,220,6|2,0:3|0:3,0:0:0:0:
456,266,17959,2,0,P|397:314|344:386,1,165,4|2,0:3|0:3,0:0:0:0:
357,384,18540,6,0,P|387:377|431:379,1,55,12|0,0:3|0:0,0:0:0:0:
512,284,18733,2,0,P|482:277|438:279,1,55,8|0,0:1|0:0,0:0:0:0:
248,325,18927,5,2,0:3:0:0:
248,325,19121,1,2,0:3:0:0:
457,160,19314,5,4,3:2:0:0:
402,103,19508,6,0,L|318:118,1,55,2|0,0:3|0:0,0:0:0:0:
153,147,19701,2,0,P|259:158|304:173,1,110,2|0,0:3|3:0,0:0:0:0:
307,28,19992,1,0,0:0:0:0:
292,31,20088,2,0,P|272:85|297:110,1,55,8|0,0:3|0:0,0:0:0:0:
345,145,20282,2,0,P|365:199|340:224,1,55,2|0,0:3|0:0,0:0:0:0:
248,325,20475,5,2,3:3:0:0:
248,325,20669,2,0,B|148:301|186:381|59:348,1,165.000006294251,2|4,0:3|3:3,0:0:0:0:
36,297,21153,1,0,0:0:0:0:
27,269,21250,1,2,0:3:0:0:
153,147,21443,1,2,0:3:0:0:
149,177,21540,1,0,0:0:0:0:
144,208,21637,6,0,L|70:199,1,55,8|0,0:3|0:0,0:0:0:0:
6,123,21830,2,0,L|60:116,1,55,2|0,0:3|0:0,0:0:0:0:
140,17,22024,2,0,L|66:26,1,55,6|0,3:3|0:0,0:0:0:0:
214,85,22217,6,0,B|263:75|263:75|261:65|261:65|264:75|264:75|295:70|295:70|355:99|355:99|381:97|381:97|383:105|383:105|381:96|381:96|464:77,1,263.99999194336,2|0,0:3|0:0,0:0:0:0:
439,73,22701,2,0,L|440:33,4,32.99999899292,0|0|2|0|0,0:0|0:0|0:3|0:0|0:0,0:0:0:0:
479,166,22992,5,0,3:0:0:0:
488,174,23088,1,0,0:0:0:0:
496,182,23185,2,0,L|493:252,1,55,8|0,0:3|0:0,0:0:0:0:
418,295,23379,2,0,L|415:360,1,55,2|0,0:3|0:0,0:0:0:0:
360,227,23572,5,6,3:3:0:0:
502,330,23766,1,2,0:3:0:0:
360,227,23959,5,2,0:3:0:0:
320,218,24056,1,2,0:3:0:0:
287,238,24153,1,4,0:3:0:0:
164,303,24346,2,0,P|230:279|187:162,1,197.99999395752,2|2,0:3|0:3,0:0:0:0:
189,184,24733,1,8,0:3:0:0:
12,111,24927,6,0,L|18:155,2,27.5000010490418,8|8|8,0:1|0:1|0:1,0:0:0:0:
25,101,25121,2,0,P|96:126|118:111,1,65.9999979858399,8|0,0:3|0:0,0:0:0:0:
229,33,25314,2,0,P|171:81|173:108,1,65.9999979858399,0|0,3:0|0:0,0:0:0:0:
189,184,25508,6,0,B|246:169|278:175|278:175|289:206|349:229,1,131.99999597168,6|2,0:3|0:3,0:0:0:0:
363,149,25798,1,2,0:3:0:0:
402,124,25895,1,2,0:3:0:0:
413,79,25992,1,2,0:3:0:0:
385,34,26088,2,0,P|394:67|401:115,1,65.9999979858399,0|2,3:0|0:3,0:0:0:0:
498,196,26282,2,0,P|483:264|472:344,1,131.99999597168,8|2,0:3|0:3,0:0:0:0:
475,334,26540,5,2,0:3:0:0:
478,341,26604,5,2,0:3:0:0:
483,347,26669,6,0,L|416:340,1,65.9999979858399,2|2,3:3|0:3,0:0:0:0:
381,234,26863,1,2,0:3:0:0:
278,321,27056,2,0,B|315:321|315:321|359:288,1,65.9999979858399,2|2,0:3|0:3,0:0:0:0:
304,206,27250,6,0,B|267:206|267:206|223:239,1,65.9999979858399,4|2,3:3|0:3,0:0:0:0:
168,306,27443,1,2,0:3:0:0:
127,328,27540,1,2,0:3:0:0:
81,319,27637,2,0,L|92:227,1,65.9999979858399,2|2,0:3|0:3,0:0:0:0:
22,113,27830,2,0,L|11:205,1,65.9999979858399,8|2,0:3|0:3,0:0:0:0:
119,137,28024,5,2,0:3:0:0:
144,132,28121,1,2,0:3:0:0:
195,73,28217,1,4,3:3:0:0:
220,78,28314,1,2,0:3:0:0:
285,125,28411,1,2,0:3:0:0:
310,120,28508,1,2,0:3:0:0:
354,52,28604,6,0,P|439:61|441:154,1,153.999995300293,4|2,3:3|0:3,0:0:0:0:
496,183,28895,5,2,0:3:0:0:
476,201,28992,2,0,P|394:207|320:221,1,131.99999597168,2|0,0:3|3:0,0:0:0:0:
340,300,29282,1,2,0:3:0:0:
358,305,29379,2,0,P|424:295|490:291,1,131.99999597168,8|2,0:3|0:3,0:0:0:0:
269,365,29669,5,2,0:3:0:0:
249,347,29766,2,0,P|167:341|93:327,1,131.99999597168,4|2,3:3|0:3,0:0:0:0:
113,248,30056,1,2,0:3:0:0:
131,242,30153,2,0,P|196:252|262:256,1,131.99999597168,2|4,0:3|3:3,0:0:0:0:
456,118,30540,6,0,B|431:89|386:88|386:88|362:120|314:129,1,131.99999597168,2|2,0:3|0:3,0:0:0:0:
309,41,30830,1,2,0:3:0:0:
314,20,30927,6,0,B|229:43|212:179|306:209|372:169|338:107,1,280.500005350113,8|0,0:3|3:0,0:0:0:0:
343,119,31604,1,2,0:3:0:0:
343,119,31701,1,6,3:3:0:0:
183,38,31895,6,0,P|149:35|106:47,1,55,2|2,0:3|0:3,0:0:0:0:
41,113,32088,2,0,P|75:114|93:122,1,55,2|2,0:3|0:3,0:0:0:0:
139,200,32282,1,0,3:0:0:0:
135,219,32379,1,2,0:3:0:0:
131,242,32475,2,0,B|262:207|221:313|365:275,1,220,8|0,0:3|3:0,0:0:0:0:
477,330,33056,6,0,L|470:374,2,36.6666666666667,2|0|0,0:3|0:0|0:0,0:0:0:0:
463,311,33250,1,2,0:3:0:0:
312,194,33443,2,0,L|300:141,1,55,4|0,3:3|0:0,0:0:0:0:
279,126,33637,1,2,0:3:0:0:
472,194,33830,5,2,0:3:0:0:
486,15,34024,2,0,P|464:68|450:190,1,165,8|0,0:3|0:0,0:0:0:0:
472,194,34411,2,0,L|517:184,4,27.5,2|2|2|2|2,0:3|0:3|0:3|0:3|0:3,0:0:0:0:
277,361,34798,6,0,L|147:342,1,110,4|2,3:3|0:3,0:0:0:0:
85,365,35088,1,2,0:3:0:0:
65,380,35185,2,0,B|45:356|45:356|47:301,1,55,2|0,0:3|0:0,0:0:0:0:
102,249,35379,1,0,3:0:0:0:
117,252,35475,1,2,0:3:0:0:
130,255,35572,2,0,B|150:231|150:231|148:176,1,55,8|2,0:3|0:3,0:0:0:0:
99,144,35766,1,2,0:3:0:0:
183,38,35959,5,4,3:3:0:0:
231,46,36056,1,0,0:0:0:0:
279,54,36153,1,2,0:3:0:0:
328,61,36250,1,2,0:3:0:0:
385,41,36346,6,0,P|334:108|330:167,1,110,2|6,0:3|3:3,0:0:0:0:
369,214,36637,1,0,0:0:0:0:
390,227,36733,2,0,L|477:212,1,55,2|0,0:3|0:0,0:0:0:0:
275,313,36927,2,0,L|188:298,1,55,2|0,0:3|0:0,0:0:0:0:
308,384,37121,6,0,B|296:316|339:282|339:282|396:240|373:160,1,220,8|2,0:3|0:3,0:0:0:0:
241,80,37701,2,0,P|230:39|230:29,2,36.6666666666667,2|0|0,0:3|0:0|0:0,0:0:0:0:
260,94,37895,5,4,3:2:0:0:
391,24,38669,2,0,P|368:54|356:125,1,98.9999969787599,2|0,0:3|0:0,0:0:0:0:
414,164,39443,2,0,P|444:154|458:137,2,43.9999986572266,2|0|0,0:3|0:0|0:0,0:0:0:0:
263,145,40217,5,2,0:3:0:0:
329,189,40508,1,2,0:3:0:0:
349,277,40798,1,2,0:3:0:0:
282,377,40992,6,0,B|219:401|168:351|172:342|177:327|137:265|47:300,1,263.99999194336,2|0,0:3|0:0,0:0:0:0:
50,309,43314,1,2,0:3:0:0:
127,265,44088,6,0,P|146:225|145:169,1,98.9999969787599,4|0,3:2|0:0,0:0:0:0:
243,305,44863,2,0,P|231:277|230:232,1,65.9999979858399,2|0,0:3|0:0,0:0:0:0:
296,166,45443,5,0,0:0:0:0:
283,171,45637,2,0,P|254:161|232:142,2,49.4999984893799,0|2|2,3:0|0:3|0:3,0:0:0:0:
400,128,46411,5,2,0:3:0:0:
361,192,46701,1,2,0:3:0:0:
356,283,46992,1,2,0:3:0:0:
436,384,47185,5,8,0:1:0:0:
436,384,47572,1,8,0:1:0:0:
436,384,47959,1,8,0:1:0:0:
438,250,48346,5,8,0:1:0:0:
350,294,48540,1,8,0:1:0:0:
512,326,48733,1,8,0:1:0:0:
507,334,48830,6,0,L|509:345,6,8.24999974822999,0|8|8|8|8|8|8,0:0|0:1|0:1|0:1|0:1|0:1|0:3,0:0:0:0:
61,84,50088,6,0,L|53:56,2,27.5000010490418,8|8|8,0:1|0:1|0:1,0:0:0:0:
74,91,50282,6,0,B|203:70|152:173|293:147,1,220,6|2,3:3|0:3,0:0:0:0:
486,26,50863,2,0,P|431:-1|399:10,1,55,2|0,0:3|0:0,0:0:0:0:
439,147,51056,2,0,P|489:112|496:79,1,55,8|0,0:3|0:0,0:0:0:0:
351,45,51250,2,0,P|355:106|380:128,1,55,4|0,3:3|0:0,0:0:0:0:
424,73,51443,1,2,0:3:0:0:
356,226,51637,5,2,0:3:0:0:
357,243,51733,1,2,0:3:0:0:
369,259,51830,2,0,P|470:239|488:210,2,110,2|0|2,0:3|3:0|0:3,0:0:0:0:
307,371,52411,6,0,B|282:350|282:350|232:353,1,55,2|0,0:3|0:0,0:0:0:0:
207,257,52604,2,0,B|182:278|182:278|132:275,1,55,8|0,0:3|0:0,0:0:0:0:
104,345,52798,2,0,B|79:324|79:324|29:327,1,55,2|0,0:3|0:0,0:0:0:0:
0,265,52992,1,2,0:3:0:0:
61,84,53185,6,0,L|73:124,2,36.6666666666667,0|0|0,3:0|3:0|3:0,0:0:0:0:
74,68,53379,2,0,P|141:101|73:199,1,220,6|2,3:3|0:3,0:0:0:0:
213,44,53959,1,4,3:3:0:0:
271,97,54153,2,0,L|351:87,1,55,8|2,0:3|0:3,0:0:0:0:
287,109,54346,2,0,L|367:99,1,55,2|2,0:3|0:3,0:0:0:0:
392,207,54540,2,0,L|219:190,1,165,0|0,3:0|0:0,0:0:0:0:
405,238,54927,5,2,0:3:0:0:
305,316,55121,2,0,L|312:350,4,27.5,4|0|0|0|2,3:3|0:0|0:0|0:0|0:3,0:0:0:0:
80,199,55508,6,0,P|95:150|91:123,1,55,2|0,0:3|0:0,0:0:0:0:
227,190,55701,2,0,P|177:201|155:218,1,55,8|0,0:3|0:0,0:0:0:0:
147,70,55895,2,0,P|181:107|207:117,1,55,4|0,3:3|0:0,0:0:0:0:
358,0,56088,6,0,P|296:4|268:63,1,110,2|2,0:3|3:3,0:0:0:0:
275,49,56346,5,0,3:0:0:0:
278,59,56411,5,0,3:0:0:0:
283,68,56475,6,0,B|382:86|452:127,1,165,6|2,3:3|0:3,0:0:0:0:
463,107,56863,1,2,0:3:0:0:
227,190,57056,1,2,0:3:0:0:
403,332,57250,2,0,B|417:306|417:306|409:265,1,55,8|0,0:3|0:0,0:0:0:0:
338,190,57443,6,0,L|330:243,1,27.5,4|0,3:3|0:0,0:0:0:0:
333,217,57830,6,0,B|189:237|266:132|77:180,1,220,2|4,0:3|3:3,0:0:0:0:
108,183,58314,1,0,0:0:0:0:
101,202,58411,1,2,0:3:0:0:
209,91,58604,6,0,L|192:25,1,55,2|2,0:3|0:3,0:0:0:0:
318,81,58798,2,0,L|301:147,1,55,8|0,0:3|0:0,0:0:0:0:
278,4,58992,1,2,0:3:0:0:
226,177,59185,1,2,0:3:0:0:
412,121,59379,5,2,3:3:0:0:
412,121,59443,5,0,3:0:0:0:
412,121,59508,5,0,3:0:0:0:
412,121,59572,6,0,B|406:203|389:280|389:280|427:265|462:306,1,220,6|2,3:3|0:3,0:0:0:0:
407,360,60153,1,0,3:0:0:0:
177,194,60346,2,0,B|203:174|203:174|244:178,1,55,8|0,0:3|0:0,0:0:0:0:
284,251,60540,6,0,B|240:290|240:290|173:284,1,110,2|6,0:3|3:3,0:0:0:0:
87,354,60927,6,0,P|25:332|54:195,1,220,2|6,0:3|3:3,0:0:0:0:
74,95,61508,1,2,0:3:0:0:
103,126,61604,1,2,0:3:0:0:
148,139,61701,1,2,0:3:0:0:
191,133,61798,1,2,0:3:0:0:
148,52,61895,5,8,0:3:0:0:
298,143,63056,5,2,0:3:0:0:
298,143,63185,1,2,0:3:0:0:
256,254,63443,5,2,0:3:0:0:
338,207,64217,5,2,0:3:0:0:
337,221,64346,1,2,0:3:0:0:
413,238,64604,5,2,0:3:0:0:
422,269,64733,1,2,0:3:0:0:
492,213,64992,5,6,0:3:0:0:
432,84,65766,6,0,B|436:66|443:50|443:50|384:88|297:79,1,165,4|0,3:2|0:0,0:0:0:0:
301,69,66153,1,2,0:3:0:0:
292,48,66250,1,2,0:3:0:0:
299,28,66346,2,0,P|332:43|349:86,1,55,0|0,3:0|0:0,0:0:0:0:
242,255,66540,6,0,P|254:198|247:127,1,123.750004720688,8|0,0:3|0:0,0:0:0:0:
236,128,66927,5,0,3:0:0:0:
156,133,67056,5,0,0:0:0:0:
114,201,67185,5,2,0:3:0:0:
131,276,67314,5,0,3:0:0:0:
200,314,67443,5,0,3:2:0:0:
204,307,67508,1,4,3:3:0:0:
212,305,67572,1,0,3:2:0:0:
287,300,67701,5,2,0:3:0:0:
363,318,67830,5,2,0:3:0:0:
400,384,67959,5,2,0:3:0:0:
370,308,68088,6,0,P|377:270|392:238,1,55.0000020980836,8|2,0:3|0:3,0:0:0:0:
451,222,68346,5,2,0:3:0:0:
345,122,68475,6,0,P|374:147|407:151,1,55.0000020980836,4|0,3:3|0:0,0:0:0:0:
399,160,68669,2,0,P|384:175|375:194,2,27.5000010490418,8|8|8,0:1|0:1|0:1,0:0:0:0:
475,147,68863,1,4,3:3:0:0:
174,28,69250,5,2,0:3:0:0:
174,28,69346,1,2,0:3:0:0:
174,28,69443,2,0,P|185:77|184:97,1,41.2500015735627,4|0,3:3|0:0,0:0:0:0:
302,4,69637,2,0,P|263:77|247:146,1,123.750004720688,8|0,0:3|0:0,0:0:0:0:
95,132,70024,5,6,3:3:0:0:
172,145,70153,5,2,0:3:0:0:
229,194,70282,5,2,0:3:0:0:
243,268,70411,5,2,0:3:0:0:
249,275,70604,6,0,P|225:286|201:317,1,41.2500015735627,4|0,3:3|0:0,0:0:0:0:
90,350,70798,2,0,P|133:342|159:348,2,55.0000020980836,2|2|2,0:3|0:3|0:3,0:0:0:0:
318,361,71185,6,0,P|302:355|265:353,2,41.2500015735627,8|2|8,0:3|0:3|0:3,0:0:0:0:
25,198,71572,6,0,P|92:211|144:256,1,123.750004720688,6|0,0:3|0:0,0:0:0:0:
142,269,71959,5,4,3:3:0:0:
46,283,72153,1,2,0:3:0:0:
110,169,72346,1,6,0:3:0:0:
192,186,72540,1,0,3:0:0:0:
240,365,72733,5,8,0:3:0:0:
220,290,72927,1,2,0:3:0:0:
295,270,73121,1,0,3:0:0:0:
315,345,73314,1,2,0:3:0:0:
404,184,73508,5,2,0:3:0:0:
380,272,73702,1,4,3:3:0:0:
469,296,73896,1,2,0:3:0:0:
492,207,74089,1,2,0:3:0:0:
280,102,74282,6,0,P|291:125|303:171,1,41.2500015735627,8|0,0:3|0:0,0:0:0:0:
290,154,74475,2,0,B|251:123|187:143|192:156|194:170|158:205|85:173,1,220,2|2,0:3|3:3,0:0:0:0:
81,163,74927,5,2,3:3:0:0:
82,151,74992,5,2,3:3:0:0:
88,143,75056,5,4,3:2:0:0:
243,220,75250,1,2,0:3:0:0:
276,132,75443,5,2,0:3:0:0:
104,223,75637,1,4,3:3:0:0:
181,49,75830,5,8,0:3:0:0:
181,49,76024,1,2,0:3:0:0:
72,321,76217,6,0,P|143:304|308:321,1,220,4|0,3:2|0:0,0:0:0:0:
288,314,77766,5,8,0:1:0:0:
427,272,77959,2,0,P|450:273|469:285,2,36.6666666666667,8|8|8,0:1|0:1|0:1,0:0:0:0:
393,282,78153,6,0,P|378:232|383:198,1,55,4|0,3:2|0:0,0:0:0:0:
415,160,78346,2,0,P|459:131|439:44,1,110,2|2,0:3|0:3,0:0:0:0:
411,21,78637,1,0,0:0:0:0:
411,21,78733,1,2,3:3:0:0:
286,78,78927,6,0,B|261:61|261:61|209:62,1,55,10|2,0:3|0:3,0:0:0:0:
185,122,79121,2,0,L|50:128,1,110,2|0,0:3|3:0,0:0:0:0:
10,88,79411,1,0,0:0:0:0:
10,88,79508,1,2,0:3:0:0:
32,229,79701,6,0,L|18:308,1,55,2|0,0:3|0:0,0:0:0:0:
73,347,79895,2,0,P|131:300|180:316,1,110,6|2,3:3|0:3,0:0:0:0:
221,357,80185,2,0,P|282:379|330:344,1,110
359,288,80475,5,8,0:3:0:0:
210,170,80669,5,2,0:3:0:0:
385,98,80863,5,2,0:3:0:0:
323,181,81056,6,0,L|314:146,2,27.5,2|2|2,3:3|0:3|0:3,0:0:0:0:
348,196,81250,2,0,B|392:193|392:193|413:208|413:208|478:203,2,110,4|2|2,3:3|0:3|0:3,0:0:0:0:
234,304,81830,1,2,3:3:0:0:
228,331,81927,1,2,0:3:0:0:
221,357,82024,2,0,L|154:363,1,55,10|0,0:3|0:0,0:0:0:0:
64,298,82217,2,0,L|131:292,1,55,2|2,0:3|0:3,0:0:0:0:
210,170,82411,6,0,P|177:112|108:117,1,110,6|2,3:3|0:3,0:0:0:0:
74,146,82701,1,2,0:3:0:0:
74,146,82798,2,0,L|82:214,1,55,2|0,0:3|0:0,0:0:0:0:
118,293,82992,2,0,B|216:278|176:360|310:330,1,165,6|0,3:3|0:0,0:0:0:0:
338,295,83379,6,0,L|325:246,2,27.5,6|0|0,0:3|0:0|0:0,0:0:0:0:
359,312,83572,5,8,0:3:0:0:
500,171,83766,5,8,0:1:0:0:
270,93,83959,5,8,0:1:0:0:
478,28,84153,6,0,L|482:0,2,27.5,8|0|0,3:1|3:0|3:0,0:0:0:0:
490,56,84346,2,0,B|363:13|409:123|262:73,1,220,4|2,3:2|0:3,0:0:0:0:
199,45,84830,1,2,0:3:0:0:
183,59,84927,2,0,P|161:21|165:-8,1,55,2|0,3:3|0:0,0:0:0:0:
108,130,85121,1,8,0:3:0:0:
267,0,85314,1,2,0:3:0:0:
125,152,85508,6,0,B|171:156|171:156|185:173|185:173|250:178,1,110,2|2,3:3|0:3,0:0:0:0:
306,168,85798,1,0,0:0:0:0:
325,169,85895,2,0,P|340:208|337:231,1,55,2|2,0:3|0:3,0:0:0:0:
300,293,86088,1,6,3:3:0:0:
439,179,86282,1,2,0:3:0:0:
281,79,86475,1,2,0:3:0:0:
463,202,86669,6,0,L|454:282,1,55,10|0,0:3|0:0,0:0:0:0:
463,365,86863,1,2,3:3:0:0:
431,335,86959,1,2,0:3:0:0:
391,321,87056,1,2,0:3:0:0:
340,328,87153,1,2,0:3:0:0:
308,357,87250,2,0,L|316:398,2,27.5,2|0|0,0:3|0:0|0:0,0:0:0:0:
241,315,87443,5,2,3:3:0:0:
96,344,87637,1,2,0:3:0:0:
146,209,87830,1,2,0:3:0:0:
78,360,88024,6,0,P|48:330|40:290,1,55,2|0,3:3|0:0,0:0:0:0:
7,303,88217,2,0,P|14:231|68:189,1,110,8|2,0:3|0:3,0:0:0:0:
223,175,88604,2,0,P|156:163|132:93,1,110,6|2,3:3|0:3,0:0:0:0:
146,56,88895,1,2,0:3:0:0:
146,56,88992,1,6,0:3:0:0:
298,21,89185,5,4,3:2:0:0:
295,39,89250,5,0,0:0:0:0:
292,57,89314,5,0,0:0:0:0:
292,75,89379,5,8,0:3:0:0:
409,160,89572,5,2,0:3:0:0:
409,160,89669,2,0,L|430:155,4,13.75,8|0|0|0|8,0:1|0:0|0:0|0:0|0:1,0:0:0:0:
274,282,90056,6,0,L|253:277,4,13.75,8|0|0|0|8,0:1|0:0|0:0|0:0|0:1,0:0:0:0:
355,376,90540,5,4,3:2:0:0:
161,251,91314,2,0,P|170:191|205:83,1,165,2|0,0:3|0:0,0:0:0:0:
281,97,92088,2,0,P|287:138|306:185,2,82.5,2|2|2,0:3|0:3|0:3,0:0:0:0:
172,7,92863,5,2,0:3:0:0:
95,0,93153,1,2,0:3:0:0:
27,57,93443,1,2,0:3:0:0:
40,176,93637,6,0,B|99:196|143:162|140:153|138:143|178:104|240:117,1,220,2|2,0:3|0:3,0:0:0:0:
253,195,94798,2,0,P|306:232|325:125,1,220,2|0,0:3|0:0,0:0:0:0:
326,125,95959,1,2,0:3:0:0:
493,35,96733,6,0,P|476:91|461:215,1,165,4|0,3:2|0:0,0:0:0:0:
510,289,97508,2,0,P|452:277|367:344,1,165,2|0,0:3|0:0,0:0:0:0:
286,328,98282,2,0,P|283:292|306:230,2,82.5,0|2|2,3:0|0:3|0:3,0:0:0:0:
206,374,99056,5,2,0:3:0:0:
131,355,99346,1,2,0:3:0:0:
79,287,99637,1,2,0:3:0:0:
99,154,99830,5,8,0:1:0:0:
99,154,100217,1,8,0:1:0:0:
99,154,100604,1,8,0:1:0:0:
146,225,100992,5,8,0:1:0:0:
14,186,101185,1,8,0:1:0:0:
181,83,101379,1,8,0:1:0:0:
186,93,101475,6,0,L|180:117,6,13.75,0|8|8|8|8|8|8,0:0|0:1|0:1|0:1|0:1|0:1|0:3,0:0:0:0:
186,93,102540,5,8,0:1:0:0:
239,53,102669,5,8,0:1:0:0:
305,50,102798,5,8,0:1:0:0:
364,78,102927,6,0,B|320:110|338:179|372:197|372:197|420:226|426:284|385:338,1,263.99999194336,6|2,3:3|0:3,0:0:0:0:
162,347,103508,2,0,P|191:302|194:285,1,65.9999979858399,2|0,0:3|0:0,0:0:0:0:
312,376,103701,2,0,P|258:373|242:379,1,65.9999979858399,8|0,0:3|0:0,0:0:0:0:
261,232,103895,2,0,P|285:279|298:290,1,65.9999979858399,4|0,3:3|0:0,0:0:0:0:
244,320,104088,1,2,0:3:0:0:
83,197,104282,5,2,0:3:0:0:
59,187,104379,1,2,0:3:0:0:
37,190,104475,2,0,P|50:271|56:334,2,131.99999597168,2|0|2,0:3|3:0|0:3,0:0:0:0:
93,37,105056,6,0,L|162:47,1,65.9999979858399,2|0,0:3|0:0,0:0:0:0:
207,123,105250,2,0,L|280:113,1,65.9999979858399,8|0,0:3|0:0,0:0:0:0:
333,50,105443,2,0,L|414:58,1,65.9999979858399,2|0,0:3|0:0,0:0:0:0:
452,118,105637,1,2,0:3:0:0:
486,241,105830,6,0,L|476:294,2,43.9999986572266,0|0|0,3:0|3:0|3:0,0:0:0:0:
508,218,106024,2,0,B|357:195|417:322|242:292,1,263.99999194336,6|2,3:3|0:3,0:0:0:0:
39,278,106604,6,0,B|65:304|65:304|63:341,1,65.9999979858399,4|0,3:3|0:0,0:0:0:0:
149,222,106798,2,0,B|113:231|113:231|82:211,1,65.9999979858399,8|2,0:3|0:3,0:0:0:0:
141,345,106992,2,0,B|150:309|150:309|183:292,1,65.9999979858399,2|2,0:3|0:3,0:0:0:0:
242,360,107185,6,0,L|461:337,1,197.99999395752,0|0,3:0|0:0,0:0:0:0:
226,384,107572,5,2,0:3:0:0:
331,224,107766,2,0,L|341:273,4,32.99999899292,4|0|0|0|2,3:3|0:0|0:0|0:0|0:3,0:0:0:0:
118,79,108153,6,0,P|61:57|24:72,1,65.9999979858399,2|0,0:3|0:0,0:0:0:0:
57,137,108346,2,0,P|1:161|-14:198,1,65.9999979858399,8|0,0:3|0:0,0:0:0:0:
60,218,108540,2,0,P|38:275|53:312,1,65.9999979858399,4|0,3:3|0:0,0:0:0:0:
125,274,108733,6,0,P|156:345|203:365,1,131.99999597168,2|2,0:3|3:3,0:0:0:0:
209,358,108992,5,0,3:0:0:0:
217,348,109056,5,0,3:0:0:0:
224,337,109121,6,0,P|330:309|445:302,1,197.99999395752,6|2,3:3|0:3,0:0:0:0:
435,318,109508,1,2,0:3:0:0:
291,184,109701,1,2,0:3:0:0:
415,36,109895,2,0,P|406:120|407:140,1,65.9999979858399,8|0,0:3|0:0,0:0:0:0:
483,209,110088,6,0,P|486:183|490:155,1,32.99999899292,4|0,3:3|0:0,0:0:0:0:
486,176,110475,6,0,B|377:171|413:258|295:237,1,197.99999395752,2|0,0:3|0:0,0:0:0:0:
254,179,110863,2,0,P|225:223|233:259,1,65.9999979858399,4|0,3:3|0:0,0:0:0:0:
230,261,111056,1,2,0:3:0:0:
116,352,111250,6,0,P|73:301|71:266,1,65.9999979858399,2|2,0:3|0:3,0:0:0:0:
49,229,111443,2,0,P|54:162|77:136,1,65.9999979858399,8|0,0:3|0:0,0:0:0:0:
92,94,111637,2,0,P|143:51|178:49,1,65.9999979858399,2|2,0:3|0:3,0:0:0:0:
155,271,111830,6,0,P|135:210|171:135,1,131.99999597168,2|2,0:3|3:3,0:0:0:0:
170,147,112088,5,0,3:0:0:0:
183,145,112153,5,0,3:0:0:0:
195,142,112217,6,0,B|302:142|250:226|394:212,1,197.99999395752,6|2,3:3|0:3,0:0:0:0:
405,200,112604,1,2,0:3:0:0:
493,80,112798,1,0,3:0:0:0:
384,25,112992,2,0,B|368:57|368:57|393:106,1,65.9999979858399,8|0,0:3|0:0,0:0:0:0:
405,200,113185,6,0,B|451:158|451:158|402:79,1,131.99999597168,2|6,0:3|3:3,0:0:0:0:
484,279,113572,6,0,P|364:305|220:366,1,263.99999194336,2|6,0:3|3:3,0:0:0:0:
107,315,114153,1,2,0:3:0:0:
61,299,114250,1,2,0:3:0:0:
39,259,114346,1,2,0:3:0:0:
41,212,114443,1,2,0:3:0:0:
71,177,114540,5,8,0:3:0:0:
167,148,114733,5,8,0:1:0:0:
251,204,114927,5,8,0:1:0:0:
363,208,115121,5,8,0:1:0:0:
435,126,115314,6,0,B|435:105|447:83|447:83|400:51|354:81|357:89|360:99|325:124|278:113,1,220,6|2,3:3|0:3,0:0:0:0:
202,20,115895,2,0,P|233:27|247:57,1,55,2|0,0:3|0:0,0:0:0:0:
217,221,116088,2,0,P|221:177|228:146,1,55,8|0,0:3|0:0,0:0:0:0:
75,67,116282,6,0,P|87:105|115:301,1,220,4|2,3:3|0:3,0:0:0:0:
85,356,116766,1,2,0:3:0:0:
85,356,116863,1,2,0:3:0:0:
194,301,117056,6,0,B|251:322|287:277|282:271|278:261|328:213|390:232,1,220,0|2,3:0|0:3,0:0:0:0:
444,288,117540,1,0,0:0:0:0:
455,297,117637,2,0,L|467:365,1,55,8|0,0:3|0:0,0:0:0:0:
358,314,117830,2,0,L|346:382,1,55,2|0,0:3|0:0,0:0:0:0:
492,163,118024,6,0,L|504:231,1,55,2|0,0:3|0:0,0:0:0:0:
359,98,118217,2,0,L|347:166,1,55,0|0,3:0|0:0,0:0:0:0:
209,293,118411,6,0,P|198:243|131:216,1,110,6|2,3:3|0:3,0:0:0:0:
82,168,118701,1,2,0:3:0:0:
69,172,118798,2,0,P|56:208|72:231,1,55,2|0,0:3|0:0,0:0:0:0:
104,350,118992,2,0,P|108:331|109:258,1,55,4|0,3:3|0:0,0:0:0:0:
210,42,119185,6,0,P|214:107|223:172,1,110,8|2,0:3|0:3,0:0:0:0:
273,217,119475,1,2,0:3:0:0:
287,220,119572,2,0,P|314:188|293:122,2,110,0|2|2,3:0|0:3|0:3,0:0:0:0:
115,345,120153,6,0,P|199:325|358:329,1,220,4|2,3:3|0:3,0:0:0:0:
404,363,120637,1,0,0:0:0:0:
418,359,120733,2,0,P|436:321|401:292,1,55,8|0,0:3|0:0,0:0:0:0:
370,204,120927,2,0,P|362:245|403:264,1,55,4|0,3:3|0:0,0:0:0:0:
504,275,121121,1,2,0:3:0:0:
421,132,121314,5,2,3:3:0:0:
421,132,121379,5,0,3:0:0:0:
421,132,121443,5,0,3:0:0:0:
421,132,121508,6,0,B|376:95|316:122|316:130|317:142|279:179|214:169,1,220,6|2,3:3|0:3,0:0:0:0:
156,107,122088,1,2,0:3:0:0:
160,279,122282,2,0,P|165:249|162:225,1,55,8|0,0:3|0:0,0:0:0:0:
22,72,122475,2,0,P|29:114|107:128,1,110,4|2,3:3|0:3,0:0:0:0:
314,43,122863,6,0,P|288:108|273:216,1,165,2|0,0:3|0:0,0:0:0:0:
268,220,123250,2,0,B|308:233|349:208|348:199|347:191|378:156|419:162,1,165,4|2,3:3|0:3,0:0:0:0:
475,203,123637,1,2,0:3:0:0:
407,344,123830,6,0,P|398:310|400:274,1,55,8|0,0:3|0:0,0:0:0:0:
487,358,124024,2,0,P|491:328|502:301,1,55,2|2,0:3|0:3,0:0:0:0:
338,384,124217,2,0,P|315:353|306:291,1,55,2|2,0:3|0:3,0:0:0:0:
406,118,124411,2,0,P|393:103|379:96,2,36.6666666666667,2|0|0,3:3|3:0|3:0,0:0:0:0:
408,131,124604,6,0,P|297:137|260:31,1,220,6|2,3:3|0:3,0:0:0:0:
467,0,125185,2,0,P|451:37|444:77,1,55,0|0,3:0|0:0,0:0:0:0:
486,211,125379,1,8,0:3:0:0:
348,250,125572,5,2,0:3:0:0:
294,186,125766,2,0,B|237:165|193:202|196:208|201:218|158:266|92:242,1,220,6|2,3:3|0:3,0:0:0:0:
57,86,126346,2,0,P|106:121|120:173,2,110,6|2|2,3:3|0:3|0:3,0:0:0:0:
10,20,126830,1,2,0:3:0:0:
21,7,126927,6,0,P|54:2|111:15,1,55,8|0,0:3|0:0,0:0:0:0:
264,54,127121,2,0,P|224:63|192:79,1,55,4|0,3:3|0:0,0:0:0:0:
117,248,127314,1,2,0:3:0:0:
117,248,127508,1,2,0:3:0:0:
33,195,127701,6,0,P|93:150|210:223,1,220,12|2,3:2|0:3,0:0:0:0:
204,233,128185,1,0,0:0:0:0:
191,246,128282,2,0,P|169:230|172:179,1,55,0|0,3:0|0:0,0:0:0:0:
332,158,128475,6,0,P|308:260|247:343,1,165,10|0,0:3|0:0,0:0:0:0:
256,316,128863,1,0,3:0:0:0:
420,304,129056,2,0,P|392:240|391:216,1,55
332,158,129250,5,2,0:3:0:0:
369,151,129379,1,2,0:3:0:0:
486,54,129637,1,2,0:3:0:0:
449,47,129766,1,2,0:3:0:0:
209,6,130024,6,0,P|236:111|240:142,1,110,14|0,0:3|0:0,0:0:0:0:
222,133,130314,1,0,0:0:0:0:
181,142,130411,1,0,0:0:0:0:
136,175,130508,1,0,0:0:0:0:
127,233,130604,1,0,0:0:0:0:
168,278,130701,1,0,0:0:0:0:
242,320,130810,6,0,P|305:307|320:307,1,46.7500008916855,8|0,0:1|0:0,0:0:0:0:
414,284,131238,6,0,P|380:276|350:260,1,70.1250013375283,8|0,0:1|0:0,0:0:0:0:
477,332,131667,5,2,0:3:0:0:
477,332,132524,6,0,P|432:271|318:295,1,187.000003566742,4|2,3:3|0:3,0:0:0:0:
284,347,133095,1,2,0:3:0:0:
206,358,133238,1,2,0:3:0:0:
140,312,133381,2,0,P|130:261|124:242,2,46.7500008916855,8|0|0,0:1|0:0|0:0,0:0:0:0:
12,190,133810,6,0,P|47:132|156:146,1,187.000003566742,2|2,0:3|0:3,0:0:0:0:
153,143,134452,1,0,0:0:0:0:
306,134,134667,6,0,P|282:145|252:152,1,31.1666672611237,2|2,0:3|0:3,0:0:0:0:
285,181,134810,2,0,P|260:172|233:156,1,31.1666672611237,2|2,0:3|0:3,0:0:0:0:
237,201,134952,2,0,P|225:177|218:147,1,31.1666672611237,2|2,0:3|0:3,0:0:0:0:
153,143,135095,1,8,0:3:0:0:
486,23,135952,6,0,P|454:116|444:215,1,187.000003566742,4|2,3:3|0:3,0:0:0:0:
477,277,136524,1,0,0:0:0:0:
433,343,136667,1,0,0:0:0:0:
354,347,136810,1,8,0:1:0:0:
298,289,136952,1,2,0:3:0:0:
220,280,137095,1,2,0:3:0:0:
160,333,137238,2,0,P|100:325|59:322,1,93.500001783371,2|0,0:3|3:0,0:0:0:0:
67,322,137881,5,2,0:3:0:0:
67,322,138095,1,2,0:3:0:0:
27,244,138310,5,2,0:3:0:0:
27,244,138524,1,6,3:3:0:0:
95,151,138738,5,2,0:3:0:0:
95,151,138952,1,2,0:3:0:0:
15,43,139167,5,2,0:3:0:0:
95,151,139381,6,0,B|196:156|152:86|293:98,1,187.000003566742,4|2,3:3|0:3,0:0:0:0:
324,39,139952,1,0,0:0:0:0:
385,89,140095,1,2,0:3:0:0:
463,97,140238,1,10,0:3:0:0:
418,161,140381,1,2,0:3:0:0:
436,238,140524,1,2,0:3:0:0:
507,267,140667,6,0,P|502:336|502:377,2,93.500001783371,2|2|2,0:3|0:3|0:3,0:0:0:0:
507,267,141310,1,0,0:0:0:0:
354,264,141524,6,0,P|381:252|405:252,1,31.1666672611237,2|2,0:3|0:3,0:0:0:0:
378,208,141667,2,0,P|405:219|422:236,1,31.1666672611237,2|2,0:3|0:3,0:0:0:0:
435,188,141810,2,0,P|446:215|446:239,1,31.1666672611237,2|2,0:3|0:3,0:0:0:0:
507,267,141952,1,10,0:3:0:0:
102,153,142810,5,4,3:3:0:0:
56,89,142952,1,2,0:3:0:0:
122,47,143095,1,2,0:3:0:0:
171,109,143238,1,2,0:3:0:0:
102,153,143381,2,0,P|116:226|118:246,1,62.3333345222473,2|0,0:3|0:0,0:0:0:0:
59,298,143667,5,8,0:1:0:0:
137,286,143810,1,2,0:3:0:0:
216,272,143952,1,2,0:3:0:0:
293,292,144095,2,0,P|355:310|395:338,1,93.500001783371,2|0,0:3|3:0,0:0:0:0:
379,325,144524,5,2,0:3:0:0:
412,253,144667,1,2,0:3:0:0:
362,192,144810,1,2,0:3:0:0:
397,123,144952,1,0,0:0:0:0:
475,117,145095,2,0,P|482:71|493:30,1,62.3333345222473,2|0,0:3|0:0,0:0:0:0:
327,88,145381,5,8,0:1:0:0:
397,123,145524,1,2,0:3:0:0:
395,46,145667,1,2,0:3:0:0:
327,88,145810,2,0,P|253:101|213:60,1,124.666669044495,2|0,0:3|0:0,0:0:0:0:
218,60,146238,6,0,P|188:97|146:203,1,155.833336305618,4|0,0:2|0:0,0:0:0:0:
151,205,146667,5,4,0:2:0:0:
225,194,146810,1,2,0:3:0:0:
202,264,146952,1,2,0:3:0:0:
69,288,147095,6,0,B|116:277|135:308|135:314|135:322|156:352|207:345,1,155.833336305618,4|0,0:2|0:0,0:0:0:0:
214,352,147524,5,2,0:3:0:0:
324,294,147653,1,2,0:3:0:0:
229,368,147782,1,2,0:3:0:0:
436,384,147952,6,0,P|416:328|399:146,1,220,4|0,3:3|0:0,0:0:0:0:
420,378,148595,2,0,P|404:344|395:316,1,55,2|0,0:3|0:0,0:0:0:0:
386,91,148810,1,10,0:3:0:0:
512,195,149238,5,2,0:3:0:0:
512,195,149345,1,0,0:0:0:0:
512,195,149452,1,2,0:3:0:0:
301,154,149667,1,2,0:3:0:0:
374,276,149881,2,0,P|414:181|419:121,1,165,0|0,3:0|0:0,0:0:0:0:
430,107,150310,2,0,P|449:116|464:137,2,36.6666666666667,2|2|2,0:3|0:3|0:3,0:0:0:0:
311,51,150524,6,0,B|256:56|256:56|253:63|253:63|177:70,1,110,8|0,0:1|0:0,0:0:0:0:
157,129,150952,1,2,0:3:0:0:
157,129,151060,1,2,0:3:0:0:
157,129,151167,1,2,0:3:0:0:
15,60,151381,6,0,P|51:112|105:302,1,220,4|0,3:3|0:0,0:0:0:0:
28,51,152024,2,0,P|59:86|69:108,1,55
73,335,152238,1,8,0:1:0:0:
192,214,152667,5,2,3:3:0:0:
192,214,152774,1,2,0:3:0:0:
192,214,152881,2,0,P|222:202|267:198,1,55,2|0,0:3|0:0,0:0:0:0:
310,246,153095,2,0,P|301:283|300:333,1,55,2|0,0:3|0:0,0:0:0:0:
457,326,153381,2,0,P|457:271|421:127,1,183.333333333333,2|2,0:3|0:3,0:0:0:0:
339,77,153952,6,0,L|278:87,1,55,10|0,0:3|0:0,0:0:0:0:
252,72,154167,1,2,3:3:0:0:
193,144,154381,6,0,L|132:137,1,55,2|0,0:3|0:0,0:0:0:0:
121,160,154595,1,2,0:3:0:0:
121,160,154667,1,0,0:0:0:0:
22,26,154810,6,0,P|59:81|67:118,1,73.3333333333333,4|2,3:3|0:3,0:0:0:0:
61,87,155024,1,0,0:0:0:0:
61,87,155095,1,2,0:3:0:0:
6,174,155238,2,0,P|0:205|1:241,1,55,2|0,0:3|0:0,0:0:0:0:
43,296,155452,2,0,P|44:319|38:341,2,36.6666666666667,2|2|2,0:3|0:3|0:3,0:0:0:0:
111,244,155666,6,0,P|142:247|168:269,1,55,8|0,0:1|0:0,0:0:0:0:
174,258,155881,1,2,0:3:0:0:
294,358,156095,2,0,P|246:359|208:371,2,55,0|0|0,3:0|0:0|0:0,0:0:0:0:
276,247,156524,6,0,P|267:266|266:289,6,27.5,2|2|2|2|2|2|2,0:3|0:3|0:3|0:3|0:3|0:3|0:3,0:0:0:0:
298,173,156952,2,0,P|356:166|400:210,1,110,2|0,0:3|0:0,0:0:0:0:
395,208,157238,2,0,L|401:242,4,18.3333333333333,2|0|0|0|8,0:3|0:0|0:0|0:0|0:1,0:0:0:0:
474,104,157595,5,2,0:3:0:0:
481,116,157667,2,0,P|488:62|481:31,2,73.3333333333333,8|2|8,0:1|0:3|0:1,0:0:0:0:
489,126,158024,1,2,0:3:0:0:
346,80,158238,6,0,P|266:60|189:79,1,131.99999597168,4|0,3:3|0:0,0:0:0:0:
217,75,158524,2,0,P|255:81|245:8,1,131.99999597168,10|0,0:3|0:0,0:0:0:0:
253,10,158810,1,8,0:3:0:0:
253,10,158881,1,4,3:3:0:0:
90,52,159095,6,0,P|125:123|129:165,1,87.9999973144532,8|2,0:3|0:3,0:0:0:0:
126,130,159310,1,0,0:0:0:0:
126,130,159381,1,8,0:1:0:0:
23,170,159524,5,4,3:3:0:0:
1,246,159667,1,2,0:3:0:0:
79,230,159810,1,2,0:3:0:0:
144,303,159952,6,0,P|134:328|130:352,2,43.9999986572266,8|2|2,0:3|0:3|0:3,0:0:0:0:
154,296,160167,1,4,3:3:0:0:
248,227,160381,6,0,P|279:269|294:327,1,87.9999973144532,2|2,0:3|0:3,0:0:0:0:
305,317,160595,1,8,0:1:0:0:
305,317,160667,1,8,0:1:0:0:
305,317,160738,1,8,0:1:0:0:
305,317,160810,6,0,P|359:317|374:255,1,87.9999973144532,12|0,3:3|0:0,0:0:0:0:
389,282,161024,2,0,P|383:233|389:158,1,87.9999973144532,8|0,0:1|0:0,0:0:0:0:
432,130,161238,5,8,3:1:0:0:
483,226,161381,5,8,0:1:0:0:
298,163,161524,5,8,0:1:0:0:
298,163,162441,5,8,0:1:0:0:
242,201,162570,5,8,0:1:0:0:
227,266,162699,5,8,0:1:0:0:
170,335,162828,5,8,0:1:0:0:
109,360,162957,5,8,0:1:0:0:
46,336,163086,5,8,0:1:0:0:
29,258,163215,6,0,B|168:249|114:356|228:372|282:338,1,263.99999194336,6|2,3:3|0:3,0:0:0:0:
487,348,163796,2,0,P|432:375|400:364,1,55,2|0,0:3|0:0,0:0:0:0:
440,227,163989,2,0,P|490:262|497:295,1,55,8|0,0:3|0:0,0:0:0:0:
352,329,164183,2,0,P|356:268|381:246,1,55,4|0,3:3|0:0,0:0:0:0:
425,301,164376,1,2,0:3:0:0:
357,148,164570,5,2,0:3:0:0:
358,131,164666,1,2,0:3:0:0:
370,115,164763,2,0,P|471:135|489:164,2,110,2|0|2,0:3|3:0|0:3,0:0:0:0:
308,3,165344,6,0,B|283:24|283:24|233:21,1,55,2|0,0:3|0:0,0:0:0:0:
208,117,165537,2,0,B|183:96|183:96|133:99,1,55,8|0,0:3|0:0,0:0:0:0:
105,29,165731,2,0,B|80:50|80:50|30:47,1,55,2|0,0:3|0:0,0:0:0:0:
1,109,165925,1,2,0:3:0:0:
62,290,166118,6,0,L|74:250,2,36.6666666666667,0|0|0,3:0|3:0|3:0,0:0:0:0:
75,306,166312,2,0,P|142:273|74:175,1,220,6|2,3:3|0:3,0:0:0:0:
214,330,166892,1,4,3:3:0:0:
272,277,167086,2,0,L|352:287,1,55,8|2,0:3|0:3,0:0:0:0:
288,265,167279,2,0,L|368:275,1,55,2|2,0:3|0:3,0:0:0:0:
393,167,167473,2,0,L|220:184,1,165,0|0,3:0|0:0,0:0:0:0:
406,136,167860,5,2,0:3:0:0:
306,58,168054,2,0,L|313:24,4,27.5,4|0|0|0|2,3:3|0:0|0:0|0:0|0:3,0:0:0:0:
81,175,168441,6,0,P|96:224|92:251,1,55,2|0,0:3|0:0,0:0:0:0:
228,184,168634,2,0,P|178:173|156:156,1,55,8|0,0:3|0:0,0:0:0:0:
148,304,168828,2,0,P|182:267|208:257,1,55,4|0,3:3|0:0,0:0:0:0:
359,374,169021,6,0,P|297:370|269:311,1,110,2|2,0:3|3:3,0:0:0:0:
276,325,169279,5,0,3:0:0:0:
279,315,169344,5,0,3:0:0:0:
284,306,169408,6,0,B|383:288|453:247,1,165,6|2,3:3|0:3,0:0:0:0:
464,267,169796,1,2,0:3:0:0:
228,184,169989,1,2,0:3:0:0:
404,42,170183,2,0,B|418:68|418:68|410:109,1,55,8|0,0:3|0:0,0:0:0:0:
339,184,170376,6,0,L|331:131,1,27.5,4|0,3:3|0:0,0:0:0:0:
334,157,170763,6,0,B|190:137|267:242|78:194,1,220,2|4,0:3|3:3,0:0:0:0:
109,191,171247,1,0,0:0:0:0:
102,172,171344,1,2,0:3:0:0:
210,283,171537,6,0,L|193:349,1,55,2|2,0:3|0:3,0:0:0:0:
319,293,171731,2,0,L|302:227,1,55,8|0,0:3|0:0,0:0:0:0:
279,370,171925,1,2,0:3:0:0:
227,197,172118,1,2,0:3:0:0:
413,253,172312,5,2,3:3:0:0:
413,253,172376,5,0,3:0:0:0:
413,253,172441,5,0,3:0:0:0:
413,253,172505,6,0,B|407:171|390:94|390:94|428:109|463:68,1,220,6|2,3:3|0:3,0:0:0:0:
408,14,173086,1,0,3:0:0:0:
178,180,173279,2,0,B|204:200|204:200|245:196,1,55,8|0,0:3|0:0,0:0:0:0:
285,123,173473,6,0,B|241:84|241:84|174:90,1,110,2|6,0:3|3:3,0:0:0:0:
221,290,173860,6,0,P|291:273|392:266,1,165,2|2,0:3|0:3,0:0:0:0:
402,276,174247,6,0,L|399:327,1,27.5,8|0,0:1|0:0,0:0:0:0:
350,174,174441,6,0,L|352:210,1,27.5,8|0,0:1|0:0,0:0:0:0:
226,119,174634,6,0,L|232:154,1,27.5,8|0,0:1|0:0,0:0:0:0:
88,110,174828,6,0,L|98:140,1,27.5,8|0,0:3|0:0,0:0:0:0:
96,135,175408,6,0,L|85:101,2,36.6666666666667,8|0|0,0:1|0:0|0:0,0:0:0:0:
96,135,175602,6,0,B|79:156|81:178|81:178|121:212|179:181|177:175|177:166|215:131|267:140,1,247.500009441376,6|0,3:3|0:0,0:0:0:0:
308,208,175989,2,0,P|288:231|301:277,1,65.9999979858399,2|0,0:3|0:0,0:0:0:0:
366,286,176183,2,0,P|386:263|373:217,1,65.9999979858399,2|0,0:3|0:0,0:0:0:0:
255,62,176376,5,8,0:3:0:0:
433,0,176570,2,0,P|407:73|414:163,1,131.99999597168,4|2,3:3|0:3,0:0:0:0:
461,191,176860,1,2,0:3:0:0:
461,191,176957,1,2,0:3:0:0:
283,287,177150,1,2,0:3:0:0:
433,321,177344,6,0,B|388:302|347:334|350:341|351:347|310:386|250:365,1,197.99999395752,0|0,3:0|0:0,0:0:0:0:
200,302,177731,1,2,0:3:0:0:
224,108,177925,6,0,P|279:107|290:175,1,131.99999597168,8|2,0:3|0:3,0:0:0:0:
235,224,178215,1,0,0:0:0:0:
235,224,178312,1,2,0:3:0:0:
50,217,178505,6,0,P|78:217|132:256,1,65.9999979858399,0|0,3:0|0:0,0:0:0:0:
50,205,178699,2,0,P|106:213|155:362,1,197.99999395752,6|2,3:3|0:3,0:0:0:0:
112,384,179086,1,2,0:3:0:0:
311,302,179279,5,4,3:3:0:0:
311,302,179376,1,0,0:0:0:0:
311,302,179473,2,0,L|333:162,1,131.99999597168,8|2,0:3|0:3,0:0:0:0:
317,95,179763,1,2,0:3:0:0:
312,79,179860,2,0,P|263:69|276:163,1,131.99999597168,0|2,3:0|0:3,0:0:0:0:
401,117,180247,5,2,0:3:0:0:
420,342,180441,2,0,L|403:171,2,131.99999597168,4|2|2,3:3|0:3|0:3,0:0:0:0:
335,378,180925,5,0,0:0:0:0:
313,384,181021,2,0,P|281:372|247:320,1,65.9999979858399,8|0,0:3|0:0,0:0:0:0:
316,229,181215,1,4,3:3:0:0:
135,335,181408,6,0,P|148:289|167:259,1,65.9999979858399,10|0,0:3|0:0,0:0:0:0:
312,240,181602,2,0,P|324:255|330:270,4,21.9999993286133,2|0|0|0|0,3:3|0:0|3:0|0:0|3:0,0:0:0:0:
241,183,181796,6,0,P|233:129|248:37,1,131.99999597168,6|2,3:3|0:3,0:0:0:0:
320,9,182086,1,2,0:3:0:0:
358,39,182183,2,0,P|362:74|321:109,1,65.9999979858399,2|0,0:3|0:0,0:0:0:0:
170,1,182376,1,2,0:3:0:0:
428,147,182570,6,0,P|411:193|412:252,1,65.9999979858399,8|0,0:3|0:0,0:0:0:0:
414,144,182763,2,0,P|395:234|420:304,1,131.99999597168,4|2,3:3|0:3,0:0:0:0:
444,350,183054,5,0,0:0:0:0:
444,350,183150,2,0,B|397:381|340:349|343:341|345:331|319:294|256:307,1,197.99999395752,2|0,0:3|0:0,0:0:0:0:
197,340,183537,1,4,3:3:0:0:
228,235,183731,6,0,P|248:179|154:137,1,131.99999597168,2|2,0:3|0:3,0:0:0:0:
126,141,184021,1,2,0:3:0:0:
114,149,184118,2,0,L|126:238,1,65.9999979858399,8|0,0:3|0:0,0:0:0:0:
37,105,184312,2,0,L|18:193,1,65.9999979858399,2|2,0:3|0:3,0:0:0:0:
89,284,184505,1,2,0:3:0:0:
38,377,184699,5,2,3:3:0:0:
43,370,184763,5,0,3:0:0:0:
51,365,184828,5,0,3:0:0:0:
57,359,184892,6,0,B|97:384|146:356|145:347|146:336|184:303|237:312,1,197.99999395752,6|2,3:3|0:3,0:0:0:0:
296,363,185279,1,2,0:3:0:0:
321,222,185473,6,0,P|308:261|324:295,1,65.9999979858399,0|0,3:0|0:0,0:0:0:0:
396,291,185666,2,0,P|409:252|393:218,1,65.9999979858399,8|0,0:3|0:0,0:0:0:0:
235,34,185860,5,2,0:3:0:0:
371,121,186054,2,0,B|306:155|257:114|259:100|262:81|218:29|127:59,1,263.99999194336,6|2,3:3|0:3,0:0:0:0:
131,77,186634,2,0,B|188:106|242:66|238:54|234:44|265:15|307:16,1,197.99999395752,6|0,3:3|0:0,0:0:0:0:
385,54,187021,5,2,0:3:0:0:
385,54,187118,1,2,0:3:0:0:
385,54,187215,2,0,P|363:96|357:160,1,65.9999979858399,8|0,0:3|0:0,0:0:0:0:
447,115,187408,2,0,P|442:155|458:213,1,65.9999979858399,4|0,3:3|0:0,0:0:0:0:
512,231,187602,5,2,0:3:0:0:
388,275,187796,5,8,0:1:0:0:
375,273,187860,5,0,0:0:0:0:
363,271,187925,5,0,0:0:0:0:
348,267,187989,6,0,P|328:320|343:359,1,82.5000031471254,12|0,3:2|0:0,0:0:0:0:
460,384,188376,5,2,0:3:0:0:
460,384,188505,1,2,0:3:0:0:
268,191,188763,5,10,0:3:0:0:
191,203,188957,2,0,P|164:251|253:290,1,165.000006294251,4|0,3:3|0:0,0:0:0:0:
348,163,189537,5,10,0:3:0:0:
348,163,189666,1,2,0:3:0:0:
153,65,189925,5,10,0:3:0:0:
153,65,190054,1,2,0:3:0:0:
263,1,190312,6,0,P|250:78|244:189,1,165.000006294251,6|0,0:3|0:0,0:0:0:0:
