osu file format v14

[General]
AudioFilename: audio.mp3
AudioLeadIn: 0
PreviewTime: 62863
Countdown: 0
SampleSet: Soft
StackLeniency: 0.3
Mode: 0
LetterboxInBreaks: 0
WidescreenStoryboard: 1

[Editor]
Bookmarks: 461,19041,37622,50009,62396,77880,90267,102654,115041,127428,146009,163041,175428,189988
DistanceSpacing: 1.3
BeatDivisor: 12
GridSize: 8
TimelineZoom: 3.399999

[Metadata]
Title:GIANTS (feat. Becky G, Keke Palmer, SOYEON, DUCKWRTH, Thutmose)
TitleUnicode:GIANTS (feat. Becky G, Keke Palmer, 소연, DUCKWRTH, Thutmose)
Artist:True Damage
ArtistUnicode:True Damage
Creator:-Mikan
Version:Panda & Mikan's Challenger
Source:League of Legends
Tags:rap pop adioni DeviousPanda skin ekko yasuo senna qiyana akali worlds 2019 finals riot games (G)I-DLE english korean video game kpop hip-hop hip hop
BeatmapID:2373738
BeatmapSetID:1136624

[Difficulty]
HPDrainRate:5.2
CircleSize:3.7
OverallDifficulty:8.8
ApproachRate:9.4
SliderMultiplier:2.8
SliderTickRate:1

[Events]
//Background and Video events
0,0,"true damage.jpg",0,0
Video,241,"video.mp4"
//Break Periods
//Storyboard Layer 0 (Background)
//Storyboard Layer 1 (Fail)
//Storyboard Layer 2 (Pass)
//Storyboard Layer 3 (Foreground)
//Storyboard Layer 4 (Overlay)
//Storyboard Sound Samples

[TimingPoints]
734,387.096774193548,4,2,1,40,1,0
3830,-100,4,2,1,5,0,0
4217,-100,4,2,1,15,0,0
4604,-100,4,2,1,25,0,0
4992,-100,4,2,1,35,0,0
5379,-100,4,2,1,45,0,0
5766,-100,4,2,1,45,0,0
6927,-133.333333333333,4,2,1,45,0,0
7701,-133.333333333333,4,2,2,45,0,0
8863,-399.999999999997,4,2,2,45,0,0
9056,-200,4,2,2,45,0,0
9250,-66.6666666666667,4,2,2,45,0,0
9637,-100,4,2,2,45,0,0
11766,-100,4,2,1,45,0,0
12346,-100,4,2,2,45,0,0
12733,-200,4,2,2,45,0,0
13121,-66.6666666666667,4,2,2,45,0,0
13508,-100,4,2,2,45,0,0
16217,-66.6666666666667,4,2,2,45,0,0
16604,-100,4,2,2,45,0,0
16992,-100,4,2,3,45,0,0
17379,-100,4,2,2,45,0,0
18346,-133.333333333333,4,2,2,45,0,0
18733,-133.333333333333,4,2,1,45,0,0
18927,-200,4,2,1,45,0,0
19508,-100,4,2,1,45,0,0
20088,-100,4,2,2,45,0,0
20669,-133.333333333333,4,2,2,45,0,0
21637,-100,4,2,2,45,0,0
21830,-71.4285714285714,4,2,2,45,0,0
22992,-133.333333333333,4,2,2,45,0,0
23185,-100,4,2,2,45,0,0
24733,-100,4,2,2,55,0,0
24927,-100,4,2,1,55,0,0
25121,-57.1428571428571,4,2,2,55,0,0
25363,-100,4,2,2,55,0,0
25508,-100,4,2,3,60,0,1
26282,-100,4,2,2,60,0,1
27830,-71.4285714285714,4,2,2,60,0,1
30540,-100,4,2,2,60,0,1
30927,-133.333333333333,4,2,2,50,0,0
31701,-133.333333333333,4,2,4,50,0,0
31895,-100,4,2,4,50,0,0
32475,-71.4285714285714,4,2,4,50,0,0
33056,-142.857142857143,4,2,4,50,0,0
33443,-100,4,2,2,50,0,0
34024,-66.6666666666667,4,2,2,50,0,0
34411,-100,4,2,2,50,0,0
36346,-66.6666666666667,4,2,2,50,0,0
37121,-80,4,2,2,50,0,0
37895,-80,4,2,2,35,0,0
38669,-200,4,2,2,35,0,0
42153,-500,4,2,2,35,0,0
44088,-200,4,2,2,35,0,0
47185,-200,4,2,1,35,0,0
47572,-142.857142857143,4,2,1,35,0,0
47959,-111.111111111111,4,2,1,35,0,0
48346,-90.9090909090909,4,2,1,35,0,0
48733,-76.9230769230769,4,2,1,35,0,0
48927,-76.9230769230769,4,2,1,30,0,0
49120,-76.9230769230769,4,2,2,30,0,0
50088,-76.9230769230769,4,2,1,55,0,0
50282,-66.6666666666667,4,2,3,65,0,1
50863,-133.333333333333,4,2,3,65,0,1
51056,-76.9230769230769,4,2,2,65,0,1
52798,-222.222222222221,4,2,2,65,0,1
53379,-66.6666666666667,4,2,3,65,0,1
53959,-76.9230769230769,4,2,2,65,0,1
55508,-133.333333333333,4,2,2,65,0,1
55701,-100,4,2,2,65,0,1
55895,-76.9230769230769,4,2,2,65,0,1
56088,-66.6666666666667,4,2,2,65,0,1
56475,-100,4,2,3,65,0,1
57250,-100,4,2,2,65,0,1
58992,-222.222222222221,4,2,2,65,0,1
59572,-90.9090909090909,4,2,3,65,0,1
60346,-90.9090909090909,4,2,2,65,0,1
61508,-133.333333333333,4,2,2,65,0,1
61895,-133.333333333333,4,2,3,65,0,0
63056,-133.333333333333,4,2,3,45,0,0
63443,-200,4,2,3,45,0,0
64992,-200,4,2,4,45,0,0
65766,-66.6666666666667,4,2,1,45,0,0
66153,-100,4,2,1,45,0,0
66540,-100,4,2,2,45,0,0
67185,-100,4,2,2,45,0,0
67314,-100,4,2,2,45,0,0
68475,-133.333333333333,4,2,2,45,0,0
68668,-133.333333333333,4,2,1,45,0,0
68863,-66.6666666666667,4,2,1,45,0,0
69443,-100,4,2,1,45,0,0
69637,-80,4,2,2,45,0,0
70604,-100,4,2,2,45,0,0
71572,-133.333333333333,4,2,4,45,0,0
71959,-133.333333333333,4,2,1,45,0,0
72153,-105.263157894737,4,2,1,45,0,0
72346,-86.9565217391303,4,2,4,45,0,0
72540,-74.0740740740741,4,2,4,45,0,0
72733,-64.5161290322581,4,2,4,45,0,0
73121,-86.9565217391304,4,2,4,45,0,0
73508,-133.333333333333,4,2,4,45,0,0
73701,-105.263157894737,4,2,2,45,0,0
73895,-86.9565217391303,4,2,2,45,0,0
74088,-74.0740740740741,4,2,2,45,0,0
74475,-133.333333333333,4,2,2,45,0,0
75056,-100,4,2,1,45,0,0
75830,-76.9230769230769,4,2,2,45,0,0
76217,-76.9230769230769,4,2,1,45,0,0
78153,-100,4,2,1,45,0,0
78540,-76.9230769230769,4,2,1,45,0,0
78927,-100,4,2,2,45,0,0
79314,-76.9230769230769,4,2,2,45,0,0
79895,-222.222222222221,4,2,2,45,0,0
80088,-76.9230769230769,4,2,2,45,0,0
80475,-66.6666666666667,4,2,2,45,0,0
80863,-62.5,4,2,2,45,0,0
81056,-83.3333333333333,4,2,2,45,0,0
81250,-100,4,2,2,45,0,0
81443,-76.9230769230769,4,2,2,45,0,0
82024,-100,4,2,2,45,0,0
82411,-66.6666666666667,4,2,2,45,0,0
82798,-200,4,2,2,45,0,0
82992,-66.6666666666667,4,2,2,45,0,0
83379,-100,4,2,4,45,0,0
83572,-50,4,2,3,45,0,0
83766,-50,4,2,1,45,0,0
84733,-76.9230769230769,4,2,1,45,0,0
84927,-66.6666666666667,4,2,1,45,0,0
85121,-66.6666666666667,4,2,2,45,0,0
85701,-100,4,2,2,45,0,0
86475,-76.9230769230769,4,2,2,45,0,0
86863,-100,4,2,2,45,0,0
86959,-76.9230769230769,4,2,2,45,0,0
87056,-62.5,4,2,2,45,0,0
87153,-52.6315789473684,4,2,2,45,0,0
87250,-166.666666666667,4,2,2,45,0,0
87637,-100,4,2,2,45,0,0
88798,-50,4,2,2,45,0,0
88992,-66.6666666666667,4,2,4,45,0,0
89185,-66.6666666666667,4,2,2,45,0,0
89379,-66.6666666666667,4,2,3,45,0,0
89669,-66.6666666666667,4,2,1,45,0,0
90540,-200,4,2,2,35,0,0
99830,-200,4,2,1,35,0,0
100217,-142.857142857143,4,2,1,35,0,0
100604,-111.111111111111,4,2,1,35,0,0
100992,-90.9090909090909,4,2,1,35,0,0
101185,-76.9230769230769,4,2,1,35,0,0
101379,-66.6666666666667,4,2,1,35,0,0
101765,-66.6666666666667,4,2,2,35,0,0
102540,-66.6666666666667,4,2,1,55,0,0
102927,-66.6666666666667,4,2,3,65,0,1
103508,-200,4,2,3,65,0,1
103701,-83.3333333333333,4,2,2,65,0,1
104863,-166.666666666667,4,2,2,65,0,1
105056,-83.3333333333333,4,2,2,65,0,1
105443,-200,4,2,2,65,0,1
106024,-66.6666666666667,4,2,3,65,0,1
106604,-76.9230769230769,4,2,2,65,0,1
108153,-133.333333333333,4,2,2,65,0,1
108346,-90.9090909090909,4,2,2,65,0,1
108540,-66.6666666666667,4,2,2,65,0,1
109121,-100,4,2,3,65,0,1
109895,-80,4,2,2,65,0,1
110475,-100,4,2,2,65,0,1
111637,-166.666666666667,4,2,2,65,0,1
112217,-100,4,2,3,65,0,1
112992,-100,4,2,2,65,0,1
114540,-66.6666666666667,4,2,3,45,0,0
114733,-66.6666666666667,4,2,1,45,0,0
115314,-66.6666666666667,4,2,3,65,0,1
115701,-100,4,2,3,65,0,1
116088,-100,4,2,2,65,0,1
116282,-133.333333333333,4,2,2,65,0,1
116475,-100,4,2,2,65,0,1
116863,-80,4,2,2,65,0,1
117637,-66.6666666666667,4,2,2,65,0,1
118024,-80,4,2,2,65,0,1
118411,-80,4,2,3,65,0,1
118992,-80,4,2,2,65,0,1
120153,-133.333333333333,4,2,2,65,0,1
120346,-66.6666666666667,4,2,2,65,0,1
120927,-133.333333333333,4,2,2,65,0,1
121121,-80,4,2,2,65,0,1
121508,-66.6666666666667,4,2,3,65,0,1
122088,-80,4,2,3,65,0,1
122282,-80,4,2,2,65,0,1
122863,-100,4,2,2,65,0,1
124024,-133.333333333333,4,2,2,65,0,1
124604,-80,4,2,3,65,0,1
125379,-80,4,2,2,65,0,1
126346,-62.5,4,2,2,65,0,1
126927,-80,4,2,2,65,0,1
127121,-100,4,2,2,65,0,1
127314,-133.333333333333,4,2,2,65,0,1
127508,-200,4,2,2,65,0,1
127701,-200,4,2,1,45,0,0
128282,-125,4,2,1,45,0,0
128475,-125,4,2,2,45,0,0
130024,-125,4,2,4,45,0,0
130508,-90.9090909090909,4,2,4,45,0,0
130604,-71.4285714285714,4,2,4,45,0,0
130701,-58.8235294117647,4,2,4,45,0,0
130810,428.571428571429,4,2,1,40,1,0
131238,-50,4,2,1,40,0,0
131667,-28.5714285714286,4,2,1,40,0,0
132095,-500,4,2,1,40,0,0
132524,-43.4782608695652,4,2,1,50,0,0
133167,-100,4,2,1,50,0,0
134452,-200,4,2,1,50,0,0
134667,-76.9230769230769,4,2,1,50,0,0
135095,-76.9230769230769,4,2,2,50,0,0
135524,-142.857142857143,4,2,2,50,0,0
135952,-43.4782608695652,4,2,2,50,0,0
136524,-100,4,2,2,50,0,0
136810,-100,4,2,1,50,0,0
137238,-76.9230769230769,4,2,1,50,0,0
137881,-133.333333333333,4,2,1,50,0,0
138095,-95.2380952380951,4,2,1,50,0,0
138524,-68.9655172413793,4,2,4,50,0,0
138952,-60.6060606060606,4,2,4,50,0,0
139381,-43.4782608695652,4,2,1,50,0,0
140024,-100,4,2,1,50,0,0
140667,-76.9230769230769,4,2,1,50,0,0
141095,-40,4,2,1,50,0,0
141524,-90.9090909090909,4,2,1,50,0,0
141952,-90.9090909090909,4,2,2,50,0,0
143667,-90.9090909090909,4,2,1,50,0,0
144524,-111.111111111111,4,2,1,50,0,0
145810,-333.333333333332,4,2,1,50,0,0
146238,-333.333333333332,4,2,2,50,0,0
147524,387.096774193548,4,2,2,50,1,0
147952,428.571428571429,4,2,2,50,1,0
147952,-100,4,2,2,50,0,0
148810,-80,4,2,1,50,0,0
149881,-100,4,2,1,50,0,0
152238,-80,4,2,1,50,0,0
153310,-100,4,2,1,50,0,0
153952,-100,4,2,2,50,0,0
155667,-100,4,2,1,50,0,0
156524,-133.333333333333,4,2,1,50,0,0
158237,-80,4,2,1,60,0,1
158524,-66.6666666666667,4,2,1,60,0,1
158810,-66.6666666666667,4,2,2,60,0,1
159381,-66.6666666666667,4,2,1,60,0,1
159952,-66.6666666666667,4,2,2,60,0,1
160595,-66.6666666666667,4,2,1,60,0,1
160810,-66.6666666666667,4,2,2,60,0,1
161024,-133.333333333333,4,2,1,60,0,1
161237,-133.333333333333,4,2,1,45,0,0
161667,387.096774193548,4,2,1,45,1,0
162441,-100,4,2,1,55,0,0
163215,-62.5,4,2,3,75,0,1
163602,-76.9230769230769,4,2,3,75,0,1
163989,-133.333333333333,4,2,2,75,0,1
164376,-100,4,2,2,75,0,1
164763,-66.6666666666667,4,2,2,75,0,1
165731,-76.9230769230769,4,2,2,75,0,1
166312,-76.9230769230769,4,2,3,75,0,1
166892,-100,4,2,2,75,0,1
167860,-66.6666666666667,4,2,2,75,0,1
168054,-100,4,2,2,75,0,1
168247,-66.6666666666667,4,2,2,75,0,1
168441,-100,4,2,2,75,0,1
168634,-76.9230769230769,4,2,2,75,0,1
168828,-62.5,4,2,2,75,0,1
169408,-58.8235294117647,4,2,3,75,0,1
169796,-76.9230769230769,4,2,3,75,0,1
170183,-76.9230769230769,4,2,2,75,0,1
170570,-133.333333333333,4,2,2,75,0,1
170763,-66.6666666666667,4,2,2,75,0,1
171150,-83.3333333333333,4,2,2,75,0,1
171537,-100,4,2,2,75,0,1
171731,-76.9230769230769,4,2,2,75,0,1
171925,-62.5,4,2,2,75,0,1
172118,-83.3333333333333,4,2,2,75,0,1
172505,-66.6666666666667,4,2,3,75,0,1
172892,-80,4,2,3,75,0,1
173279,-80,4,2,2,75,0,1
173667,-100,4,2,2,75,0,1
173860,-66.6666666666667,4,2,2,75,0,1
174247,-66.6666666666667,4,2,1,75,0,1
174828,-66.6666666666667,4,2,2,45,0,0
175408,-66.6666666666667,4,2,1,45,0,0
175602,-66.6666666666667,4,2,3,75,0,1
175989,-83.3333333333333,4,2,3,75,0,1
176376,-83.3333333333333,4,2,2,75,0,1
178699,-66.6666666666667,4,2,3,75,0,1
179279,-133.333333333333,4,2,2,75,0,1
179473,-66.6666666666667,4,2,2,75,0,1
179860,-83.3333333333333,4,2,2,75,0,1
180054,-100,4,2,2,75,0,1
180441,-125,4,2,2,75,0,1
180634,-66.6666666666667,4,2,2,75,0,1
181408,-66.6666666666667,4,2,1,75,0,1
181602,-90.9090909090909,4,2,1,75,0,1
181796,-66.6666666666667,4,2,3,75,0,1
182376,-100,4,2,3,75,0,1
182570,-71.4285714285714,4,2,2,75,0,1
183150,-66.6666666666667,4,2,2,75,0,1
183925,-90.9090909090909,4,2,2,75,0,1
184118,-83.3333333333333,4,2,2,75,0,1
184505,-66.6666666666667,4,2,2,75,0,1
184892,-66.6666666666667,4,2,3,75,0,1
185279,-83.3333333333333,4,2,3,75,0,1
185666,-83.3333333333333,4,2,2,75,0,1
186634,-66.6666666666667,4,2,2,75,0,1
187215,-83.3333333333333,4,2,2,75,0,1
187796,-83.3333333333333,4,2,1,75,0,1
187989,-100,4,2,1,45,0,0
188763,-100,4,2,2,45,0,0
189537,-100,4,2,1,45,0,0
190312,-80,4,2,4,45,0,0

[Colours]
Combo1 : 255,90,11
Combo2 : 168,0,168
Combo3 : 0,0,213
Combo4 : 0,174,225
Combo5 : 213,0,106

[HitObjects]
256,192,734,12,8,5379,2:1:0:0:
1,8,5766,6,0,B|33:22|33:22|55:97,1,70,10|0,2:3|2:0,2:0:0:0:
17,140,5959,1,2,2:3:0:0:
17,140,6153,1,2,2:3:0:0:
17,140,6346,1,2,2:3:0:0:
17,140,6540,1,2,2:3:0:0:
126,292,6927,6,0,P|107:227|184:201,1,157.500006008148,4|0,3:2|2:0,2:0:0:0:
189,207,7314,2,0,P|203:227|190:261,1,52.5000020027161,2|0,2:3|2:0,2:0:0:0:
29,314,7508,1,0,3:0:0:0:
302,384,7701,2,0,P|285:274|294:181,1,157.500006008148,8|0,2:3|2:0,2:0:0:0:
278,207,8088,6,0,B|333:189|375:224|373:231|371:241|399:279|473:258,1,210.000008010865,2|2,3:0|2:3,2:0:0:0:
465,269,8669,1,0,3:0:0:0:
440,185,8863,6,0,P|445:175|460:170,1,17.5,2|0,2:3|2:0,2:0:0:0:
390,101,9056,6,0,P|403:94|435:112,1,35,2|0,2:3|2:0,2:0:0:0:
348,197,9250,6,0,P|337:255|334:302,1,105.000004005432,8|0,2:3|2:0,2:0:0:0:
342,313,9443,1,4,2:3:0:0:
147,43,9637,6,0,B|149:44|216:137|212:319,1,280,2|0,3:0|2:0,2:0:0:0:
202,321,10121,2,0,B|174:313|174:313|170:306|170:306|213:318,1,70,2|0,2:3|2:0,2:0:0:0:
261,375,10314,2,0,B|276:372|276:372|279:364|279:364|268:366,4,35,2|0|0|0|0,2:3|2:0|2:0|2:0|2:0,2:0:0:0:
128,384,10604,5,0,3:0:0:0:
5,192,10798,2,0,P|50:203|96:197,1,70,12|0,2:0|2:0,2:0:0:0:
110,134,10992,1,2,2:3:0:0:
12,336,11185,6,0,P|14:315|65:290,1,70,2|0,3:0|2:0,2:0:0:0:
77,215,11379,2,0,P|96:206|143:237,1,70,2|0,2:3|2:0,2:0:0:0:
218,180,11572,2,0,P|235:192|231:248,1,70,2|0,2:3|2:0,2:0:0:0:
39,114,11766,5,8,3:1:0:0:
39,114,11830,1,8,2:1:0:0:
39,114,11895,1,8,2:1:0:0:
39,114,11959,6,0,L|66:-11,1,105,10|0,2:3|2:0,2:0:0:0:
74,9,12153,2,0,P|86:24|92:45,1,35,8|0,2:1|2:0,2:0:0:0:
151,309,12346,5,12,2:3:0:0:
142,315,12733,6,0,L|117:310,6,17.5,2|0|0|0|0|0|0,2:3|2:0|2:0|2:0|2:0|2:0|2:0,2:0:0:0:
255,373,13121,6,0,P|238:220|258:15,1,315.000012016297,4|0,3:2|2:0,2:0:0:0:
236,67,13508,6,0,P|257:149|260:176,1,70,2|0,2:3|2:0,2:0:0:0:
376,62,13701,5,0,3:0:0:0:
376,62,13798,1,2,2:3:0:0:
361,136,13895,6,0,P|371:102|378:68,1,70,8|2,2:3|2:3,2:0:0:0:
106,113,14088,6,0,P|165:173|181:195,1,70,2|0,2:3|2:0,2:0:0:0:
287,284,14282,5,2,3:0:0:0:
287,284,14475,1,2,2:3:0:0:
149,29,14669,5,2,2:3:0:0:
57,331,14863,5,0,3:0:0:0:
57,331,14959,1,2,2:3:0:0:
22,261,15056,2,0,P|121:283|123:223,1,140,2|2,2:3|2:3,2:0:0:0:
231,188,15346,1,2,2:3:0:0:
219,335,15443,2,0,P|206:283|207:240,1,70,8|0,2:3|2:0,2:0:0:0:
143,134,15637,5,2,2:3:0:0:
143,134,15733,1,2,2:3:0:0:
143,134,15830,2,0,P|97:135|81:192,1,70,2|0,3:0|2:0,2:0:0:0:
68,154,16024,2,0,P|62:176|76:202,2,35,2|0|0,2:3|2:0|2:0,2:0:0:0:
234,91,16217,6,0,P|322:108|487:89,1,210.000008010865,4|2,3:2|2:3,2:0:0:0:
443,91,16508,1,2,2:3:0:0:
435,84,16604,2,0,P|412:81|392:86,2,35,2|0|0,2:3|2:0|2:0,2:0:0:0:
488,199,16798,5,0,3:0:0:0:
488,199,16895,1,2,2:3:0:0:
411,182,16992,2,0,P|464:225|473:317,1,140,8|2,2:3|2:3,2:0:0:0:
376,372,17282,5,0,2:0:0:0:
384,380,17379,2,0,B|301:406|268:344|274:333|277:323|231:255|144:294,1,280,6|2,2:3|2:3,2:0:0:0:
143,302,17959,6,0,B|205:322|230:275|225:266|223:259|258:207|324:236,1,210,4|0,2:3|2:0,2:0:0:0:
332,228,18346,2,0,P|310:194|310:161,1,52.5000020027161,2|2,2:3|2:3,2:0:0:0:
512,0,18540,5,12,2:3:0:0:
512,0,18733,1,8,2:1:0:0:
463,62,18927,6,0,L|467:100,1,35,2|0,2:3|2:0,2:0:0:0:
453,68,19121,2,0,L|457:106,1,35,2|0,2:3|2:0,2:0:0:0:
300,238,19314,5,4,3:2:0:0:
312,157,19508,6,0,P|324:120|319:70,1,70,2|0,2:3|2:0,2:0:0:0:
224,263,19701,2,0,P|188:271|145:300,1,70,2|0,2:3|2:0,2:0:0:0:
376,278,19895,2,0,P|407:313|447:327,1,70,0|0,3:0|2:0,2:0:0:0:
437,178,20088,6,0,P|398:186|358:215,1,70,8|0,2:3|2:0,2:0:0:0:
182,134,20282,2,0,P|205:161|236:178,1,70,2|0,2:3|2:0,2:0:0:0:
286,384,20475,2,0,P|299:351|299:316,1,70,2|0,3:0|2:0,2:0:0:0:
34,27,20669,6,0,B|73:63|73:63|45:193,1,157.500006008148,2|0,2:3|2:0,2:0:0:0:
0,291,21056,1,4,3:0:0:0:
40,251,21153,1,0,2:0:0:0:
93,268,21250,1,2,2:3:0:0:
449,142,21443,5,2,2:3:0:0:
395,86,21540,1,0,2:0:0:0:
324,117,21637,2,0,P|313:153|322:193,1,70,8|0,2:3|2:0,2:0:0:0:
398,231,21830,6,0,B|275:216|340:320|167:277,1,195.999994018555,2|6,2:3|3:0,2:0:0:0:
172,351,22121,1,0,2:0:0:0:
172,351,22217,2,0,P|264:362|293:331,1,97.9999970092774,2|0,2:3|2:0,2:0:0:0:
225,203,22411,6,0,P|136:280|162:351,1,195.999994018555,4|0,3:0|2:0,2:0:0:0:
172,351,22701,2,0,P|158:312|142:296,2,48.9999985046387,0|0|2,2:0|2:0|2:3,2:0:0:0:
0,247,22895,5,0,2:0:0:0:
13,234,22992,2,0,L|74:242,1,52.5000020027161,0|0,3:0|2:0,2:0:0:0:
170,35,23185,6,0,B|192:61|192:61|192:139,1,70,8|0,2:3|2:0,2:0:0:0:
113,124,23379,2,0,B|90:97|90:97|90:19,1,70,2|0,2:3|2:0,2:0:0:0:
225,203,23572,5,6,3:0:0:0:
225,203,23766,1,2,2:3:0:0:
430,81,23959,5,2,2:3:0:0:
353,72,24056,1,2,2:3:0:0:
278,83,24153,2,0,L|360:92,1,70,4|0,2:3|2:0,2:0:0:0:
512,73,24346,2,0,L|430:64,1,70,2|0,2:3|2:0,2:0:0:0:
318,184,24540,5,2,2:3:0:0:
339,265,24637,1,2,2:3:0:0:
361,345,24733,1,8,2:3:0:0:
356,357,24927,5,8,2:1:0:0:
369,337,24992,1,8,2:1:0:0:
350,341,25056,1,8,2:1:0:0:
373,353,25121,6,0,B|321:370|292:330|292:330|277:302|241:288|203:309|203:309|174:346|124:331,1,245.000002336502,8|0,2:3|3:0,2:0:0:0:
134,322,25363,2,0,L|139:275,2,35,0|0|0,2:0|2:0|2:0,2:0:0:0:
32,230,25508,6,0,P|46:275|53:330,1,70,6|2,2:3|2:3,2:0:0:0:
225,203,25701,2,0,P|230:168|238:134,1,70,2|2,2:3|2:3,2:0:0:0:
81,51,25895,1,2,2:3:0:0:
0,40,25992,1,2,2:3:0:0:
90,30,26088,2,0,P|104:75|111:130,1,70,0|2,3:0|2:3,2:0:0:0:
28,382,26282,6,0,P|70:324|163:341,1,140,8|2,2:3|2:3,2:0:0:0:
299,216,26572,1,0,2:0:0:0:
283,235,26669,2,0,P|225:203|215:174,1,70,2|2,3:0|2:3,2:0:0:0:
108,97,26863,2,0,P|88:149|58:176,1,70,2|2,2:3|2:3,2:0:0:0:
139,233,27056,5,2,2:3:0:0:
361,360,27250,5,4,3:0:0:0:
445,354,27346,1,2,2:3:0:0:
477,269,27443,1,2,2:3:0:0:
424,205,27540,1,2,2:3:0:0:
407,213,27637,2,0,B|396:300,1,70,2|2,2:3|2:3,2:0:0:0:
486,91,27830,6,0,B|413:95|413:95|385:132|385:132|286:138,1,195.999994018555,8|2,2:3|2:3,2:0:0:0:
236,106,28121,5,2,2:3:0:0:
232,30,28217,1,4,3:0:0:0:
232,14,28314,1,2,2:3:0:0:
165,141,28411,1,2,2:3:0:0:
150,152,28508,1,2,2:3:0:0:
309,137,28604,2,0,B|419:151|347:228|509:225,1,195.999994018555,4|2,3:0|2:3,2:0:0:0:
304,312,28895,5,2,2:3:0:0:
259,378,28992,2,0,P|225:343|223:295,1,97.9999970092774,2|2,2:3|2:3,2:0:0:0:
157,101,29185,1,0,3:0:0:0:
157,101,29282,1,2,2:3:0:0:
236,106,29379,2,0,P|222:152|182:177,1,97.9999970092774,8|2,2:3|2:3,2:0:0:0:
47,307,29572,1,2,2:3:0:0:
47,307,29669,1,2,2:3:0:0:
4,232,29766,6,0,P|50:220|127:332,1,195.999994018555,4|2,3:0|2:3,2:0:0:0:
121,342,30056,1,2,2:3:0:0:
245,260,30153,2,0,B|202:254|202:254|184:266|184:266|119:258,1,97.9999970092774,2|2,2:3|2:3,2:0:0:0:
0,384,30346,5,4,3:0:0:0:
259,25,30540,6,0,P|255:68|281:114,1,70,2|0,2:3|2:0,2:0:0:0:
393,213,30733,1,2,2:3:0:0:
417,193,30830,1,2,2:3:0:0:
419,162,30927,2,0,P|378:122|268:288,1,315.000012016297,8|0,2:3|3:0,2:0:0:0:
254,261,31572,1,0,2:0:0:0:
264,261,31637,1,0,2:0:0:0:
274,263,31701,1,6,3:0:0:0:
162,45,31895,6,0,B|135:22|135:22|63:28,1,70,2|2,2:3|2:3,2:0:0:0:
127,181,32088,2,0,B|160:169|160:169|191:103,1,70,2|2,2:3|2:3,2:0:0:0:
27,87,32282,2,0,B|20:121|20:121|61:181,1,70,0|2,3:0|2:3,2:0:0:0:
107,102,32475,6,0,B|165:152|243:104|238:43|238:43|265:7|345:21|322:94|322:94|301:61|246:50,1,391.99998803711,8|0,2:3|3:0,2:0:0:0:
271,57,33056,6,0,L|285:138,1,48.9999985046387,2|2,2:3|2:3,2:0:0:0:
384,203,33250,2,0,L|372:145,1,48.9999985046387,2|0,2:3|2:0,2:0:0:0:
426,69,33443,5,4,3:0:0:0:
426,69,33540,1,0,2:0:0:0:
504,75,33637,2,0,L|400:93,1,70,2|0,2:3|2:0,2:0:0:0:
227,215,33830,2,0,L|295:226,1,70,2|0,2:3|2:0,2:0:0:0:
512,303,34024,6,0,B|391:286|446:377|310:350|310:350|364:300|437:369,1,315.000012016297,8|0,2:3|2:0,2:0:0:0:
399,340,34411,2,0,P|393:365|394:384,2,35,2|2|2,2:3|2:3|2:3,2:0:0:0:
302,165,34604,5,2,2:3:0:0:
257,138,34701,1,0,2:0:0:0:
212,166,34798,2,0,P|229:242|240:322,1,140,4|2,3:0|2:3,2:0:0:0:
89,297,35088,1,2,2:3:0:0:
118,372,35185,2,0,P|134:294|142:228,1,140,2|0,2:3|3:0,2:0:0:0:
6,142,35475,5,2,2:3:0:0:
4,159,35572,2,0,B|46:165|46:165|106:124,1,70,8|2,2:3|2:3,2:0:0:0:
115,61,35766,1,2,2:3:0:0:
111,46,35863,1,2,2:3:0:0:
194,38,35959,5,4,3:0:0:0:
269,51,36056,1,0,2:0:0:0:
346,61,36153,1,2,2:3:0:0:
421,75,36250,1,2,2:3:0:0:
495,91,36346,6,0,P|466:205|468:331,1,210.000008010865,2|6,2:3|3:0,2:0:0:0:
478,294,36604,1,2,2:3:0:0:
491,289,36669,1,2,2:3:0:0:
504,285,36733,5,2,2:3:0:0:
504,285,36927,1,2,2:3:0:0:
504,285,37121,6,0,B|441:201|328:194|264:282|268:292|271:302|247:378|161:407|32:376|5:263,1,525,8|2,2:3|2:3,2:0:0:0:
51,326,37766,1,0,2:0:0:0:
53,320,37830,1,0,2:0:0:0:
55,314,37895,1,4,3:2:0:0:
117,39,38669,6,0,P|150:130|163:250,1,210,2|0,2:3|2:0,2:0:0:0:
95,277,39443,1,2,2:3:0:0:
26,250,39733,1,2,2:3:0:0:
6,177,40024,1,2,2:3:0:0:
251,233,40217,6,0,P|241:266|231:353,1,105,2|2,2:3|2:3,2:0:0:0:
294,384,40798,1,2,2:3:0:0:
480,239,40992,6,0,P|402:217|291:151,1,210,2|2,2:3|2:3,2:0:0:0:
308,151,41766,2,0,P|342:195|342:237,1,70,2|0,2:3|2:0,2:0:0:0:
481,323,42153,6,0,P|446:333|404:366,2,84,2|0|2,2:3|2:0|2:3,2:0:0:0:
264,356,44088,6,0,P|269:303|345:78,1,280,4|2,3:2|2:3,2:0:0:0:
186,0,45637,6,0,P|217:41|235:90,1,105,0|2,3:0|2:3,2:0:0:0:
216,162,46217,1,2,2:3:0:0:
52,183,46411,5,2,2:3:0:0:
101,274,46701,1,2,2:3:0:0:
60,368,46992,1,2,2:3:0:0:
74,366,47185,6,0,P|90:311|129:252,1,105,8|0,2:1|2:0,2:0:0:0:
126,267,47572,2,0,P|155:326|209:388,1,146.999995513916,8|0,2:1|2:0,2:0:0:0:
224,379,47959,2,0,P|226:289|263:152,1,188.999994232178,8|0,2:1|2:0,2:0:0:0:
260,185,48346,6,0,P|283:212|327:191,1,77.0000023498536,8|0,2:1|2:0,2:0:0:0:
299,68,48540,2,0,P|264:65|244:108,1,77.0000023498536,8|0,2:1|2:0,2:0:0:0:
425,241,48733,6,0,P|405:194|400:119,1,90.9999958343508,8|0,2:1|2:0,2:0:0:0:
409,158,48927,2,0,L|455:153,4,45.4999979171754,8|0|8|0|8,2:1|2:0|2:1|2:0|2:1,2:0:0:0:
431,154,50088,5,8,2:1:0:0:
448,143,50153,1,8,2:1:0:0:
455,129,50217,1,8,2:1:0:0:
451,111,50282,6,0,B|418:68|351:85|335:112|335:112|313:154|268:164|236:157|236:157|202:95|117:126,1,315.000012016297,6|0,3:0|2:0,2:0:0:0:
157,189,50669,1,2,2:3:0:0:
30,23,50863,6,0,P|42:54|49:86,1,52.5000020027161,2|0,2:3|2:0,2:0:0:0:
143,278,51056,6,0,P|159:181|165:163,1,90.9999958343508,8|0,2:3|2:0,2:0:0:0:
37,4,51250,2,0,P|55:44|66:92,1,90.9999958343508,4|0,3:0|2:0,2:0:0:0:
68,324,51443,6,0,B|179:353|122:257|238:267|298:313,1,181.999991668702,2|2,2:3|2:3,2:0:0:0:
417,351,51733,1,2,2:3:0:0:
430,341,51830,2,0,B|378:301|318:311|318:311|302:365|200:385,2,181.999991668702,2|0|2,2:3|3:0|2:3,2:0:0:0:
495,107,52411,6,0,B|456:135|456:135|369:121,1,90.9999958343508,2|0,2:3|2:0,2:0:0:0:
388,45,52604,2,0,B|427:17|427:17|514:31,1,90.9999958343508,8|0,2:3|2:0,2:0:0:0:
347,205,52798,6,0,L|316:197,1,31.4999990386963,2|0,2:3|2:0,2:0:0:0:
352,192,52992,2,0,L|319:183,1,31.4999990386963,2|0,2:3|2:0,2:0:0:0:
191,28,53185,5,0,3:0:0:0:
195,19,53250,1,0,3:0:0:0:
198,10,53314,1,0,3:0:0:0:
203,0,53379,6,0,B|270:79|285:220|217:265|121:251|96:179|135:104,1,420.000016021729,6|2,3:0|2:3,2:0:0:0:
132,109,53959,6,0,B|168:140|168:140|149:193,1,90.9999958343508,4|0,3:0|2:0,2:0:0:0:
3,320,54153,2,0,B|11:275|11:275|67:262,1,90.9999958343508,8|2,2:3|2:3,2:0:0:0:
265,322,54346,2,0,B|222:338|222:338|182:294,1,90.9999958343508,2|2,2:3|2:3,2:0:0:0:
133,255,54540,1,0,3:0:0:0:
366,28,54733,5,2,2:3:0:0:
379,13,54830,1,0,2:0:0:0:
403,15,54927,2,0,P|431:64|405:122,1,90.9999958343508,2|2,2:3|2:3,2:0:0:0:
438,129,55121,2,0,P|420:143|413:164,2,45.4999979171754,4|0|0,3:0|2:0|2:0,2:0:0:0:
446,239,55314,1,2,2:3:0:0:
456,254,55508,6,0,P|422:247|387:251,1,52.5000020027161,2|0,2:3|2:0,2:0:0:0:
269,318,55701,2,0,P|316:304|333:266,1,70,8|0,2:3|2:0,2:0:0:0:
310,125,55895,2,0,P|328:202|382:200,1,90.9999958343508,4|0,3:0|2:0,2:0:0:0:
400,355,56088,6,0,P|304:286|173:318,1,210.000008010865,2|2,2:3|3:0,2:0:0:0:
202,304,56346,1,0,3:0:0:0:
189,318,56411,1,0,3:0:0:0:
184,334,56475,6,0,P|188:250|192:187,1,140,6|2,3:0|2:3,2:0:0:0:
108,20,56766,1,2,2:3:0:0:
93,1,56863,2,0,P|21:34|58:124,1,140,2|2,2:3|2:3,2:0:0:0:
80,133,57153,5,0,2:0:0:0:
96,142,57250,2,0,L|176:125,1,70,8|0,2:3|2:0,2:0:0:0:
487,239,57443,5,4,3:0:0:0:
481,246,57830,6,0,B|339:234|422:172|269:171,1,210,2|0,2:3|2:0,2:0:0:0:
250,106,58217,2,0,P|277:58|307:56,1,70,4|0,3:0|2:0,2:0:0:0:
228,238,58411,6,0,P|167:176|184:83,1,140,2|2,2:3|2:3,2:0:0:0:
70,120,58701,1,2,2:3:0:0:
35,187,58798,2,0,P|65:170|82:140,1,70,8|0,2:3|2:0,2:0:0:0:
109,275,58992,6,0,L|114:306,1,31.4999990386963,2|2,2:3|2:3,2:0:0:0:
123,267,59185,2,0,L|128:298,1,31.4999990386963,2|2,2:3|2:3,2:0:0:0:
274,348,59379,5,2,3:0:0:0:
290,351,59443,1,0,3:0:0:0:
306,353,59508,1,0,3:0:0:0:
318,357,59572,6,0,P|324:270|331:191,1,154.000004699707,6|2,3:0|2:3,2:0:0:0:
405,108,59863,1,2,2:3:0:0:
414,99,59959,2,0,P|369:91|336:135,1,77.0000023498536,2|0,2:3|2:0,2:0:0:0:
358,190,60153,2,0,P|403:198|436:154,1,77.0000023498536,0|0,3:0|2:0,2:0:0:0:
281,60,60346,5,8,2:3:0:0:
266,64,60443,1,0,2:0:0:0:
260,76,60540,2,0,P|268:121|275:162,1,77.0000023498536,2|2,2:3|2:3,2:0:0:0:
89,327,60733,1,6,3:0:0:0:
102,339,60927,6,0,B|110:235|126:177|126:177|77:188|103:252,1,231.000007049561,2|2,2:3|2:3,2:0:0:0:
208,197,61314,2,0,P|210:235|189:267,1,77.0000023498536,6|2,3:0|2:3,2:0:0:0:
6,143,61508,6,0,L|44:124,1,26.2500010013581,2|0,2:3|2:0,2:0:0:0:
18,86,61604,6,0,L|51:89,1,26.2500010013581,2|0,2:3|2:0,2:0:0:0:
82,37,61701,6,0,L|117:66,1,26.2500010013581,2|0,2:3|2:0,2:0:0:0:
177,21,61798,6,0,L|186:66,1,26.2500010013581,2|0,2:3|2:0,2:0:0:0:
260,76,61895,5,8,2:3:0:0:
437,147,63056,5,2,2:3:0:0:
437,147,63185,1,2,2:3:0:0:
496,224,63443,6,0,P|416:241|348:289,1,140,2|0,2:3|2:0,2:0:0:0:
355,127,64217,5,2,2:3:0:0:
350,160,64346,1,2,2:3:0:0:
282,92,64604,5,2,2:3:0:0:
269,175,64733,1,2,2:3:0:0:
202,49,64992,5,6,2:3:0:0:
183,197,65379,2,0,P|166:142|127:82,1,105,0|0,2:0|2:0,2:0:0:0:
140,115,65766,6,0,B|81:118|81:118|60:183|60:183|66:192|66:192|45:260|45:260|45:267|45:267,1,210.000008010865,4|0,3:2|2:0,2:0:0:0:
21,331,66056,1,0,2:0:0:0:
18,337,66153,2,0,B|55:336|55:336|67:366,1,70,2|2,2:3|2:3,2:0:0:0:
138,220,66346,2,0,L|109:319,1,70,0|0,3:0|2:0,2:0:0:0:
345,347,66540,6,0,B|284:337|284:337|252:170,1,210,8|0,2:3|2:0,2:0:0:0:
266,185,66927,2,0,B|296:189|296:189|312:266,1,70,0|2,3:0|2:3,2:0:0:0:
261,303,67121,2,0,L|269:337,2,35,2|0|0,2:3|2:0|2:0,2:0:0:0:
206,97,67314,6,0,L|186:-1,2,70,0|2|4,3:0|2:3|3:0,2:0:0:0:
206,97,67604,1,2,2:3:0:0:
206,97,67701,5,2,2:3:0:0:
309,44,67830,1,2,2:3:0:0:
386,128,67959,1,2,2:3:0:0:
197,302,68088,5,8,2:3:0:0:
275,181,68217,1,2,2:3:0:0:
405,224,68346,1,2,2:3:0:0:
305,384,68475,6,0,L|310:275,1,105.000004005432,4|8,3:0|2:1,2:0:0:0:
310,270,68733,1,8,2:1:0:0:
311,259,68798,1,8,2:1:0:0:
312,248,68863,6,0,B|272:204|197:245|205:259|211:270|170:303|120:280,1,210.000008010865,4|2,3:0|2:3,2:0:0:0:
87,212,69153,1,0,2:0:0:0:
84,201,69250,2,0,P|91:180|123:175,2,52.5000020027161,2|0|2,2:3|2:0|2:3,2:0:0:0:
38,351,69443,2,0,P|46:316|42:264,1,70,4|0,3:0|2:0,2:0:0:0:
9,18,69637,6,0,B|-28:55|-19:120|43:134|91:105|88:93|85:80|124:51|179:64,1,262.5,8|0,2:3|2:0,2:0:0:0:
179,73,70024,5,6,3:0:0:0:
132,168,70153,1,2,2:3:0:0:
202,247,70282,1,2,2:3:0:0:
137,355,70411,1,2,2:3:0:0:
144,365,70604,6,0,P|183:354|244:363,1,70,4|0,3:0|2:0,2:0:0:0:
393,267,70798,5,2,2:3:0:0:
329,369,70927,1,2,2:3:0:0:
277,207,71056,1,2,2:3:0:0:
426,135,71185,6,0,P|399:145|425:206,1,70,8|2,2:3|2:3,2:0:0:0:
461,220,71379,2,0,P|487:207|455:149,1,70,8|2,2:3|2:3,2:0:0:0:
395,278,71572,6,0,L|400:307,6,26.2500010013581,6|0|0|0|2|0|0,2:3|2:0|2:0|2:0|2:3|2:0|2:0,2:0:0:0:
508,377,71959,6,0,P|523:344|506:324,1,52.5000020027161,4|0,3:0|2:0,2:0:0:0:
442,314,72153,2,0,P|418:341|430:365,1,66.4999982242585,2|0,2:3|2:0,2:0:0:0:
321,197,72346,6,0,P|306:164|324:102,1,80.5000015354157,6|0,2:3|2:0,2:0:0:0:
386,107,72540,2,0,P|409:159|397:197,1,94.5000003604889,0|0,3:0|2:0,2:0:0:0:
289,325,72733,6,0,L|141:308,1,108.500000827789,8|0,2:3|2:0,2:0:0:0:
167,321,72927,1,2,2:3:0:0:
117,185,73121,6,0,L|196:175,1,80.5000015354157,0|0,3:0|2:0,2:0:0:0:
206,182,73315,1,2,2:3:0:0:
252,80,73508,6,0,P|220:73|199:60,1,52.5000020027161,2|0,2:3|2:0,2:0:0:0:
111,176,73701,2,0,P|143:169|183:148,1,66.4999982242585,4|0,3:0|2:0,2:0:0:0:
360,242,73895,6,0,P|314:240|274:220,1,80.5000015354157,2|0,2:3|2:0,2:0:0:0:
63,335,74088,2,0,P|124:336|178:320,1,94.5000003604889,2|0,2:3|2:0,2:0:0:0:
124,7,74282,5,8,2:3:0:0:
112,16,74475,2,0,P|101:27|106:51,2,35.0000013351441,2|0|0,2:3|2:0|2:0,2:0:0:0:
173,65,74669,2,0,P|177:80|200:87,2,35.0000013351441,4|0|0,3:0|2:0|2:0,2:0:0:0:
257,5,74863,5,2,3:0:0:0:
257,5,74959,1,0,2:0:0:0:
257,5,75056,2,0,P|276:52|268:121,1,70,4|0,3:2|2:0,2:0:0:0:
379,46,75250,2,0,P|360:93|368:162,1,70,2|0,2:3|2:0,2:0:0:0:
457,85,75443,6,0,P|479:84|492:113,2,46.6666666666667,2|0|0,2:3|2:0|2:0,2:0:0:0:
449,90,75637,1,4,3:0:0:0:
255,223,75830,6,0,P|302:203|378:211,1,90.9999958343508,8|0,2:3|2:0,2:0:0:0:
500,297,76024,2,0,P|435:283|343:296,1,90.9999958343508,2|0,2:3|2:0,2:0:0:0:
178,384,76217,6,0,P|202:257|226:13,1,363.999983337403,4|0,3:2|2:0,2:0:0:0:
224,23,77766,5,8,2:1:0:0:
224,23,77959,5,8,2:1:0:0:
233,64,78024,1,8,2:1:0:0:
248,102,78088,1,8,2:1:0:0:
275,134,78153,6,0,P|332:115|365:116,1,70,4|0,3:2|2:0,2:0:0:0:
366,132,78346,1,2,2:3:0:0:
498,329,78540,6,0,P|397:311|371:291,1,90.9999958343508,2|0,2:3|2:0,2:0:0:0:
328,227,78733,5,2,3:0:0:0:
331,221,78798,1,0,2:0:0:0:
333,215,78863,1,0,2:0:0:0:
336,211,78927,6,0,B|350:248|350:248|326:298,1,70,10|2,2:3|2:3,2:0:0:0:
305,347,79121,1,2,2:3:0:0:
104,368,79314,6,0,B|76:328|76:328|94:266,1,90.9999958343508,0|0,3:0|2:0,2:0:0:0:
111,212,79508,1,2,2:3:0:0:
111,212,79701,5,2,2:3:0:0:
49,162,79798,1,0,2:0:0:0:
71,86,79895,2,0,L|128:94,1,31.4999990386963,6|2,3:0|2:3,2:0:0:0:
306,19,80088,6,0,B|259:2|259:2|213:29,1,90.9999958343508,2|0,2:3|2:0,2:0:0:0:
227,104,80282,2,0,B|274:121|274:121|320:94,1,90.9999958343508,2|0,2:3|2:0,2:0:0:0:
482,19,80475,6,0,P|408:92|437:167,1,157.500006008148,8|0,2:3|2:0,2:0:0:0:
429,145,80669,6,0,P|505:173|468:264,1,157.500006008148,2|0,2:3|2:0,2:0:0:0:
488,252,80863,6,0,P|389:239|284:234,1,168,2|0,2:3|2:0,2:0:0:0:
306,244,81056,6,0,P|283:205|291:187,2,41.9999987182618,2|2|2,3:0|2:3|2:3,2:0:0:0:
314,332,81250,6,0,P|278:333|235:297,1,70,4|2,3:0|2:3,2:0:0:0:
52,357,81443,2,0,B|108:313|165:336|165:336|195:357|236:336,1,181.999991668702,2|2,2:3|2:3,2:0:0:0:
378,88,81830,5,2,3:0:0:0:
351,162,81927,1,2,2:3:0:0:
321,234,82024,2,0,P|285:235|242:199,1,70,10|0,2:3|2:0,2:0:0:0:
52,203,82217,2,0,P|133:187|155:185,1,70,2|2,2:3|2:3,2:0:0:0:
231,88,82411,6,0,B|238:68|236:46|236:46|208:34|190:5|190:5|174:33|145:48|145:48|137:73|158:101,1,210.000008010865,6|2,3:0|2:3,2:0:0:0:
254,171,82701,1,2,2:3:0:0:
261,184,82798,2,0,L|254:233,1,35,2|0,2:3|2:0,2:0:0:0:
122,344,82992,6,0,B|103:371|12:396|-7:262|75:223|206:253|239:311|239:418,1,315.000012016297,6|0,3:0|2:0,2:0:0:0:
312,331,83379,6,0,P|314:348|317:366,3,35,6|0|0|0,2:3|2:0|2:0|2:0,2:0:0:0:
330,313,83572,6,0,B|351:285|351:285|336:234,1,70,8|0,2:3|2:0,2:0:0:0:
66,121,83766,6,0,B|79:153|79:153|131:165,1,70,8|0,2:1|2:0,2:0:0:0:
383,0,83959,6,0,B|348:-4|348:-4|311:34,1,70,8|0,2:1|2:0,2:0:0:0:
261,151,84153,5,8,3:1:0:0:
261,151,84201,5,0,3:0:0:0:
261,151,84250,5,0,3:0:0:0:
261,151,84298,5,0,3:0:0:0:
261,151,84346,6,0,B|282:176|334:165|347:133|347:133|362:67|437:69|475:101|471:162|443:184|443:184|405:204|414:240|414:240|425:216|450:212,1,420,4|0,3:2|2:0,2:0:0:0:
504,283,84733,2,0,P|485:309|495:282,1,90.9999958343508,2|2,2:3|2:3,2:0:0:0:
202,265,84927,6,0,B|172:309|172:309|208:380,1,105.000004005432,2|0,3:0|2:0,2:0:0:0:
316,365,85121,2,0,B|346:321|346:321|310:250,1,105.000004005432,8|0,2:3|2:0,2:0:0:0:
260,316,85314,1,2,2:3:0:0:
260,316,85508,1,2,3:0:0:0:
113,160,85701,6,0,L|22:178,1,70,2|0,2:3|2:0,2:0:0:0:
89,3,85895,1,2,2:3:0:0:
169,23,85992,1,2,2:3:0:0:
186,105,86088,1,6,3:0:0:0:
369,209,86282,6,0,L|459:216,1,70,2|0,2:3|2:0,2:0:0:0:
334,83,86475,6,0,P|295:129|300:167,1,90.9999958343508,2|0,2:3|2:0,2:0:0:0:
316,365,86669,2,0,P|355:319|350:281,1,90.9999958343508,10|0,2:3|2:0,2:0:0:0:
269,246,86863,6,0,P|252:235|234:207,1,35,2|0,3:0|2:0,2:0:0:0:
221,276,86959,2,0,P|213:237|227:209,1,45.4999979171754,2|0,2:3|2:0,2:0:0:0:
171,284,87056,2,0,P|181:232|193:217,1,56,2|0,2:3|2:0,2:0:0:0:
122,274,87153,2,0,P|140:232|173:215,1,66.4999982242585,0|0,2:0|2:0,2:0:0:0:
57,216,87250,6,0,L|36:211,3,20.9999993591309,2|0|0|0,2:3|2:0|2:0|2:0,2:0:0:0:
28,194,87443,1,2,3:0:0:0:
305,23,87637,6,0,P|331:55|326:104,1,70,2|0,2:3|2:0,2:0:0:0:
451,158,87830,2,0,P|410:164|370:135,1,70,2|0,2:3|2:0,2:0:0:0:
254,217,88024,2,0,P|268:178|313:158,1,70,2|0,3:0|2:0,2:0:0:0:
456,20,88217,6,0,P|441:58|396:78,1,70,8|0,2:3|2:0,2:0:0:0:
378,287,88411,2,0,P|357:199|364:189,1,70,2|0,2:3|2:0,2:0:0:0:
187,93,88604,1,6,3:0:0:0:
178,88,88798,6,0,P|258:104|278:126,2,70,2|2|2,2:3|2:3|2:3,2:0:0:0:
75,23,88992,2,0,P|105:162|115:307,1,210.000008010865,6|4,2:3|3:2,2:0:0:0:
104,244,89250,1,0,2:0:0:0:
92,246,89314,1,0,2:0:0:0:
86,234,89379,1,8,2:3:0:0:
305,335,89572,5,2,2:3:0:0:
319,342,89669,2,0,L|314:374,2,26.2500010013581,8|0|0,2:1|2:0|2:0,2:0:0:0:
331,350,89766,1,8,2:1:0:0:
461,53,90056,6,0,L|456:21,2,26.2500010013581,8|0|0,2:1|2:0|2:0,2:0:0:0:
471,62,90153,1,8,2:1:0:0:
512,229,90540,6,0,P|412:212|230:205,1,280,4|2,3:2|2:3,2:0:0:0:
228,217,92088,5,2,2:3:0:0:
246,291,92379,1,2,2:3:0:0:
189,347,92669,1,2,2:3:0:0:
9,331,92863,6,0,P|42:320|135:314,1,105,2|2,2:3|2:3,2:0:0:0:
181,340,93443,1,2,2:3:0:0:
71,41,93637,6,0,P|105:90|148:232,1,210,2|2,2:3|2:3,2:0:0:0:
134,216,94411,2,0,P|136:168|154:142,1,70,2|0,2:3|2:0,2:0:0:0:
354,39,94798,6,0,P|353:106|281:310,1,280,2|0,2:3|2:0,2:0:0:0:
284,305,95959,1,2,2:3:0:0:
510,119,96733,6,0,B|454:98|410:137|414:147|418:159|384:193|308:167,1,210,4|0,3:2|2:0,2:0:0:0:
313,161,97508,1,2,2:3:0:0:
335,4,98282,6,0,P|358:45|368:115,2,105,0|2|2,3:0|2:3|2:3,2:0:0:0:
135,45,99056,5,2,2:3:0:0:
188,131,99346,1,2,2:3:0:0:
136,221,99637,1,2,2:3:0:0:
131,209,99830,6,0,P|168:174|225:197,1,105,8|0,2:1|2:0,2:0:0:0:
163,370,100217,2,0,P|106:355|88:256,1,146.999995513916,8|0,2:1|2:0,2:0:0:0:
290,226,100604,2,0,P|307:299|238:387,1,188.999994232178,8|0,2:1|2:0,2:0:0:0:
264,82,100992,6,0,P|260:120|291:144,1,77.0000023498536,8|0,2:1|2:0,2:0:0:0:
394,18,101185,2,0,P|354:-1|305:13,1,90.9999958343508,8|0,2:1|2:0,2:0:0:0:
377,175,101379,2,0,P|422:150|432:100,1,105.000004005432,8|0,2:1|2:0,2:0:0:0:
345,81,101572,6,0,P|346:95|359:88,8,26.2500010013581,8|0|8|0|8|0|8|0|8,2:1|2:0|2:1|2:0|2:1|2:0|2:1|2:0|2:3,2:0:0:0:
345,81,102540,5,8,2:1:0:0:
222,50,102669,1,8,2:1:0:0:
141,119,102798,1,8,2:1:0:0:
55,91,102927,6,0,B|90:70|213:79|138:191|240:223|292:206|292:206|299:215|299:215|295:205|295:205|319:145|192:125|181:187,1,420.000016021729,6|2,3:0|2:3,2:0:0:0:
128,207,103411,5,0,2:0:0:0:
119,224,103508,2,0,P|126:249|130:270,1,35,2|0,2:3|2:0,2:0:0:0:
27,375,103701,6,0,P|60:334|105:338,1,83.9999974365235,8|0,2:3|2:0,2:0:0:0:
224,150,103895,2,0,P|283:218|316:214,1,83.9999974365235,4|0,3:0|2:0,2:0:0:0:
339,360,104088,6,0,P|348:270|369:154,1,167.999994873047,2|2,2:3|2:3,2:0:0:0:
450,35,104379,1,2,2:3:0:0:
512,81,104475,2,0,B|495:140|423:144|423:144|400:118|374:115,1,167.999994873047,2|0,2:3|3:0,2:0:0:0:
335,48,104766,1,0,2:0:0:0:
318,55,104863,2,0,P|303:94|303:114,1,41.9999987182618,2|0,2:3|2:0,2:0:0:0:
179,285,105056,6,0,P|161:198|171:141,1,83.9999974365235,2|0,2:3|2:0,2:0:0:0:
300,18,105250,2,0,P|273:126|279:156,1,83.9999974365235,8|0,2:3|2:0,2:0:0:0:
312,186,105443,6,0,L|371:194,1,35,2|0,2:3|2:0,2:0:0:0:
352,207,105637,2,0,L|318:203,1,35,2|0,2:3|2:0,2:0:0:0:
159,61,105830,5,0,3:0:0:0:
140,64,105895,1,0,3:0:0:0:
121,68,105959,1,0,3:0:0:0:
102,71,106024,6,0,B|59:90|41:170|99:210|99:210|143:191|211:194|228:300|181:327|181:327|167:297|186:269,1,420.000016021729,6|2,3:0|2:3,2:0:0:0:
186,292,106508,1,0,2:0:0:0:
186,292,106604,6,0,P|246:295|278:320,1,90.9999958343508,4|0,3:0|2:0,2:0:0:0:
476,203,106798,2,0,P|417:248|417:298,1,90.9999958343508,8|2,2:3|2:3,2:0:0:0:
272,96,106992,2,0,P|317:190|322:216,1,90.9999958343508,2|2,2:3|2:3,2:0:0:0:
356,353,107185,1,0,3:0:0:0:
508,73,107379,5,2,2:3:0:0:
512,53,107475,1,0,2:0:0:0:
496,36,107572,2,0,B|449:23|449:23|392:47,1,90.9999958343508,2|2,2:3|2:3,2:0:0:0:
383,32,107766,2,0,B|363:47|363:47|330:43,2,45.4999979171754,4|0|0,3:0|2:0|2:0,2:0:0:0:
271,21,107959,1,2,2:3:0:0:
259,45,108153,6,0,L|278:121,1,52.5000020027161,2|0,2:3|2:0,2:0:0:0:
166,56,108346,2,0,L|191:157,1,77.0000023498536,8|0,2:3|2:0,2:0:0:0:
70,63,108540,2,0,L|101:184,1,105.000004005432,4|0,3:0|2:0,2:0:0:0:
0,199,108733,6,0,B|84:205|84:205|116:241|116:241|211:248,1,210.000008010865,2|2,2:3|3:0,2:0:0:0:
200,259,108992,1,0,3:0:0:0:
207,270,109056,1,0,3:0:0:0:
215,281,109121,6,0,B|291:293|268:234|354:240,1,140,6|2,3:0|2:3,2:0:0:0:
454,279,109411,1,2,2:3:0:0:
471,286,109508,2,0,P|469:358|436:372,1,70,2|0,2:3|2:0,2:0:0:0:
380,384,109701,2,0,P|370:350|384:319,1,70,2|0,2:3|2:0,2:0:0:0:
464,174,109895,2,0,P|416:137|365:160,1,87.5,8|0,2:3|2:0,2:0:0:0:
138,331,110088,5,4,3:0:0:0:
128,322,110475,6,0,P|177:235|284:280,1,210,2|0,2:3|2:0,2:0:0:0:
281,364,110863,2,0,P|252:323|284:326,1,70,4|0,3:0|2:0,2:0:0:0:
392,139,111056,6,0,P|379:234|372:296,1,140,2|2,2:3|2:3,2:0:0:0:
420,344,111346,1,2,2:3:0:0:
440,355,111443,2,0,P|477:324|451:290,1,70,8|0,2:3|2:0,2:0:0:0:
287,177,111637,6,0,L|237:187,1,41.9999987182618,2|2,2:3|2:3,2:0:0:0:
295,157,111830,2,0,L|245:167,1,41.9999987182618,2|2,2:3|2:3,2:0:0:0:
38,82,112024,5,2,3:0:0:0:
42,63,112088,1,0,3:0:0:0:
46,43,112153,1,0,3:0:0:0:
51,23,112217,6,0,B|168:-2|126:82|249:62,1,210,6|2,3:0|2:3,2:0:0:0:
382,0,112604,2,0,B|359:30|359:30|370:87,1,70,2|0,2:3|2:0,2:0:0:0:
447,85,112798,2,0,B|470:55|470:55|459:-2,1,70,0|0,3:0|2:0,2:0:0:0:
295,157,112992,5,8,2:3:0:0:
304,175,113088,1,0,2:0:0:0:
313,193,113185,2,0,P|301:247|298:283,1,70,2|2,2:3|2:3,2:0:0:0:
116,354,113379,1,6,3:0:0:0:
104,341,113572,6,0,B|141:281|216:306|216:306|250:368|326:341,1,210,2|2,2:3|2:3,2:0:0:0:
454,261,113959,2,0,P|403:268|357:277,1,70,6|0,3:0|2:0,2:0:0:0:
194,161,114153,5,2,2:3:0:0:
201,109,114250,1,2,2:3:0:0:
254,61,114346,1,2,2:3:0:0:
330,56,114443,1,2,2:3:0:0:
400,100,114540,6,0,P|388:130|394:161,1,52.5000020027161,8|0,2:3|2:0,2:0:0:0:
303,145,114733,6,0,P|307:176|328:200,1,52.5000020027161,8|0,2:1|2:0,2:0:0:0:
241,232,114927,6,0,P|260:257|290:267,1,52.5000020027161,8|0,2:1|2:0,2:0:0:0:
230,338,115121,6,0,P|259:350|290:344,1,52.5000020027161,8|0,2:1|2:0,2:0:0:0:
46,233,115314,6,0,B|28:272|40:342|134:356|212:270|155:165|89:127,1,315.000012016297,6|0,3:0|2:0,2:0:0:0:
46,33,115701,6,0,P|44:90|31:129,1,70,2|0,2:3|2:0,2:0:0:0:
138,19,115895,2,0,P|164:69|173:108,1,70,2|0,2:3|2:0,2:0:0:0:
300,259,116088,5,8,2:3:0:0:
120,368,116282,2,0,P|116:342|103:318,1,52.5000020027161,4|0,3:0|0:0,2:0:0:0:
307,265,116475,2,0,B|251:249|216:286|219:295|222:304|182:334|114:311,1,210,2|2,2:3|2:3,0:0:0:0:
49,155,116863,6,0,B|112:135|156:181|156:181|143:207|153:237,2,175,2|0|2,2:3|3:0|2:3,2:0:0:0:
2,214,117346,1,0,2:0:0:0:
2,214,117443,1,2,2:3:0:0:
366,366,117637,6,0,P|309:370|303:285,1,105.000004005432,8|0,2:3|2:0,2:0:0:0:
309,264,117830,2,0,P|366:260|372:345,1,105.000004005432,2|0,2:3|2:0,2:0:0:0:
150,246,118024,6,0,P|202:249|207:171,1,87.5,2|0,2:3|2:0,2:0:0:0:
202,152,118217,2,0,P|149:148|144:226,1,87.5,0|0,3:0|2:0,2:0:0:0:
373,8,118411,6,0,P|340:61|305:192,1,175,6|2,3:0|2:3,2:0:0:0:
315,178,118701,1,2,2:3:0:0:
325,179,118798,2,0,P|320:123|287:73,1,87.5,2|0,2:3|2:0,2:0:0:0:
74,24,118992,5,4,3:0:0:0:
0,253,119185,2,0,P|40:196|162:201,1,175,8|2,2:3|2:3,2:0:0:0:
162,273,119475,1,2,2:3:0:0:
166,284,119572,2,0,P|126:292|88:254,1,87.5,0|0,3:0|2:0,2:0:0:0:
238,132,119766,2,0,P|225:163|221:260,1,87.5,2|0,2:3|2:0,2:0:0:0:
344,359,119959,5,2,2:3:0:0:
411,321,120056,1,2,2:3:0:0:
485,333,120153,2,0,P|491:349|492:372,2,26.2500010013581,4|0|0,3:0|2:0|2:0,2:0:0:0:
341,107,120346,6,0,P|329:173|452:181,1,210.000008010865,2|2,2:3|2:3,2:0:0:0:
447,183,120637,1,0,2:0:0:0:
470,9,120733,6,0,P|475:63|486:114,1,105.000004005432,8|0,2:3|2:0,2:0:0:0:
497,115,120927,2,0,P|505:102|505:79,2,26.2500010013581,4|0|0,3:0|2:0|2:0,2:0:0:0:
292,293,121121,6,0,P|297:239|308:188,1,87.5,2|0,2:3|2:0,2:0:0:0:
173,89,121314,5,2,3:0:0:0:
154,91,121379,1,0,3:0:0:0:
133,93,121443,1,0,3:0:0:0:
114,95,121508,6,0,B|174:139|239:101|232:87|226:77|266:21|347:59|347:59|328:84|331:113,1,315.000012016297,6|2,3:0|2:3,2:0:0:0:
404,105,121895,1,2,2:3:0:0:
145,224,122088,6,0,P|191:224|166:153,1,87.5,2|0,2:3|2:0,2:0:0:0:
6,112,122282,2,0,B|24:141|47:150|47:150|78:205|51:285,2,175,8|4|2,2:3|3:0|2:3,2:0:0:0:
268,325,122863,6,0,B|201:283|126:310|126:310|107:341|70:346,1,210,2|0,2:3|2:0,2:0:0:0:
39,343,123250,1,4,3:0:0:0:
230,161,123443,6,0,P|204:186|222:229,1,70,2|2,2:3|2:3,2:0:0:0:
285,237,123637,2,0,P|310:211|292:168,1,70,2|2,2:3|2:3,2:0:0:0:
82,0,123830,5,8,2:3:0:0:
6,82,124024,2,0,L|71:91,1,52.5000020027161,2|2,2:3|2:3,2:0:0:0:
0,92,124217,2,0,L|65:101,1,52.5000020027161,2|2,2:3|2:3,2:0:0:0:
334,85,124411,5,2,3:0:0:0:
322,64,124475,1,0,3:0:0:0:
317,44,124540,1,0,3:0:0:0:
316,28,124604,6,0,B|372:-1|431:21|431:21|446:99|389:161,1,262.5,6|2,3:0|2:3,2:0:0:0:
459,202,124992,2,0,B|426:181|371:212|373:221|377:230|345:259|297:246,2,175,2|0|8,2:3|3:0|2:3,2:0:0:0:
509,263,125475,1,0,2:0:0:0:
509,263,125572,1,2,2:3:0:0:
379,354,125766,6,0,P|375:303|388:224,1,87.5,6|0,3:0|2:0,2:0:0:0:
246,363,125959,2,0,P|262:236|260:100,1,262.5,2|2,2:3|2:3,2:0:0:0:
83,353,126346,2,0,P|67:240|90:-5,1,336,6|0,3:0|2:0,2:0:0:0:
96,14,126733,1,2,2:3:0:0:
38,194,126927,6,0,P|78:196|82:260,1,87.5,8|0,2:3|2:0,2:0:0:0:
163,145,127121,2,0,P|188:169|177:232,1,70,4|0,3:0|2:0,2:0:0:0:
287,179,127314,2,0,P|287:204|260:246,1,52.5000020027161,2|0,2:3|2:0,2:0:0:0:
347,275,127508,2,0,P|336:282|291:304,1,35,2|0,2:3|2:0,2:0:0:0:
329,370,127701,5,12,3:2:0:0:
494,66,128088,5,2,2:3:0:0:
450,7,128217,1,2,2:3:0:0:
450,7,128282,2,0,L|388:21,1,56,0|0,3:0|2:0,2:0:0:0:
232,49,128475,6,0,B|297:59|297:59|318:95|318:95|398:108,1,168,10|0,2:3|2:0,2:0:0:0:
495,170,128863,2,0,B|463:166|449:145|449:145|438:171|403:186,1,112,0|0,3:0|2:0,2:0:0:0:
216,157,129250,5,2,2:3:0:0:
193,87,129379,1,2,2:3:0:0:
193,87,129443,2,0,P|228:50|256:45,1,56,4|0,3:0|2:0,2:0:0:0:
177,234,129637,5,2,2:3:0:0:
105,171,129766,1,2,2:3:0:0:
105,171,129830,2,0,P|116:121|138:103,1,56,0|0,2:0|2:0,2:0:0:0:
71,300,130024,6,0,P|56:251|66:224,1,56,14|0,2:3|2:0,2:0:0:0:
177,234,130217,5,0,2:0:0:0:
233,209,130314,1,0,2:0:0:0:
294,235,130411,2,0,B|282:249|282:249|284:277,1,28,0|0,2:0|2:0,2:0:0:0:
331,303,130508,2,0,B|326:327|326:327|344:366,1,38.5000011749268,0|0,2:0|2:0,2:0:0:0:
405,341,130604,2,0,B|415:369|415:369|452:387,1,48.9999985046387,0|0,2:0|2:0,2:0:0:0:
483,321,130701,2,0,B|505:343|505:343|548:345,1,59.5000011348725,0|0,2:0|2:0,2:0:0:0:
507,245,130810,5,8,2:1:0:0:
123,22,131238,6,0,B|115:51|120:72|120:72|139:84|139:84|104:85|119:106|82:110|82:110|104:128|104:128|114:157|99:183,1,210,8|0,2:1|2:0,2:0:0:0:
105,171,131667,6,0,B|139:178|157:195|157:195|163:190|163:190|157:195|157:195|204:239|134:257|240:327|271:279|267:249,1,245.000002336502,2|0,2:3|2:0,2:0:0:0:
486,268,132095,6,0,L|443:264,1,42,2|0,2:3|2:0,2:0:0:0:
266,261,132524,6,0,B|336:254|367:316|371:336|371:336|348:234|320:173|338:73|485:80|511:196|423:211,1,483.000009212494,4|0,3:0|2:0,2:0:0:0:
371,213,132952,5,2,2:3:0:0:
262,88,133095,5,2,2:3:0:0:
262,88,133167,2,0,L|270:120,4,23.3333333333333,2|0|2|0|0,2:3|2:0|2:3|2:0|2:0,2:0:0:0:
311,20,133381,5,8,2:1:0:0:
389,2,133488,1,0,2:0:0:0:
437,63,133595,1,0,2:0:0:0:
424,78,133810,6,0,B|372:95|343:55|343:55|328:27|292:13|254:34|254:34|219:72|163:53,1,280,2|2,2:3|2:3,2:0:0:0:
74,6,134452,6,0,L|85:61,1,35,0|0,2:0|2:0,2:0:0:0:
2,146,134667,6,0,B|30:131|30:131|75:139,1,60.6666638895672,2|2,2:3|2:3,2:0:0:0:
175,56,134810,6,0,B|173:87|173:87|144:122,1,60.6666638895672,2|2,2:3|2:3,2:0:0:0:
169,246,134952,6,0,B|142:229|142:229|126:186,1,60.6666638895672,2|2,2:3|2:3,2:0:0:0:
115,152,135095,5,8,2:3:0:0:
262,67,135238,1,2,2:3:0:0:
280,234,135381,1,2,2:3:0:0:
229,155,135524,6,0,B|324:145|274:216|392:198,1,146.999995513916,2|0,2:3|2:0,2:0:0:0:
473,279,135952,6,0,B|427:301|422:365|422:365|327:322|338:130|489:98|541:169|538:201,1,483.000009212494,4|0,3:0|2:0,2:0:0:0:
280,234,136381,5,2,2:3:0:0:
140,305,136524,6,0,B|150:280|150:280|138:235,1,46.6666666666667,0|2,2:0|2:3,2:0:0:0:
58,136,136667,6,0,B|48:159|48:159|54:182,1,46.6666666666667,0|0,2:0|2:0,2:0:0:0:
193,189,136810,5,8,2:1:0:0:
46,279,136952,1,2,2:3:0:0:
193,189,137095,1,2,2:3:0:0:
22,372,137238,6,0,P|125:352|246:384,2,181.999991668702,2|0|0,2:3|3:0|2:0,2:0:0:0:
55,29,137881,6,0,P|87:56|94:82,1,52.5000020027161,2|0,2:3|2:0,2:0:0:0:
43,220,138095,6,0,P|51:174|72:152,1,73.4999977569581,2|0,2:3|2:0,2:0:0:0:
58,136,138310,2,0,P|96:109|126:109,1,73.4999977569581,2|0,2:3|2:0,2:0:0:0:
306,148,138524,6,0,P|248:120|232:86,1,101.500003097534,6|0,3:0|2:0,2:0:0:0:
217,103,138738,2,0,P|195:43|208:6,1,101.500003097534,2|0,2:3|2:0,2:0:0:0:
193,189,138952,6,0,P|184:253|128:289,1,115.500001101494,2|0,2:3|2:0,2:0:0:0:
167,293,139167,2,0,P|112:327|48:307,1,115.500001101494,2|0,2:3|2:0,2:0:0:0:
68,155,139381,6,0,B|100:135|153:141|180:175|180:175|225:230|289:209|323:182|318:130|318:130|317:55|373:21|409:93|359:119|289:110,1,483.000009212494,4|0,3:0|2:0,2:0:0:0:
232,89,139810,5,2,2:3:0:0:
121,231,139952,5,0,2:0:0:0:
121,231,140024,2,0,L|129:263,4,23.3333333333333,2|0|2|0|2,2:3|2:0|2:3|2:0|2:3,2:0:0:0:
68,155,140238,5,10,2:3:0:0:
67,311,140381,1,2,2:3:0:0:
58,136,140524,1,2,2:3:0:0:
181,362,140667,6,0,B|221:381|260:351|260:351|310:372|310:372|338:328|390:332|390:332|415:365|478:377,1,272.999987503052,2|0,2:3|2:0,2:0:0:0:
463,281,141095,6,0,B|478:228|442:201|442:201|386:206|375:266,1,175,2|0,2:3|2:0,2:0:0:0:
113,79,141524,6,0,P|98:58|78:43,1,51.3333348999024,2|2,2:3|2:3,2:0:0:0:
109,209,141667,6,0,P|98:232|94:257,1,51.3333348999024,2|2,2:3|2:3,2:0:0:0:
222,154,141810,6,0,P|248:151|272:141,1,51.3333348999024,2|2,2:3|2:3,2:0:0:0:
150,145,141952,5,10,2:3:0:0:
196,241,142095,1,2,2:3:0:0:
213,56,142238,1,2,2:3:0:0:
48,139,142381,1,2,2:3:0:0:
48,139,142810,5,4,3:0:0:0:
130,1,142952,1,2,2:3:0:0:
45,47,143095,1,2,2:3:0:0:
213,56,143238,1,2,2:3:0:0:
196,241,143381,5,2,2:3:0:0:
196,241,143452,2,0,L|208:270,4,25.6666674499512,0|0|0|0|0,2:0|2:0|2:0|2:0|2:0,2:0:0:0:
150,145,143667,5,8,2:1:0:0:
286,205,143810,1,2,2:3:0:0:
371,137,143952,1,2,2:3:0:0:
458,178,144095,1,2,2:3:0:0:
458,178,144310,1,0,3:0:0:0:
192,318,144524,6,0,B|178:277|178:277|205:222,1,83.9999974365235,2|2,2:3|2:3,2:0:0:0:
337,337,144810,6,0,B|307:370|307:370|247:373,1,83.9999974365235,2|0,2:3|2:0,2:0:0:0:
286,205,145095,6,0,B|328:217|328:217|355:269,1,83.9999974365235,2|0,2:3|2:0,2:0:0:0:
269,288,145381,5,8,2:1:0:0:
347,252,145524,1,2,2:3:0:0:
267,372,145667,1,2,2:3:0:0:
195,240,145810,6,0,P|192:196|186:171,1,62.9999980773926,2|0,2:3|2:0,2:0:0:0:
158,153,146238,5,4,2:0:0:0:
146,160,146667,5,4,2:0:0:0:
233,234,146810,1,2,2:3:0:0:
259,124,146952,1,2,2:3:0:0:
69,114,147095,5,4,2:0:0:0:
48,118,147524,5,2,2:3:0:0:
136,377,147653,1,2,2:3:0:0:
328,180,147782,1,2,2:3:0:0:
172,7,147952,6,0,B|132:7|114:49|123:102|192:114|246:81|256:32|256:32|208:60|223:140,1,350,4|0,3:0|2:0,2:0:0:0:
230,149,148595,2,0,P|238:181|239:260,1,70,2|0,2:3|2:0,2:0:0:0:
13,314,148810,6,0,B|37:295|37:295|275:328,1,262.5,10|0,2:3|2:0,2:0:0:0:
266,327,149238,1,2,2:3:0:0:
266,327,149345,1,0,2:0:0:0:
380,346,149505,5,0,2:0:0:0:
492,366,149667,5,2,2:3:0:0:
492,366,149774,1,2,2:3:0:0:
492,366,149881,2,0,B|514:314|500:257|423:243|424:266|424:266|458:268|491:235,1,233.333333333333,0|0,3:0|2:0,2:0:0:0:
492,226,150310,2,0,P|490:203|465:163,2,46.6666666666667,2|2|2,2:3|2:3|2:3,2:0:0:0:
366,187,150524,6,0,P|248:186|151:193,1,210,8|0,2:1|2:0,2:0:0:0:
156,192,150952,1,2,2:3:0:0:
156,190,151060,1,2,2:3:0:0:
156,190,151167,1,2,2:3:0:0:
30,43,151381,6,0,B|6:31|10:6|27:-8|74:-8|119:24|131:87|79:118|79:118|85:72|135:54|190:65,1,350,4|2,3:0|2:3,2:0:0:0:
194,68,152024,2,0,P|234:54|259:23,1,70,0|0,2:0|2:0,2:0:0:0:
391,315,152238,6,0,B|364:292|364:292|382:50,1,262.5,8|0,2:1|2:0,2:0:0:0:
380,65,152667,1,2,3:0:0:0:
380,65,152774,1,2,2:3:0:0:
380,65,152881,1,2,2:3:0:0:
428,172,153095,5,2,2:3:0:0:
428,172,153202,1,0,2:0:0:0:
428,172,153310,2,0,B|360:205|300:164|305:152|314:137|275:101|214:109|214:109|212:141|200:158,1,280,0|2,2:0|2:3,2:0:0:0:
198,158,153810,2,0,P|173:146|167:113,1,46.6666666666667,0|0,2:0|2:0,2:0:0:0:
184,20,153952,5,10,2:3:0:0:
118,247,154095,1,2,2:3:0:0:
118,247,154167,2,0,P|114:213|105:181,1,46.6666666666667,2|0,3:0|2:0,2:0:0:0:
289,99,154381,5,2,2:3:0:0:
319,181,154524,1,2,2:3:0:0:
319,181,154595,1,2,2:3:0:0:
248,332,154810,5,4,3:0:0:0:
390,257,154952,1,2,2:3:0:0:
205,249,155095,1,2,2:3:0:0:
338,372,155238,5,2,2:3:0:0:
338,372,155345,2,0,P|331:325|312:258,1,70,0|2,2:0|2:3,2:0:0:0:
318,296,155524,1,2,2:3:0:0:
310,288,155595,1,2,2:3:0:0:
303,281,155667,5,8,2:1:0:0:
383,253,155773,1,2,2:3:0:0:
451,302,155916,1,2,2:3:0:0:
319,181,156095,5,0,3:0:0:0:
348,4,156202,1,2,2:3:0:0:
494,105,156344,1,2,2:3:0:0:
232,119,156524,6,0,P|224:101|223:85,6,26.2500010013581,2|2|2|2|2|2|2,2:3|2:3|2:3|2:3|2:3|2:3|2:3,2:0:0:0:
243,124,156952,1,2,2:3:0:0:
341,30,157167,5,0,2:0:0:0:
350,24,157238,2,0,P|346:35|344:47,3,17.500000667572,2|0|0|0,2:3|2:0|2:0|2:0,2:0:0:0:
358,20,157381,5,8,2:1:0:0:
417,74,157488,1,0,2:0:0:0:
371,137,157595,1,2,2:3:0:0:
371,137,157667,1,8,2:1:0:0:
430,212,157810,1,2,2:3:0:0:
383,297,157952,1,8,2:1:0:0:
383,297,158024,1,2,2:3:0:0:
162,300,158238,6,0,P|220:268|261:292,1,116.666666666667,4|2,3:0|2:3,2:0:0:0:
262,304,158452,1,0,2:0:0:0:
260,318,158524,2,0,P|224:254|265:173,1,140.000005340576,10|0,2:3|2:0,2:0:0:0:
319,155,158738,5,0,2:0:0:0:
347,155,158810,1,8,2:3:0:0:
367,170,158881,2,0,P|380:221|357:256,1,70.0000026702882,4|2,3:0|2:3,2:0:0:0:
152,213,159095,5,8,2:3:0:0:
341,78,159238,1,2,2:3:0:0:
353,308,159381,1,8,2:1:0:0:
162,77,159524,5,4,3:0:0:0:
209,352,159667,1,2,2:3:0:0:
457,195,159810,1,2,2:3:0:0:
289,16,159952,5,8,2:3:0:0:
271,12,160024,1,2,2:3:0:0:
257,8,160095,1,2,2:3:0:0:
242,5,160167,1,4,3:0:0:0:
358,119,160310,5,2,2:3:0:0:
358,119,160381,1,2,2:3:0:0:
159,164,160524,5,2,2:3:0:0:
174,159,160595,1,8,2:1:0:0:
197,153,160667,1,8,2:1:0:0:
217,147,160738,1,8,2:1:0:0:
237,143,160810,6,0,P|277:189|300:288,1,140.000005340576,12|0,3:0|2:0,2:0:0:0:
295,275,161024,2,0,P|303:227|311:212,1,52.5000020027161,8|2,2:1|2:3,2:0:0:0:
454,266,161238,5,8,3:1:0:0:
264,67,161381,1,8,2:1:0:0:
177,337,161524,1,8,2:1:0:0:
177,337,162441,5,8,2:1:0:0:
114,279,162570,1,8,2:1:0:0:
199,255,162699,1,8,2:1:0:0:
100,294,162828,5,8,2:1:0:0:
80,164,162957,1,8,2:1:0:0:
203,204,163086,1,8,2:1:0:0:
68,184,163215,6,0,B|128:194|165:164|173:124|173:124|190:66|252:56|290:86|290:86|332:115|386:70,1,336,6|0,3:0|2:0,2:0:0:0:
398,34,163602,2,0,B|389:79|389:79|428:122,1,90.9999958343508,2|0,2:3|2:0,2:0:0:0:
496,93,163796,2,0,B|505:48|505:48|466:5,1,90.9999958343508,2|0,2:3|2:0,2:0:0:0:
338,192,163989,6,0,B|320:221|320:221|331:278,1,52.5000020027161,8|0,2:3|2:0,2:0:0:0:
405,277,164183,2,0,B|420:255|420:255|414:192,1,52.5000020027161,4|0,3:0|2:0,2:0:0:0:
316,350,164376,6,0,P|233:339|141:337,1,140,2|2,2:3|2:3,2:0:0:0:
15,245,164667,1,2,2:3:0:0:
77,327,164763,6,0,B|86:275|135:256|135:256|149:183|86:155,2,210.000008010865,2|0|2,2:3|3:0|2:3,2:0:0:0:
180,48,165344,6,0,B|230:29|230:29|300:75,1,105.000004005432,2|0,2:3|2:0,2:0:0:0:
323,239,165537,1,8,2:3:0:0:
298,241,165634,1,0,2:0:0:0:
275,225,165731,6,0,P|271:165|292:137,1,90.9999958343508,2|0,2:3|2:0,2:0:0:0:
388,155,165925,2,0,P|392:215|371:243,1,90.9999958343508,2|0,2:3|2:0,2:0:0:0:
453,368,166118,5,0,3:0:0:0:
467,352,166183,1,0,3:0:0:0:
474,333,166247,1,0,3:0:0:0:
467,315,166312,6,0,B|446:277|369:266|332:320|332:320|284:400|174:405|146:319,1,363.999983337403,6|2,3:0|2:3,2:0:0:0:
167,354,166796,1,0,2:0:0:0:
166,353,166892,6,0,L|188:254,1,70,4|0,3:0|2:0,2:0:0:0:
6,214,167086,2,0,L|80:282,1,70,8|2,2:3|2:3,2:0:0:0:
203,147,167279,2,0,L|106:177,1,70,2|2,2:3|2:3,2:0:0:0:
256,66,167473,6,0,B|314:75|314:75|327:102|327:102|411:119,1,140,0|2,3:0|2:3,2:0:0:0:
512,29,167763,1,0,2:0:0:0:
438,3,167860,2,0,B|432:27|409:43|409:43|443:56|463:102,1,105.000004005432,2|2,2:3|2:3,2:0:0:0:
502,138,168054,2,0,P|496:159|495:185,2,35,4|0|0,3:0|2:0|2:0,2:0:0:0:
410,236,168247,6,0,P|391:205|416:231,1,105.000004005432,2|2,2:3|2:3,2:0:0:0:
457,350,168441,6,0,P|468:317|489:289,1,70,2|0,2:3|2:0,2:0:0:0:
320,306,168634,2,0,P|323:261|334:217,1,90.9999958343508,8|0,2:3|2:0,2:0:0:0:
176,342,168828,2,0,P|166:287|169:232,1,112,4|0,3:0|2:0,2:0:0:0:
407,140,169021,6,0,B|270:160|340:73|179:97,1,224,2|2,2:3|3:0,2:0:0:0:
178,109,169279,1,0,3:0:0:0:
172,130,169344,1,0,3:0:0:0:
179,149,169408,6,0,B|210:150|233:173|233:173|292:134|293:35|199:14,1,238.00000453949,6|2,3:0|2:3,2:0:0:0:
2,45,169699,1,2,2:3:0:0:
31,74,169796,2,0,P|88:59|134:56,1,90.9999958343508,2|0,2:3|2:0,2:0:0:0:
169,231,169989,5,2,2:3:0:0:
144,248,170086,1,0,2:0:0:0:
111,242,170183,2,0,P|77:165|95:130,1,90.9999958343508,8|0,2:3|2:0,2:0:0:0:
332,10,170376,5,4,3:0:0:0:
332,10,170473,1,2,2:3:0:0:
332,10,170570,2,0,P|323:71|314:90,1,52.5000020027161,2|0,2:3|2:0,2:0:0:0:
179,149,170763,6,0,B|237:117|357:166|333:252|306:290|306:290|303:244|261:207,1,315.000012016297,2|0,2:3|2:0,2:0:0:0:
218,381,171150,6,0,P|212:320|245:282,1,83.9999974365235,4|0,3:0|2:0,2:0:0:0:
444,210,171344,1,2,2:3:0:0:
480,280,171441,1,2,2:3:0:0:
435,344,171537,6,0,P|400:353|338:333,1,70,2|2,2:3|2:3,2:0:0:0:
81,246,171731,2,0,P|182:235|208:249,1,90.9999958343508,8|0,2:3|2:0,2:0:0:0:
390,79,171925,2,0,P|308:115|253:105,1,112,2|2,2:3|2:3,2:0:0:0:
222,6,172118,6,0,P|233:100|239:219,1,167.999994873047,2|2,2:3|3:0,2:0:0:0:
230,194,172376,1,0,3:0:0:0:
215,211,172441,1,0,3:0:0:0:
188,218,172505,6,0,P|137:159|288:116,1,315.000012016297,6|2,3:0|2:3,2:0:0:0:
368,171,172892,6,0,P|335:202|352:270,1,87.5,2|0,2:3|2:0,2:0:0:0:
408,281,173086,2,0,P|441:250|424:182,1,87.5,0|0,3:0|2:0,2:0:0:0:
207,365,173279,5,8,2:3:0:0:
226,373,173376,1,0,2:0:0:0:
250,366,173473,2,0,P|256:311|220:274,1,87.5,2|2,2:3|2:3,2:0:0:0:
188,218,173667,2,0,P|91:230|77:229,1,70,6|0,3:0|2:0,2:0:0:0:
1,92,173860,6,0,B|48:59|75:23|75:23|28:158|39:266,1,315.000012016297,2|2,2:3|2:3,2:0:0:0:
105,352,174247,6,0,B|126:330|126:330|128:298,1,52.5000020027161,8|0,2:1|2:0,2:0:0:0:
275,141,174441,6,0,B|245:133|245:133|216:148,1,52.5000020027161,8|0,2:1|2:0,2:0:0:0:
1,92,174634,6,0,B|9:121|9:121|36:138,1,52.5000020027161,8|0,2:1|2:0,2:0:0:0:
376,95,174828,5,8,2:3:0:0:
376,95,175408,5,8,2:1:0:0:
374,77,175473,1,0,2:0:0:0:
364,60,175537,1,0,2:0:0:0:
348,53,175602,6,0,B|330:105|359:140|365:136|373:133|422:175|399:247,1,210.000008010865,6|2,3:0|2:3,2:0:0:0:
345,297,175892,1,0,2:0:0:0:
268,286,175989,2,0,P|230:249|234:205,1,83.9999974365235,2|0,2:3|2:0,2:0:0:0:
498,52,176183,2,0,P|482:74|462:138,1,83.9999974365235,2|0,2:3|2:0,2:0:0:0:
512,384,176376,5,8,2:3:0:0:
323,213,176570,2,0,P|352:176|401:159,1,83.9999974365235,4|0,3:0|2:0,2:0:0:0:
468,276,176763,2,0,P|358:290|272:340,1,167.999994873047,2|2,2:3|2:3,2:0:0:0:
269,381,177054,1,2,2:3:0:0:
213,326,177150,2,0,P|215:295|248:207,1,83.9999974365235,2|0,2:3|2:0,2:0:0:0:
346,11,177344,6,0,B|373:35|369:76|369:76|327:112|280:87|282:81|285:76|250:41|196:63,1,251.999992309571,0|0,3:0|2:0,2:0:0:0:
227,132,177731,1,2,2:3:0:0:
140,264,177925,6,0,P|137:176|111:67,1,167.999994873047,8|2,2:3|2:3,2:0:0:0:
74,36,178215,1,0,2:0:0:0:
12,79,178312,2,0,P|14:121|49:146,1,83.9999974365235,2|0,2:3|2:0,2:0:0:0:
448,123,178505,5,0,3:0:0:0:
438,126,178699,6,0,B|463:47|372:-8|293:45|278:130|322:198,1,315.000012016297,6|2,3:0|2:3,2:0:0:0:
383,229,179086,1,2,2:3:0:0:
254,236,179279,6,0,P|233:238|220:243,2,26.2500010013581,4|0|0,3:0|2:0|2:0,2:0:0:0:
368,354,179473,6,0,P|289:331|155:325,1,210.000008010865,8|2,2:3|2:3,2:0:0:0:
94,360,179763,1,2,2:3:0:0:
46,247,179860,6,0,P|60:210|62:161,1,83.9999974365235,0|0,3:0|2:0,2:0:0:0:
141,172,180054,2,0,P|134:132|117:104,1,70,2|0,2:3|2:0,2:0:0:0:
60,50,180247,6,0,P|43:61|59:74,2,35,2|0|2,2:3|2:0|2:3,2:0:0:0:
133,29,180441,2,0,P|158:39|180:57,1,56,4|0,3:0|2:0,2:0:0:0:
253,303,180634,6,0,P|258:212|303:94,1,210.000008010865,2|2,2:3|2:3,2:0:0:0:
356,47,180925,1,0,2:0:0:0:
425,81,181021,2,0,P|436:110|388:168,1,105.000004005432,8|0,2:3|2:0,2:0:0:0:
63,212,181215,5,4,3:0:0:0:
96,144,181312,1,0,2:0:0:0:
170,135,181408,2,0,P|218:155|235:214,1,105.000004005432,10|0,2:3|2:0,2:0:0:0:
234,358,181602,6,0,P|231:372|230:389,4,25.6666674499512,2|0|0|0|0,3:0|2:0|3:0|2:0|3:0,2:0:0:0:
299,320,181796,6,0,B|253:348|187:310|188:296|195:276|149:256|96:271,1,210.000008010865,6|2,3:0|2:3,2:0:0:0:
61,329,182086,1,2,2:3:0:0:
134,341,182183,2,0,P|171:324|185:253,1,105.000004005432,2|0,2:3|2:0,2:0:0:0:
14,190,182376,2,0,P|30:232|29:285,1,70,2|0,2:3|2:0,2:0:0:0:
426,213,182570,6,0,P|415:260|409:309,1,97.9999970092775,8|0,2:3|2:0,2:0:0:0:
313,242,182763,2,0,P|321:201|326:137,1,97.9999970092775,4|2,3:0|2:3,2:0:0:0:
496,108,182957,5,2,2:3:0:0:
504,118,183150,6,0,B|456:149|403:106|407:97|409:87|384:51|315:62,1,210.000008010865,2|2,2:3|2:3,2:0:0:0:
250,24,183441,1,0,2:0:0:0:
235,21,183537,2,0,P|198:57|218:107,1,105.000004005432,4|0,3:0|2:0,2:0:0:0:
305,237,183731,5,2,2:3:0:0:
305,237,183828,1,2,2:3:0:0:
305,237,183925,2,0,P|305:185|283:139,1,77.0000023498536,2|2,2:3|2:3,2:0:0:0:
27,153,184118,6,0,P|46:189|100:182,1,83.9999974365235,8|0,2:3|2:0,2:0:0:0:
122,122,184312,2,0,P|103:86|51:93,1,83.9999974365235,2|2,2:3|2:3,2:0:0:0:
20,315,184505,6,0,B|80:337|117:291|116:284|115:276|141:239|210:252,1,210.000008010865,2|2,2:3|3:0,2:0:0:0:
225,274,184763,1,0,3:0:0:0:
230,304,184828,1,0,3:0:0:0:
220,334,184892,6,0,P|199:234|232:80,1,210.000008010865,6|2,3:0|2:3,2:0:0:0:
266,69,185183,1,2,2:3:0:0:
323,119,185279,2,0,P|329:155|287:187,1,83.9999974365235,2|0,2:3|2:0,2:0:0:0:
106,29,185473,2,0,P|145:46|211:51,1,83.9999974365235,0|0,3:0|2:0,2:0:0:0:
439,0,185666,6,0,P|426:47|420:109,1,83.9999974365235,8|0,2:3|2:0,2:0:0:0:
407,283,185860,1,2,2:3:0:0:
469,324,185957,1,2,2:3:0:0:
512,263,186054,2,0,P|502:220|471:149,1,83.9999974365235,6|0,3:0|2:0,2:0:0:0:
333,17,186247,6,0,P|322:119|325:290,1,251.999992309571,2|2,2:3|2:3,2:0:0:0:
373,355,186634,6,0,B|330:397|208:364|216:313|238:243|115:150|14:209,1,420.000016021729,6|2,3:0|2:3,2:0:0:0:
6,273,187118,1,2,2:3:0:0:
43,342,187215,2,0,P|80:318|73:264,1,83.9999974365235,8|0,2:3|2:0,2:0:0:0:
113,93,187408,6,0,P|110:136|121:208,1,83.9999974365235,4|0,3:0|2:0,2:0:0:0:
48,46,187602,2,0,P|23:81|-2:149,1,83.9999974365235,2|0,2:3|2:0,2:0:0:0:
167,324,187796,5,8,2:1:0:0:
176,316,187860,1,0,2:0:0:0:
188,311,187925,1,0,2:0:0:0:
198,310,187989,6,0,B|256:295|292:332|289:341|284:353|340:381|398:357,1,186.666666666667,12|0,3:2|2:0,2:0:0:0:
420,296,188376,5,2,2:3:0:0:
411,298,188505,1,2,2:3:0:0:
285,78,188763,6,0,P|300:110|316:184,1,70,10|0,2:3|2:0,2:0:0:0:
424,213,188957,6,0,P|432:168|495:-3,1,210,4|0,3:0|2:0,2:0:0:0:
486,13,189344,1,0,2:0:0:0:
77,158,189537,5,10,2:3:0:0:
81,162,189666,1,2,2:3:0:0:
383,320,189925,5,10,2:3:0:0:
383,320,190054,1,2,2:3:0:0:
252,378,190312,6,0,P|250:247|262:-11,1,350,6|0,2:3|2:0,2:0:0:0:
