osu file format v14

[General]
AudioFilename: audio.mp3
AudioLeadIn: 0
PreviewTime: 222107
Countdown: 0
SampleSet: Normal
StackLeniency: 0.7
Mode: 0
LetterboxInBreaks: 0
WidescreenStoryboard: 1

[Editor]
Bookmarks: 2201,41045,99960,141395,173398,222107,269093,303259,353762,398185,451535,469077,506410,544690,634690
DistanceSpacing: 1.8
BeatDivisor: 4
GridSize: 32
TimelineZoom: 2.200005

[Metadata]
Title:Morsay Mad Festival 2016 - REVENGEANCE
TitleUnicode:Morsay Mad Festival 2016 - REVENGEANCE
Artist:Truand2LaCollab
ArtistUnicode:Truand2LaCollab
Creator:Jean-Michel Jr
Version:LaCollab2Truands
Source:
Tags:MMF16 Worminators Cortex medley ytpmv marathon otomad 音MAD
BeatmapID:1265490
BeatmapSetID:500277

[Difficulty]
HPDrainRate:6
CircleSize:4
OverallDifficulty:8.5
ApproachRate:9.2
SliderMultiplier:1.9
SliderTickRate:1

[Events]
//Background and Video events
0,0,"background.jpg",0,0
//Break Periods
2,326092,329092
2,432717,450965
2,464587,470840
2,538276,544120
//Storyboard Layer 0 (Background)
//Storyboard Layer 1 (Fail)
//Storyboard Layer 2 (Pass)
//Storyboard Layer 3 (Foreground)
//Storyboard Sound Samples

[TimingPoints]
2201,413.793103448276,4,1,0,40,1,0
10476,-100,4,1,0,40,0,0
13787,-100,4,1,0,60,0,0
15442,400,4,1,0,40,1,0
18842,-100,4,2,0,40,0,0
21442,-100,4,1,0,40,0,0
28242,-80,4,1,0,40,0,0
41045,363.636363636364,4,1,0,40,1,0
52681,-100,4,1,0,40,0,1
64317,-100,4,1,0,40,0,0
75954,-90.9090909090909,4,1,0,40,0,0
87590,-100,4,1,0,40,0,1
99226,-100,4,1,0,40,0,0
99960,352.941176470588,4,1,0,30,1,0
100665,363.636363636364,4,1,0,40,1,0
105028,-133.333333333333,4,1,0,40,0,0
106301,-100,4,1,0,40,0,0
106755,-100,4,1,0,5,0,0
106846,-100,4,1,0,40,0,0
108210,-100,4,1,0,5,0,0
108301,-100,4,1,0,40,0,0
109392,-133.333333333333,4,2,0,40,0,0
111574,-100,4,1,0,40,0,0
112301,-90.9090909090909,4,1,0,40,0,0
116665,-117.647058823529,4,1,0,40,0,0
117755,-90.9090909090909,4,1,0,40,0,0
118392,-90.9090909090909,4,1,0,5,0,0
118483,-90.9090909090909,4,1,0,40,0,0
119846,-90.9090909090909,4,1,0,5,0,0
119937,-90.9090909090909,4,1,0,40,0,0
121028,-133.333333333333,4,2,0,40,0,0
123937,-100,4,1,0,40,0,0
132665,-76.9230769230769,4,1,0,40,0,0
133028,-100,4,1,0,40,0,0
135574,-83.3333333333333,4,1,0,40,0,0
135937,-100,4,1,0,40,0,0
137028,-83.3333333333333,4,1,0,40,0,0
137392,-100,4,1,0,40,0,0
138483,-83.3333333333333,4,1,0,40,0,0
138846,-100,4,1,0,40,0,0
139210,-83.3333333333333,4,1,0,40,0,0
139574,-100,4,1,0,40,0,0
139937,-83.3333333333333,4,1,0,40,0,0
140301,-100,4,1,0,40,0,0
140665,-83.3333333333333,4,1,0,40,0,0
141028,-100,4,1,0,40,0,0
141395,333.333333333333,4,1,0,40,1,0
142395,-125,4,2,0,40,0,0
144061,-100,4,1,0,40,0,0
144811,-125,4,2,0,40,0,0
146728,-100,4,1,0,40,0,0
147728,-125,4,1,0,40,0,0
148395,-100,4,1,0,40,0,0
152061,-100,4,1,0,40,0,0
162728,-83.3333333333333,4,1,0,60,0,1
172061,-100,4,1,0,40,0,1
172728,-117.647058823529,4,1,0,40,0,0
173394,-105.263157894737,4,1,0,40,0,0
173398,322.58064516129,4,1,0,40,1,0
173398,-105.263157894737,4,1,0,40,0,0
174043,-100,4,1,0,40,0,0
175978,-133.333333333333,4,1,0,40,0,0
176623,-125,4,1,0,40,0,0
177268,-117.647058823529,4,1,0,40,0,0
177914,-111.111111111111,4,1,0,40,0,0
178559,-105.263157894737,4,1,0,40,0,0
179204,-100,4,1,0,40,0,0
181139,-133.333333333333,4,1,0,40,0,0
181785,-142.857142857143,4,1,0,40,0,0
182430,-153.846153846154,4,1,0,40,0,0
183398,-100,4,1,0,40,0,0
188881,-105.263157894737,4,1,0,40,0,0
189527,-100,4,1,0,40,0,0
191462,-125,4,1,0,40,0,0
192107,-133.333333333333,4,1,0,40,0,0
192752,-142.857142857143,4,1,0,40,0,0
193397,-111.111111111111,4,1,0,40,0,0
197914,-111.111111111111,4,1,0,25,0,0
198559,-111.111111111111,4,1,0,20,0,0
199204,-111.111111111111,4,1,0,40,0,0
203075,-111.111111111111,4,1,0,20,0,0
204365,-142.857142857143,4,1,0,40,0,0
205978,-125,4,1,0,40,0,0
206946,-111.111111111111,4,1,0,40,0,0
209527,-111.111111111111,4,1,0,30,0,0
210817,-111.111111111111,4,1,0,40,0,0
212107,-133.333333333333,4,1,0,40,0,0
222427,333.333333333333,4,1,0,40,1,0
233093,-100,4,1,1,40,0,0
243760,-90.9090909090909,4,1,1,40,0,1
267760,-100,4,1,0,40,0,0
269093,333.333333333333,4,1,0,100,1,0
269093,-125,4,1,0,40,0,0
277759,-125,4,1,0,25,0,0
279093,-100,4,1,0,35,0,0
279426,-100,4,1,0,40,0,0
290093,-66.6666666666667,4,1,0,40,0,0
290426,-90.9090909090909,4,1,0,40,0,0
303259,333.333333333333,4,2,0,20,1,0
303259,-133.333333333333,4,2,0,20,0,0
303759,333.333333333333,4,2,0,20,1,0
303759,-166.666666666667,4,2,0,20,0,0
325759,-166.666666666667,4,2,0,5,0,0
329759,-95.2380952380952,4,1,0,40,0,0
330425,-83.3333333333333,4,1,0,40,0,1
335758,-100,4,1,0,40,0,1
341092,-111.111111111111,4,1,0,40,0,1
341508,-111.111111111111,4,1,0,5,0,1
341592,-111.111111111111,4,1,0,40,0,1
342008,-111.111111111111,4,1,0,5,0,1
342092,-111.111111111111,4,1,0,40,0,1
342342,-111.111111111111,4,1,0,5,0,1
342425,-111.111111111111,4,1,0,40,0,1
344175,-111.111111111111,4,1,0,5,0,1
344258,-111.111111111111,4,1,0,40,0,1
344675,-111.111111111111,4,1,0,5,0,1
344758,-111.111111111111,4,1,0,40,0,1
345008,-111.111111111111,4,1,0,5,0,1
345092,-90.9090909090909,4,1,0,40,0,1
350925,-90.9090909090909,4,1,0,40,0,0
353425,-90.9090909090909,4,1,0,5,0,0
353762,333.333333333333,4,1,0,30,1,0
354428,333.333333333333,4,1,0,30,1,0
354428,-200,4,1,0,30,0,0
365094,-133.333333333333,4,1,0,30,0,0
375761,-83.3333333333333,4,1,0,40,0,1
397094,-83.3333333333333,4,1,0,30,0,0
398185,333.333333333333,4,1,0,30,1,0
398185,-142.857142857143,4,1,0,30,0,0
398518,333.333333333333,4,1,0,40,1,0
403851,-117.647058823529,4,1,0,40,0,0
404184,-100,4,1,0,40,0,0
406184,-83.3333333333333,4,1,0,40,0,0
411851,-90.9090909090909,4,1,0,40,0,0
417184,-100,4,3,0,50,0,0
419518,-83.3333333333333,4,3,0,50,0,0
419851,-100,4,3,0,50,0,0
422518,-90.9090909090909,4,1,0,40,0,0
451535,382.165605095541,4,2,0,30,1,0
451535,-133.333333333333,4,2,0,30,0,0
462235,528.63436123348,4,2,0,40,1,0
462235,-100,4,2,0,40,0,0
462499,461.538461538462,4,2,0,20,1,0
462499,-200,4,2,0,20,0,0
462960,600,4,2,0,15,1,0
462960,-200,4,2,0,15,0,0
463560,827.586206896552,4,2,0,10,1,0
463560,-200,4,2,0,10,0,0
469077,333.333333333333,4,1,0,40,1,0
482410,-125,4,1,0,40,0,0
485077,-90.9090909090909,4,1,0,40,0,0
487410,-111.111111111111,4,1,0,40,0,0
488077,-100,4,1,0,40,0,0
488743,-90.9090909090909,4,1,0,40,0,0
489410,-83.3333333333333,4,1,0,40,0,0
490077,-90.9090909090909,4,1,0,40,0,0
493077,-90.9090909090909,4,1,0,30,0,0
493743,-90.9090909090909,4,1,0,40,0,0
495743,-83.3333333333333,4,1,0,40,0,0
514743,-100,4,1,0,40,0,0
515743,-83.3333333333333,4,1,0,40,0,1
531743,-71.4285714285714,4,1,0,40,0,1
536493,-71.4285714285714,4,1,0,40,0,0
538076,-100,4,1,0,20,0,0
544690,416.666666666667,4,1,0,40,1,0
563023,-86.9565217391304,4,1,0,40,0,0
569690,-86.9565217391304,4,1,0,40,0,0
578023,-100,4,1,0,40,0,0
584690,-90.9090909090909,4,1,0,40,0,0
606356,-66.6666666666667,4,1,0,40,0,0
613023,-86.9565217391304,4,1,0,40,0,0
621356,-76.9230769230769,4,1,0,40,0,1
634794,-133.333333333333,4,1,0,40,0,0
635106,-133.333333333333,4,1,0,35,0,0
635523,-133.333333333333,4,1,0,30,0,0
635940,-133.333333333333,4,1,0,25,0,0
636357,-133.333333333333,4,1,0,20,0,0
636773,-133.333333333333,4,1,0,15,0,0
637190,-133.333333333333,4,1,0,10,0,0
637606,-133.333333333333,4,1,0,5,0,0

[Colours]
Combo1 : 249,13,13
Combo2 : 251,119,21
Combo3 : 201,151,126
Combo4 : 252,200,18

[HitObjects]
74,113,959,5,0,0:0:0:0:
95,102,1063,1,0,0:0:0:0:
117,96,1166,1,0,0:0:0:0:
140,94,1269,1,0,0:0:0:0:
163,96,1373,2,0,L|177:154,1,47.5,2|0,0:0|0:0,0:0:0:0:
198,232,1580,1,0,0:0:0:0:
198,232,1683,2,0,B|253:210|261:166|261:166|264:221|292:236,1,142.5
394,186,2200,6,0,L|326:176,1,47.5,8|0,0:0|0:0,0:0:0:0:
198,232,2407,1,0,0:0:0:0:
198,232,2511,2,0,B|172:273|172:273|167:357,1,95
254,294,2821,2,0,B|302:296|302:296|377:258,1,95
279,214,3132,2,0,B|256:170|256:170|186:124,1,95
198,232,3442,2,0,B|172:273|172:273|167:357,1,95
34,142,3856,6,0,L|133:121,3,95
198,232,4683,2,0,L|99:211,3,95
34,322,5511,6,0,L|86:320,1,47.5,8|0,0:0|0:0,0:0:0:0:
186,313,5718,1,0,0:0:0:0:
186,313,5821,2,0,P|255:291|281:243,1,95
330,328,6132,2,0,P|345:257|316:210,1,95
414,210,6442,2,0,P|360:161|305:162,1,95
353,78,6752,2,0,P|284:99|258:148,1,95
186,224,7166,6,0,L|166:120,3,95
66,139,7994,2,0,L|83:45,3,95
186,54,8821,6,0,L|235:50,1,47.5,8|0,0:0|0:0,0:0:0:0:
335,42,9028,1,0,0:0:0:0:
335,42,9132,2,0,P|415:94|449:89,1,95
452,165,9442,2,0,P|366:208|354:240,1,95
286,204,9752,2,0,P|291:108|269:81,1,95
335,42,10063,2,0,P|415:94|449:89,1,95
429,286,10476,6,0,L|330:282,1,95,8|0,0:0|0:0,0:0:0:0:
228,276,10890,1,0,0:0:0:0:
299,170,11097,1,0,0:0:0:0:
313,150,11201,1,0,0:0:0:0:
326,130,11304,2,0,L|354:87,3,47.5
257,69,11718,2,0,L|229:26,3,47.5
167,107,12132,6,0,L|116:133,1,47.5,8|0,0:0|0:0,0:0:0:0:
39,176,12338,1,0,0:0:0:0:
39,176,12442,2,0,P|45:243|92:303,1,142.5
286,139,12959,2,0,L|235:165,1,47.5,8|0,0:0|0:0,0:0:0:0:
158,208,13165,1,0,0:0:0:0:
158,208,13269,2,0,P|164:275|211:335,1,142.5
423,301,13787,6,0,L|440:244,1,47.5,8|0,0:0|0:0,0:0:0:0:
89,301,14201,2,0,L|72:244,1,47.5,8|0,0:0|0:0,0:0:0:0:
256,59,14614,2,0,L|256:117,1,47.5,8|0,0:0|0:0,0:0:0:0:
136,72,15442,6,0,P|133:132|148:188,1,95,2|0,0:0|0:0,0:0:0:0:
164,200,15742,1,0,0:0:0:0:
164,200,15842,2,0,L|268:196,1,95
372,144,16242,2,0,L|416:40,1,95,8|0,0:0|0:0,0:0:0:0:
280,88,16642,2,0,L|324:-16,1,95,8|0,0:0|0:0,0:0:0:0:
472,0,17042,6,0,P|488:44|464:120,1,95,2|0,0:0|0:0,0:0:0:0:
460,120,17342,1,0,0:0:0:0:
460,120,17442,2,0,L|356:116,1,95
424,232,17842,2,0,L|320:228,1,95,8|0,0:0|0:0,0:0:0:0:
247,308,18242,2,0,P|168:327|147:321,2,95,10|2|0,0:0|0:0|0:0,0:0:0:0:
388,252,18842,5,0,0:0:0:0:
388,252,19042,2,0,L|414:155,1,95,2|0,0:0|0:0,0:0:0:0:
336,94,19442,1,0,0:0:0:0:
205,205,19642,5,0,0:0:0:0:
205,205,19842,2,0,L|179:108,1,95,2|0,0:0|0:0,0:0:0:0:
107,43,20242,6,0,P|28:62|7:56,2,95,2|2|0,0:0|0:0|0:0,0:0:0:0:
232,0,20842,1,0,0:0:0:0:
241,13,20942,2,0,P|320:32|341:26,1,95,2|2,0:0|0:0,0:0:0:0:
348,26,21242,1,0,0:0:0:0:
437,88,21442,6,0,P|447:156|432:217,1,95,2|0,0:0|0:0,0:0:0:0:
326,141,21842,2,0,P|316:209|331:270,1,95
338,266,22142,1,0,0:0:0:0:
338,266,22242,2,0,L|236:343,1,95,10|0,0:0|0:0,0:0:0:0:
148,273,22642,1,8,0:0:0:0:
170,160,22842,1,0,0:0:0:0:
302,158,23042,2,0,L|200:235,1,95,10|0,0:0|0:0,0:0:0:0:
94,224,23442,6,0,P|75:191|83:114,1,95
89,109,23742,1,0,0:0:0:0:
89,109,23842,2,0,L|191:32,1,95,10|0,0:0|0:0,0:0:0:0:
283,88,24242,1,8,0:0:0:0:
261,201,24442,1,0,0:0:0:0:
129,203,24642,6,0,L|231:126,1,95,10|0,0:0|0:0,0:0:0:0:
283,88,25042,1,8,0:0:0:0:
396,240,25242,2,0,L|453:315,2,95,10|10|0,0:0|0:0|0:0,0:0:0:0:
339,163,25842,1,8,0:0:0:0:
186,276,26042,2,0,L|110:333,2,95,2|10|0,0:0|0:0|0:0,0:0:0:0:
263,220,26642,6,0,P|319:217|366:234,1,95
396,256,26942,1,0,0:0:0:0:
396,256,27042,2,0,L|427:156,1,95,10|0,0:0|0:0,0:0:0:0:
416,76,27442,6,0,B|320:96|320:96|271:68,1,142.5
256,55,27842,2,0,L|156:83,1,95,2|0,0:0|0:0,0:0:0:0:
136,93,28142,1,0,0:0:0:0:
118,131,28242,6,0,B|110:198|110:198|149:257,1,118.75,2|0,0:0|0:0,0:0:0:0:
157,253,28542,2,0,B|224:261|224:261|266:232,1,118.75,2|0,0:0|0:0,0:0:0:0:
285,221,28842,1,2,0:0:0:0:
379,93,29042,6,0,L|397:219,1,118.75
502,157,29442,2,0,L|484:283,1,118.75
475,294,29742,1,0,0:0:0:0:
458,308,29842,2,0,P|387:330|326:314,1,118.75,2|0,0:0|0:0,0:0:0:0:
326,312,30142,2,0,P|267:305|212:326,1,118.75,2|0,0:0|0:0,0:0:0:0:
199,343,30442,1,2,0:0:0:0:
95,223,30642,6,0,L|101:103,2,118.75
213,197,31242,2,8,L|270:182,2,59.375
176,88,31642,1,0,0:0:0:0:
302,55,31842,1,8,0:0:0:0:
393,150,32042,1,0,0:0:0:0:
357,275,32242,1,8,0:0:0:0:
230,307,32442,1,0,0:0:0:0:
139,212,32642,1,8,0:0:0:0:
176,88,32842,5,0,0:0:0:0:
204,80,32942,1,0,0:0:0:0:
232,72,33042,1,10,0:0:0:0:
286,183,33242,1,0,0:0:0:0:
258,191,33342,1,0,0:0:0:0:
229,197,33442,1,0,0:0:0:0:
204,316,33642,2,10,L|284:299,2,59.375
121,268,34042,1,0,0:0:0:0:
229,197,34242,6,14,B|266:216|266:216|306:224|306:224|366:254,1,118.75,14|0,0:0|0:0,0:0:0:0:
421,273,34542,1,0,0:0:0:0:
421,273,34642,2,2,B|429:246|455:223|455:223|442:187|458:154,1,118.75,10|0,0:0|0:0,0:0:0:0:
458,141,34942,2,2,B|446:115|451:80|451:80|418:61|409:26,1,118.75,10|0,0:0|0:0,0:0:0:0:
399,18,35242,1,2,0:0:0:0:
314,131,35442,6,0,P|248:135|194:82,1,118.75
115,28,35842,1,0,0:0:0:0:
113,59,35942,2,0,L|108:133,1,59.375
104,212,36142,2,0,B|140:216|140:216|162:207|162:207|202:218|243:188,1,118.75
243,186,36442,1,0,0:0:0:0:
330,59,36642,5,2,0:0:0:0:
360,210,36842,1,0,0:0:0:0:
446,82,37042,2,0,L|315:56,1,118.75,8|0,0:0|0:0,0:0:0:0:
243,186,37442,2,0,L|374:212,1,118.75,8|0,0:0|0:0,0:0:0:0:
450,285,37842,5,8,0:0:0:0:
450,285,37942,1,0,0:0:0:0:
450,285,38042,2,0,P|361:334|292:318,1,118.75,2|0,0:0|0:0,0:0:0:0:
359,231,38442,2,0,P|306:144|238:123,1,118.75,2|0,0:0|0:0,0:0:0:0:
254,233,38842,2,0,P|165:282|96:266,1,118.75,2|0,0:0|0:0,0:0:0:0:
163,180,39242,1,2,0:0:0:0:
166,156,39342,1,0,0:0:0:0:
185,126,39442,5,10,0:0:0:0:
216,108,39542,1,0,0:0:0:0:
251,106,39642,1,0,0:0:0:0:
282,122,39742,1,0,0:0:0:0:
301,151,39842,1,10,0:0:0:0:
320,181,39942,1,0,0:0:0:0:
351,199,40042,1,0,0:0:0:0:
386,201,40142,1,0,0:0:0:0:
419,189,40242,5,10,0:0:0:0:
256,218,41042,5,6,0:0:0:0:
64,140,41590,1,0,0:0:0:0:
101,279,41772,1,2,0:0:0:0:
448,140,42317,1,0,0:0:0:0:
411,279,42499,5,2,0:0:0:0:
298,133,43045,5,0,0:0:0:0:
256,264,43226,1,2,0:0:0:0:
213,133,43408,1,0,0:0:0:0:
325,214,43590,1,2,0:0:0:0:
186,214,43772,1,0,0:0:0:0:
256,56,43954,5,2,0:0:0:0:
411,279,44499,1,0,0:0:0:0:
448,140,44681,1,2,0:0:0:0:
179,324,45226,1,0,0:0:0:0:
318,150,45408,5,2,0:0:0:0:
335,294,45590,1,0,0:0:0:0:
155,189,45772,1,0,0:0:0:0:
100,336,45953,1,0,0:0:0:0:
258,310,46135,1,0,0:0:0:0:
185,103,46681,1,0,0:0:0:0:
110,310,46863,5,6,0:0:0:0:
326,105,47408,1,0,0:0:0:0:
363,244,47590,1,2,0:0:0:0:
120,260,48135,1,0,0:0:0:0:
318,176,48317,5,2,0:0:0:0:
191,222,48499,1,0,0:0:0:0:
290,280,48681,1,0,0:0:0:0:
290,280,48863,1,0,0:0:0:0:
191,222,49045,1,0,0:0:0:0:
318,176,49227,1,0,0:0:0:0:
178,120,49408,1,0,0:0:0:0:
346,80,49590,1,0,0:0:0:0:
162,16,49772,6,0,P|86:67|78:159,1,190,2|0,0:0|0:0,0:0:0:0:
178,120,50317,1,0,0:0:0:0:
361,181,50499,2,0,P|353:272|277:324,1,190,2|0,0:0|0:0,0:0:0:0:
260,218,51045,1,0,0:0:0:0:
119,100,51226,5,2,0:0:0:0:
75,206,51408,1,0,0:0:0:0:
163,279,51590,1,0,0:0:0:0:
260,218,51772,1,0,0:0:0:0:
233,107,51954,5,2,0:0:0:0:
329,47,52135,1,0,0:0:0:0:
416,121,52317,1,0,0:0:0:0:
373,226,52499,1,0,0:0:0:0:
242,349,52682,5,10,0:0:0:0:
276,364,52772,1,0,0:0:0:0:
314,364,52863,1,0,0:0:0:0:
349,351,52954,1,0,0:0:0:0:
406,308,53045,1,8,0:0:0:0:
402,270,53136,1,0,0:0:0:0:
412,234,53227,1,0,0:0:0:0:
435,205,53317,1,0,0:0:0:0:
477,147,53408,2,0,L|464:100,3,47.5,8|0|0|0,0:0|0:0|0:0|0:0,0:0:0:0:
362,112,53772,2,0,L|348:67,3,47.5,8|0|0|0,0:0|0:0|0:0|0:0,0:0:0:0:
222,63,54135,5,10,0:0:0:0:
212,99,54226,1,0,0:0:0:0:
202,136,54317,1,0,0:0:0:0:
192,173,54408,1,0,0:0:0:0:
185,243,54499,1,8,0:0:0:0:
221,237,54589,1,0,0:0:0:0:
258,247,54680,1,0,0:0:0:0:
288,268,54771,1,0,0:0:0:0:
358,263,54863,2,0,P|381:259|403:250,1,47.5,8|0,0:0|0:0,0:0:0:0:
370,123,55045,5,2,0:0:0:0:
354,88,55136,1,0,0:0:0:0:
327,61,55227,1,8,0:0:0:0:
292,49,55317,1,0,0:0:0:0:
222,63,55408,2,0,P|200:72|176:76,1,47.5
38,60,55590,5,10,0:0:0:0:
34,98,55681,1,0,0:0:0:0:
44,135,55772,1,0,0:0:0:0:
68,163,55862,1,0,0:0:0:0:
128,202,55954,1,8,0:0:0:0:
158,179,56045,1,0,0:0:0:0:
195,169,56136,1,0,0:0:0:0:
232,176,56226,1,0,0:0:0:0:
295,208,56317,2,0,L|319:249,3,47.5,8|0|0|0,0:0|0:0|0:0|0:0,0:0:0:0:
420,184,56681,2,0,L|453:217,3,47.5,8|0|0|0,0:0|0:0|0:0|0:0,0:0:0:0:
319,83,57135,5,2,0:0:0:0:
184,217,57317,1,2,0:0:0:0:
184,217,57408,1,10,0:0:0:0:
154,240,57499,1,0,0:0:0:0:
117,250,57590,1,0,0:0:0:0:
80,243,57680,1,0,0:0:0:0:
22,199,57772,2,0,P|25:175|33:152,1,47.5,8|0,0:0|0:0,0:0:0:0:
150,65,57954,5,2,0:0:0:0:
159,101,58045,1,0,0:0:0:0:
169,137,58135,2,0,L|181:182,1,47.5,8|0,0:0|0:0,0:0:0:0:
317,312,58317,2,0,L|329:266,1,47.5,6|0,0:0|0:0,0:0:0:0:
376,80,58499,5,14,0:0:0:0:
346,57,58590,1,0,0:0:0:0:
309,47,58681,1,0,0:0:0:0:
272,54,58771,1,0,0:0:0:0:
209,89,58863,1,8,0:0:0:0:
213,126,58954,1,0,0:0:0:0:
204,163,59045,1,0,0:0:0:0:
179,192,59135,1,0,0:0:0:0:
112,218,59226,2,0,L|64:218,3,47.5,8|0|0|0,0:0|0:0|0:0|0:0,0:0:0:0:
172,312,59590,2,0,L|125:324,3,47.5,8|0|0|0,0:0|0:0|0:0|0:0,0:0:0:0:
288,280,59954,5,10,0:0:0:0:
324,274,60045,1,0,0:0:0:0:
362,284,60136,1,0,0:0:0:0:
391,308,60226,1,0,0:0:0:0:
451,346,60317,1,8,0:0:0:0:
466,312,60408,1,0,0:0:0:0:
466,273,60499,1,0,0:0:0:0:
450,239,60589,1,0,0:0:0:0:
397,195,60681,5,10,0:0:0:0:
397,195,60772,2,0,L|350:182,1,47.5,2|0,0:0|0:0,0:0:0:0:
216,139,60954,1,2,0:0:0:0:
216,139,61045,2,0,L|261:126,1,47.5,10|0,0:0|0:0,0:0:0:0:
396,80,61226,2,0,L|350:67,1,47.5,2|0,0:0|0:0,0:0:0:0:
208,56,61408,5,10,0:0:0:0:
172,69,61499,1,0,0:0:0:0:
145,97,61590,1,0,0:0:0:0:
131,132,61680,1,0,0:0:0:0:
170,192,61772,1,8,0:0:0:0:
194,221,61863,1,0,0:0:0:0:
204,259,61954,2,0,P|207:284|204:306,1,47.5
336,260,62135,5,10,0:0:0:0:
365,235,62226,1,0,0:0:0:0:
403,225,62317,1,0,0:0:0:0:
440,231,62407,1,0,0:0:0:0:
512,225,62499,1,8,0:0:0:0:
499,189,62590,1,0,0:0:0:0:
481,155,62681,2,0,P|465:135|447:121,1,47.5
316,60,62863,5,10,0:0:0:0:
306,96,62954,1,0,0:0:0:0:
296,133,63045,2,0,L|283:178,1,47.5
144,196,63226,5,10,0:0:0:0:
154,232,63317,1,0,0:0:0:0:
164,269,63408,2,0,L|176:314,1,47.5
317,341,63590,5,10,0:0:0:0:
346,316,63681,1,0,0:0:0:0:
385,307,63772,1,0,0:0:0:0:
421,312,63862,1,0,0:0:0:0:
492,320,63954,1,8,0:0:0:0:
484,281,64045,1,0,0:0:0:0:
460,249,64136,1,0,0:0:0:0:
429,229,64226,1,0,0:0:0:0:
366,197,64317,6,0,P|287:247|194:234,1,190,12|0,0:0|0:0,0:0:0:0:
87,45,64863,1,0,0:0:0:0:
87,45,65045,2,0,B|120:74|158:84|193:72|216:59|236:51|262:45|288:48|308:64|321:83|325:107|320:131|305:147|287:159|268:164|249:157|237:157|221:140|213:129,1,380,0|12,0:0|0:0,0:0:0:0:
415,147,66317,5,0,0:0:0:0:
250,242,66499,1,8,0:0:0:0:
415,241,66681,1,0,0:0:0:0:
250,146,66863,1,8,0:0:0:0:
333,290,67045,1,0,0:0:0:0:
333,99,67226,6,0,P|367:65|423:53,1,95,8|0,0:0|0:0,0:0:0:0:
500,104,67590,1,8,0:0:0:0:
415,243,67772,1,0,0:0:0:0:
310,179,67954,2,0,P|267:158|220:160,1,95,8|0,0:0|0:0,0:0:0:0:
119,191,68317,2,0,P|141:233|180:261,1,95,8|0,0:0|0:0,0:0:0:0:
415,243,68681,5,8,0:0:0:0:
220,161,68863,1,0,0:0:0:0:
408,112,69045,1,8,0:0:0:0:
292,252,69226,1,0,0:0:0:0:
124,124,69408,2,0,P|80:104|24:104,1,95,8|0,0:0|0:0,0:0:0:0:
22,114,69681,1,0,0:0:0:0:
12,127,69772,1,8,0:0:0:0:
48,256,69954,1,0,0:0:0:0:
219,161,70135,6,0,P|265:148|311:160,1,95,8|0,0:0|0:0,0:0:0:0:
507,248,70499,1,8,0:0:0:0:
359,320,70681,1,0,0:0:0:0:
416,132,70863,2,0,P|415:84|391:44,2,95,8|0|8,0:0|0:0|0:0,0:0:0:0:
316,244,71408,1,0,0:0:0:0:
128,148,71590,6,0,P|129:196|153:236,2,95,8|0|8,0:0|0:0|0:0,0:0:0:0:
224,42,72135,1,0,0:0:0:0:
330,104,72317,1,8,0:0:0:0:
224,166,72499,1,0,0:0:0:0:
330,228,72681,1,8,0:0:0:0:
224,42,72863,1,0,0:0:0:0:
184,332,73408,5,10,0:0:0:0:
408,170,73590,1,2,0:0:0:0:
131,170,73772,1,10,0:0:0:0:
355,332,73954,1,2,0:0:0:0:
270,69,74135,1,10,0:0:0:0:
270,279,74317,1,2,0:0:0:0:
374,75,74499,5,8,0:0:0:0:
382,60,74863,1,8,0:0:0:0:
390,45,75226,1,8,0:0:0:0:
334,155,75408,1,0,0:0:0:0:
216,64,75590,1,8,0:0:0:0:
194,53,75681,1,0,0:0:0:0:
170,50,75772,1,0,0:0:0:0:
146,54,75863,1,0,0:0:0:0:
103,80,75954,6,0,P|74:121|74:173,1,104.500003189087,12|0,0:0|0:0,0:0:0:0:
80,199,76226,1,0,0:0:0:0:
94,221,76317,1,8,0:0:0:0:
208,288,76499,1,0,0:0:0:0:
384,152,76681,1,8,0:0:0:0:
264,69,76863,1,0,0:0:0:0:
239,59,76954,1,0,0:0:0:0:
213,59,77045,1,8,0:0:0:0:
217,184,77226,1,0,0:0:0:0:
354,68,77408,5,2,0:0:0:0:
162,123,77590,2,0,P|136:169|146:230,1,104.500003189087,8|0,0:0|0:0,0:0:0:0:
192,300,77954,1,8,0:0:0:0:
452,228,78135,1,8,0:0:0:0:
365,346,78317,1,0,0:0:0:0:
342,329,78408,1,0,0:0:0:0:
328,306,78499,1,8,0:0:0:0:
351,161,78681,1,0,0:0:0:0:
132,83,78863,5,8,0:0:0:0:
140,218,79045,1,0,0:0:0:0:
167,214,79136,1,0,0:0:0:0:
192,199,79227,1,8,0:0:0:0:
354,68,79408,1,0,0:0:0:0:
322,294,79590,1,8,0:0:0:0:
384,161,79772,1,0,0:0:0:0:
357,150,79863,1,0,0:0:0:0:
330,149,79954,1,8,0:0:0:0:
256,340,80135,5,2,0:0:0:0:
256,48,80317,1,10,0:0:0:0:
128,268,80499,1,2,0:0:0:0:
384,116,80681,1,10,0:0:0:0:
128,116,80862,1,2,0:0:0:0:
384,268,81044,1,10,0:0:0:0:
260,196,81225,1,0,0:0:0:0:
260,196,81316,1,0,0:0:0:0:
260,196,81407,1,8,0:0:0:0:
403,60,81590,5,2,0:0:0:0:
107,60,81772,1,10,0:0:0:0:
109,238,81954,1,2,0:0:0:0:
136,237,82045,1,2,0:0:0:0:
163,226,82136,1,10,0:0:0:0:
107,60,82317,5,2,0:0:0:0:
256,315,82499,1,10,0:0:0:0:
408,225,82681,1,2,0:0:0:0:
393,201,82772,1,2,0:0:0:0:
370,183,82863,1,10,0:0:0:0:
154,53,83045,5,0,0:0:0:0:
133,254,83226,1,8,0:0:0:0:
269,103,83408,1,0,0:0:0:0:
71,146,83590,1,8,0:0:0:0:
256,228,83772,1,0,0:0:0:0:
235,27,83954,1,10,0:0:0:0:
54,228,84135,1,2,0:0:0:0:
318,171,84317,1,10,0:0:0:0:
72,61,84499,1,2,0:0:0:0:
207,296,84681,6,0,P|291:348|376:296,1,209.000006378174,10|8,0:0|0:0,0:0:0:0:
398,151,85226,1,0,0:0:0:0:
160,212,85408,2,0,P|107:296|159:381,1,209.000006378174,10|8,0:0|0:0,0:0:0:0:
207,296,85954,1,0,0:0:0:0:
332,244,86135,5,10,0:0:0:0:
187,185,86317,1,2,0:0:0:0:
360,125,86499,1,10,0:0:0:0:
164,65,86681,1,2,0:0:0:0:
164,65,86863,1,10,0:0:0:0:
360,125,87045,1,2,0:0:0:0:
187,185,87226,1,10,0:0:0:0:
332,244,87408,1,2,0:0:0:0:
207,296,87590,5,10,0:0:0:0:
171,280,87681,1,0,0:0:0:0:
133,280,87772,1,0,0:0:0:0:
98,292,87863,1,0,0:0:0:0:
30,315,87954,1,8,0:0:0:0:
24,278,88045,1,0,0:0:0:0:
34,241,88135,1,0,0:0:0:0:
56,211,88226,1,0,0:0:0:0:
112,168,88317,2,0,L|136:125,3,47.5,8|0|0|0,0:0|0:0|0:0|0:0,0:0:0:0:
253,156,88681,2,0,L|287:121,3,47.5,8|0|0|0,0:0|0:0|0:0|0:0,0:0:0:0:
404,140,89045,5,10,0:0:0:0:
412,176,89135,1,0,0:0:0:0:
422,213,89226,1,0,0:0:0:0:
432,250,89317,1,0,0:0:0:0:
440,321,89408,1,8,0:0:0:0:
405,315,89499,1,0,0:0:0:0:
367,325,89590,1,0,0:0:0:0:
337,346,89681,1,0,0:0:0:0:
266,340,89772,2,0,P|243:336|221:327,1,47.5,8|0,0:0|0:0,0:0:0:0:
100,248,89954,5,2,0:0:0:0:
116,213,90045,1,0,0:0:0:0:
143,186,90135,1,8,0:0:0:0:
178,174,90226,1,0,0:0:0:0:
249,176,90317,2,0,P|272:178|296:176,1,47.5
412,100,90499,5,10,0:0:0:0:
433,129,90590,1,0,0:0:0:0:
443,166,90681,1,0,0:0:0:0:
437,203,90772,1,0,0:0:0:0:
404,266,90863,1,8,0:0:0:0:
366,262,90954,1,0,0:0:0:0:
329,272,91045,1,0,0:0:0:0:
302,296,91135,1,0,0:0:0:0:
252,347,91226,2,0,L|218:380,3,47.5,8|0|0|0,0:0|0:0|0:0|0:0,0:0:0:0:
133,295,91590,2,0,L|92:318,3,47.5,8|0|0|0,0:0|0:0|0:0|0:0,0:0:0:0:
256,224,92045,5,2,0:0:0:0:
140,140,92226,1,2,0:0:0:0:
140,140,92317,1,10,0:0:0:0:
162,109,92408,1,0,0:0:0:0:
196,89,92499,1,0,0:0:0:0:
234,86,92590,1,0,0:0:0:0:
300,111,92681,2,0,P|322:120|342:133,1,47.5,8|0,0:0|0:0,0:0:0:0:
460,208,92863,5,2,0:0:0:0:
451,172,92954,1,0,0:0:0:0:
441,136,93045,2,0,L|429:91,1,47.5,8|0,0:0|0:0,0:0:0:0:
368,272,93226,2,0,L|356:318,1,47.5,6|0,0:0|0:0,0:0:0:0:
216,188,93408,5,14,0:0:0:0:
181,173,93499,1,0,0:0:0:0:
142,173,93590,1,0,0:0:0:0:
108,189,93681,1,0,0:0:0:0:
44,220,93772,1,8,0:0:0:0:
30,185,93863,1,0,0:0:0:0:
30,147,93954,1,0,0:0:0:0:
46,113,94045,1,0,0:0:0:0:
88,56,94135,2,0,L|116:15,3,47.5,8|0|0|0,0:0|0:0|0:0|0:0,0:0:0:0:
216,52,94499,2,0,L|252:15,3,47.5,8|0|0|0,0:0|0:0|0:0|0:0,0:0:0:0:
368,40,94863,5,10,0:0:0:0:
374,76,94954,1,0,0:0:0:0:
364,114,95045,1,0,0:0:0:0:
340,143,95135,1,0,0:0:0:0:
272,165,95226,1,8,0:0:0:0:
235,159,95317,1,0,0:0:0:0:
197,169,95408,1,0,0:0:0:0:
168,193,95499,1,0,0:0:0:0:
140,258,95590,5,10,0:0:0:0:
140,258,95681,2,0,L|187:271,1,47.5,2|0,0:0|0:0,0:0:0:0:
328,308,95863,1,2,0:0:0:0:
328,308,95954,2,0,L|283:321,1,47.5,10|0,0:0|0:0,0:0:0:0:
280,208,96135,2,0,L|326:195,1,47.5,2|0,0:0|0:0,0:0:0:0:
440,160,96317,5,10,0:0:0:0:
426,123,96408,1,0,0:0:0:0:
398,95,96499,1,0,0:0:0:0:
363,82,96590,1,0,0:0:0:0:
292,70,96681,1,8,0:0:0:0:
263,94,96772,1,0,0:0:0:0:
225,104,96863,2,0,P|200:107|178:104,1,47.5
64,92,97045,5,10,0:0:0:0:
79,125,97135,1,0,0:0:0:0:
78,164,97226,1,0,0:0:0:0:
64,198,97317,1,0,0:0:0:0:
52,268,97408,1,8,0:0:0:0:
90,264,97499,1,0,0:0:0:0:
128,256,97590,2,0,P|151:245|169:231,1,47.5
296,160,97772,5,10,0:0:0:0:
306,196,97863,1,0,0:0:0:0:
316,233,97954,2,0,L|329:278,1,47.5
404,156,98135,5,10,0:0:0:0:
414,120,98226,1,0,0:0:0:0:
424,83,98317,2,0,L|436:38,1,47.5
292,44,98499,5,10,0:0:0:0:
255,56,98590,1,0,0:0:0:0:
228,85,98681,1,0,0:0:0:0:
214,119,98772,1,0,0:0:0:0:
196,188,98863,1,8,0:0:0:0:
221,219,98954,1,0,0:0:0:0:
230,257,99045,1,0,0:0:0:0:
225,294,99135,1,0,0:0:0:0:
191,356,99226,5,12,0:0:0:0:
143,76,99960,5,0,0:0:0:0:
143,76,100312,1,0,0:0:0:0:
283,276,100665,5,8,0:0:0:0:
153,215,100846,1,0,0:0:0:0:
144,240,100937,1,0,0:0:0:0:
147,264,101028,1,8,0:0:0:0:
213,86,101210,1,0,0:0:0:0:
188,76,101301,1,0,0:0:0:0:
164,78,101392,1,8,0:0:0:0:
342,148,101574,1,0,0:0:0:0:
352,123,101665,1,0,0:0:0:0:
350,97,101756,1,8,0:0:0:0:
283,276,101937,5,0,0:0:0:0:
248,140,102119,2,0,P|200:112|64:212,1,237.5,4|0,0:0|0:0,0:0:0:0:
64,220,102665,1,0,0:0:0:0:
67,240,102755,1,0,0:0:0:0:
72,260,102846,2,0,B|212:328|212:328|300:292,1,237.5,4|0,0:0|0:0,0:0:0:0:
318,283,103392,1,0,0:0:0:0:
347,266,103483,1,0,0:0:0:0:
363,236,103574,5,8,0:0:0:0:
241,117,103755,1,0,0:0:0:0:
241,151,103846,1,0,0:0:0:0:
258,179,103937,1,8,0:0:0:0:
423,136,104119,1,0,0:0:0:0:
393,120,104210,1,0,0:0:0:0:
360,121,104301,1,8,0:0:0:0:
184,203,104483,5,0,0:0:0:0:
159,225,104574,1,0,0:0:0:0:
145,257,104665,1,8,0:0:0:0:
145,294,104755,1,0,0:0:0:0:
163,330,104846,1,0,0:0:0:0:
197,355,104937,1,0,0:0:0:0:
246,359,105028,2,0,B|278:342|299:311|299:305|281:253|285:237|282:155|386:170|416:206|427:277|364:320|328:317|253:222,1,427.500016307831,4|0,0:0|0:0,0:0:0:0:
133,226,106301,5,0,0:0:0:0:
136,197,106392,1,0,0:0:0:0:
139,168,106483,2,0,P|158:117|245:101,1,142.5
279,110,106846,1,0,0:0:0:0:
321,113,106937,1,0,0:0:0:0:
359,95,107028,1,0,0:0:0:0:
388,64,107119,1,0,0:0:0:0:
409,26,107210,2,0,B|452:5|452:5|504:10,1,95,2|4,0:0|0:0,0:0:0:0:
379,158,107755,5,0,0:0:0:0:
376,187,107846,1,0,0:0:0:0:
373,216,107937,2,0,P|353:266|266:282,1,142.5
233,274,108300,1,0,0:0:0:0:
191,271,108391,1,0,0:0:0:0:
153,289,108482,1,0,0:0:0:0:
124,320,108573,1,0,0:0:0:0:
103,358,108665,2,0,B|59:378|59:378|7:373,1,95,2|4,0:0|0:0,0:0:0:0:
62,190,109210,1,0,0:0:0:0:
62,162,109301,1,0,0:0:0:0:
68,141,109392,6,0,B|101:85|151:74|151:74|160:135|160:135|189:97|223:53|301:82|316:111|366:174|305:274|207:246|190:218,1,534.375020384789
176,222,110846,6,0,P|133:240|222:291,1,213.750008153916
287,364,111574,1,0,0:0:0:0:
287,364,111937,1,0,0:0:0:0:
435,230,112301,5,8,0:0:0:0:
281,90,112483,1,0,0:0:0:0:
252,65,112574,1,0,0:0:0:0:
225,38,112665,1,8,0:0:0:0:
245,230,112846,1,0,0:0:0:0:
245,230,112937,1,0,0:0:0:0:
245,230,113028,1,8,0:0:0:0:
398,90,113210,1,0,0:0:0:0:
426,65,113301,1,0,0:0:0:0:
453,39,113392,1,8,0:0:0:0:
435,230,113574,5,0,0:0:0:0:
223,141,113755,2,0,P|134:160|233:218,1,261.250007972718,4|0,0:0|0:0,0:0:0:0:
243,218,114301,1,0,0:0:0:0:
261,204,114392,1,0,0:0:0:0:
279,190,114483,2,0,B|316:160|341:106|341:106|265:48|189:41,1,261.250007972718,4|0,0:0|0:0,0:0:0:0:
159,34,115028,1,0,0:0:0:0:
118,24,115119,1,0,0:0:0:0:
76,14,115210,5,8,0:0:0:0:
119,197,115392,1,0,0:0:0:0:
130,237,115483,1,0,0:0:0:0:
142,278,115574,1,8,0:0:0:0:
278,149,115755,1,0,0:0:0:0:
306,118,115846,1,0,0:0:0:0:
336,89,115937,1,8,0:0:0:0:
159,34,116119,5,0,0:0:0:0:
118,24,116210,1,0,0:0:0:0:
74,30,116301,1,8,0:0:0:0:
33,54,116392,1,0,0:0:0:0:
7,96,116483,1,0,0:0:0:0:
1,148,116574,1,0,0:0:0:0:
16,198,116665,2,0,B|59:281|140:288|140:288|119:246|127:212|127:212|152:248|208:278|257:241|297:182|251:122|215:116,1,484.500009241104,4|0,0:0|0:0,0:0:0:0:
414,283,117937,5,0,0:0:0:0:
389,289,118028,1,0,0:0:0:0:
363,287,118119,2,0,P|323:224|385:199,1,156.750004783631
449,209,118483,5,8,0:0:0:0:
479,245,118574,1,0,0:0:0:0:
483,291,118665,1,0,0:0:0:0:
464,333,118755,1,0,0:0:0:0:
426,362,118846,2,0,P|382:384|300:363,1,104.500003189087,2|0,0:0|0:0,0:0:0:0:
256,213,119210,1,8,0:0:0:0:
98,283,119392,5,0,0:0:0:0:
123,289,119483,1,0,0:0:0:0:
149,287,119574,2,0,P|189:224|127:199,1,156.750004783631
63,209,119938,5,8,0:0:0:0:
33,245,120029,1,0,0:0:0:0:
29,291,120120,1,0,0:0:0:0:
48,333,120210,1,0,0:0:0:0:
86,362,120301,2,0,P|130:384|212:363,1,104.500003189087,2|0,0:0|0:0,0:0:0:0:
256,213,120665,1,8,0:0:0:0:
337,356,120846,1,0,0:0:0:0:
348,333,120937,1,0,0:0:0:0:
358,311,121028,6,0,B|401:223|355:158|355:158|391:180|391:180|338:102|396:25|396:25|286:64|224:14,1,534.375020384789
215,14,122483,6,0,P|160:31|119:174,1,213.750008153916
223,129,123210,1,8,0:0:0:0:
223,129,123574,1,0,0:0:0:0:
56,77,123937,6,0,L|91:187,1,95,8|0,0:0|0:0,0:0:0:0:
116,254,124301,1,0,0:0:0:0:
223,129,124483,1,0,0:0:0:0:
323,286,124665,2,0,P|365:263|387:222,1,95,2|0,0:0|0:0,0:0:0:0:
449,167,124937,2,0,P|393:140|345:151,1,95,2|0,0:0|0:0,0:0:0:0:
283,118,125210,2,0,P|279:151|289:182,1,47.5,2|0,0:0|0:0,0:0:0:0:
306,204,125392,1,2,0:0:0:0:
256,333,125574,1,0,0:0:0:0:
368,293,125755,6,0,P|414:258|432:221,1,95,8|0,0:0|0:0,0:0:0:0:
144,293,126119,2,0,P|98:258|80:221,1,95,8|0,0:0|0:0,0:0:0:0:
320,60,126483,2,0,L|360:156,1,95,8|0,0:0|0:0,0:0:0:0:
192,60,126846,2,0,L|152:156,1,95,8|0,0:0|0:0,0:0:0:0:
85,197,127210,1,0,0:0:0:0:
77,92,127392,1,0,0:0:0:0:
192,60,127574,2,0,P|237:82|275:130,1,95
340,212,127937,5,0,0:0:0:0:
256,324,128119,1,0,0:0:0:0:
172,212,128301,1,8,0:0:0:0:
256,150,128483,1,0,0:0:0:0:
420,167,128665,2,0,P|423:238|406:276,1,95
340,212,129028,2,0,P|337:141|354:103,1,95
92,167,129392,2,0,P|89:238|106:276,1,95
172,212,129755,2,0,P|175:141|158:103,1,95
56,70,130119,5,0,0:0:0:0:
170,27,130301,1,0,0:0:0:0:
278,138,130483,2,0,L|377:109,1,95,2|0,0:0|0:0,0:0:0:0:
443,103,130755,2,0,L|344:74,1,95,2|0,0:0|0:0,0:0:0:0:
278,68,131028,2,0,L|332:52,1,47.5,2|0,0:0|0:0,0:0:0:0:
369,41,131210,1,2,0:0:0:0:
367,185,131392,1,0,0:0:0:0:
180,248,131574,6,0,L|104:332,1,95,8|0,0:0|0:0,0:0:0:0:
256,280,131937,2,0,L|256:384,1,95,8|0,0:0|0:0,0:0:0:0:
332,248,132301,2,0,L|408:332,1,95,8|0,0:0|0:0,0:0:0:0:
256,124,132665,2,0,B|250:96|261:68|261:68|250:58|250:58|261:31|256:1,1,123.499994346619,2|0,0:0|0:0,0:0:0:0:
141,17,133028,6,0,B|111:42|111:42|98:109,1,95
25,171,133392,2,0,B|50:201|50:201|117:214,1,95
179,287,133755,2,0,B|209:262|209:262|222:195,1,95
295,133,134119,6,0,B|270:103|270:103|203:90,1,95
378,94,134483,2,0,B|371:55|371:55|319:10,1,95
414,174,134846,2,0,B|439:204|439:204|493:214,1,95
331,213,135210,2,0,B|337:251|337:251|379:288,1,95
378,94,135574,6,0,B|404:81|416:64|416:64|441:64|441:64|461:48|488:47,1,113.999996520996,8|0,0:0|0:0,0:0:0:0:
290,43,135937,2,0,P|278:119|295:153,1,95
331,213,136301,2,0,L|324:265,7,47.5
237,197,137028,6,0,B|211:184|199:167|199:167|174:167|174:167|154:151|127:150,1,113.999996520996,8|0,0:0|0:0,0:0:0:0:
53,276,137392,2,0,L|152:266,1,95
230,309,137755,2,0,L|237:361,7,47.5
324,260,138483,6,0,B|333:211|333:211|375:195|383:148,1,113.999996520996,8|0,0:0|0:0,0:0:0:0:
392,62,138846,2,0,B|347:72|347:72|304:101,1,95
188,260,139210,6,0,B|179:211|179:211|137:195|129:148,1,113.999996520996,8|0,0:0|0:0,0:0:0:0:
120,62,139573,2,0,B|165:72|165:72|208:101,1,95
392,62,139937,6,0,B|402:97|402:97|390:129|390:129|397:171,1,113.999996520996,8|0,0:0|0:0,0:0:0:0:
413,252,140301,2,0,P|366:249|330:220,1,95
308,29,140665,2,0,B|318:64|318:64|306:96|306:96|313:138,1,113.999996520996,8|0,0:0|0:0,0:0:0:0:
329,219,141029,2,0,P|282:216|246:187,1,95
148,6,141395,6,0,L|255:13,1,95,2|0,0:0|0:0,0:0:0:0:
173,87,141645,2,0,L|67:94,1,95,2|0,0:0|0:0,0:0:0:0:
148,168,141895,2,0,L|255:175,1,95,2|0,0:0|0:0,0:0:0:0:
173,249,142145,2,0,L|67:256,1,95,2|0,0:0|0:0,0:0:0:0:
148,330,142395,6,0,B|244:336|244:336|268:374|268:374|249:330|274:277|312:260|381:261|406:310|405:350|394:376|394:376|419:338|419:338|491:331|491:331|470:277|441:230|382:204,1,684
239,95,144061,6,0,P|215:82|220:131,1,95,2|0,0:0|0:0,0:0:0:0:
339,158,144311,2,0,P|378:117|374:60,1,95,2|0,0:0|0:0,0:0:0:0:
225,226,144561,2,0,B|262:236|287:253|287:253|305:249|329:252,1,95,2|0,0:0|0:0,0:0:0:0:
312,91,144811,2,0,B|307:34|257:7|238:8|196:1|157:3|134:41|117:79|107:109|139:164|139:164|87:185|87:185|120:228|96:304|96:304|187:262|273:329|273:329|317:312|363:328,1,798
363,206,146728,6,0,L|426:135,1,95,2|0,0:0|0:0,0:0:0:0:
327,127,146978,2,0,L|264:198,1,95,2|0,0:0|0:0,0:0:0:0:
228,119,147228,2,0,L|292:49,1,95,2|0,0:0|0:0,0:0:0:0:
391,57,147478,2,0,L|327:127,1,95,2|0,0:0|0:0,0:0:0:0:
426,135,147728,6,0,P|484:194|413:319,1,228,0|0,2:0|2:0,2:0:0:0:
309,283,148395,6,0,P|292:239|301:180,1,95
393,225,148728,2,0,P|439:232|486:269,1,95
401,326,149061,2,0,P|371:362|315:384,1,95
145,330,149395,6,0,L|205:341,1,47.5,2|0,0:0|0:0,0:0:0:0:
309,283,149561,2,0,L|262:323,1,47.5,0|0,0:0|0:0,0:0:0:0:
104,256,149728,2,0,L|165:251,1,47.5,0|0,0:0|0:0,0:0:0:0:
307,201,149895,2,0,L|252:228,1,47.5,0|0,0:0|0:0,0:0:0:0:
64,184,150061,2,0,L|121:164,1,47.5,2|0,0:0|0:0,0:0:0:0:
306,119,150228,2,0,L|245:130,1,47.5,0|0,0:0|0:0,0:0:0:0:
25,113,150395,2,0,L|75:78,1,47.5,0|0,0:0|0:0,0:0:0:0:
305,36,150561,2,0,L|243:31,1,47.5,0|0,0:0|0:0,0:0:0:0:
84,42,150728,5,2,0:0:0:0:
54,56,150811,1,0,0:0:0:0:
33,81,150894,1,0,0:0:0:0:
25,113,150978,1,0,0:0:0:0:
31,146,151061,1,2,0:0:0:0:
51,172,151144,1,0,0:0:0:0:
80,188,151228,1,0,0:0:0:0:
113,191,151311,1,0,0:0:0:0:
143,179,151394,1,2,0:0:0:0:
166,155,151478,1,0,0:0:0:0:
177,123,151561,1,0,0:0:0:0:
173,91,151644,1,0,0:0:0:0:
158,61,151728,2,0,L|238:72,1,47.5,8|0,0:0|0:0,0:0:0:0:
239,178,151895,2,0,L|286:184,1,47.5,8|0,0:0|0:0,0:0:0:0:
343,85,152061,6,0,P|396:151|401:193,1,95,2|0,0:0|0:0,0:0:0:0:
409,273,152395,1,8,0:0:0:0:
239,178,152561,1,0,0:0:0:0:
343,85,152728,2,0,P|427:94|460:120,1,95,2|0,0:0|0:0,0:0:0:0:
452,114,152978,1,0,0:0:0:0:
466,132,153061,1,8,0:0:0:0:
409,273,153228,1,0,0:0:0:0:
323,192,153395,6,0,P|297:243|294:299,1,95,2|0,0:0|0:0,0:0:0:0:
301,378,153728,1,8,0:0:0:0:
409,273,153895,1,0,0:0:0:0:
230,340,154061,1,2,0:0:0:0:
416,306,154228,1,0,0:0:0:0:
183,275,154395,1,8,0:0:0:0:
423,339,154561,1,0,0:0:0:0:
159,198,154728,6,0,P|90:219|119:276,1,142.5,2|0,0:0|0:0,0:0:0:0:
183,275,155061,2,0,P|233:232|210:135,1,142.5,2|0,0:0|0:0,0:0:0:0:
210,90,155395,2,0,P|246:149|314:162,2,142.5,2|0|0,0:0|0:0|0:0,0:0:0:0:
489,245,156228,6,0,L|427:263,1,47.5,8|0,0:0|0:0,0:0:0:0:
349,341,156394,1,0,0:0:0:0:
349,341,156478,2,0,L|394:354,1,47.5,8|0,0:0|0:0,0:0:0:0:
465,219,156644,2,0,L|362:249,1,95,8|0,0:0|0:0,0:0:0:0:
297,268,156894,2,0,P|259:329|262:371,2,95
232,158,157394,6,0,P|237:108|224:61,1,95,2|0,0:0|0:0,0:0:0:0:
80,18,157728,1,8,0:0:0:0:
140,213,157894,1,0,0:0:0:0:
295,126,158061,2,0,P|263:87|220:63,1,95,2|0,0:0|0:0,0:0:0:0:
201,58,158311,1,0,0:0:0:0:
177,55,158394,1,8,0:0:0:0:
140,213,158561,1,0,0:0:0:0:
313,205,158728,6,0,B|361:215|361:215|404:274,1,95,2|0,0:0|0:0,0:0:0:0:
448,351,159061,1,8,0:0:0:0:
270,356,159228,1,0,0:0:0:0:
246,340,159311,1,0,0:0:0:0:
231,315,159394,1,2,0:0:0:0:
388,252,159561,1,0,0:0:0:0:
189,384,159728,1,8,0:0:0:0:
430,183,159894,1,2,0:0:0:0:
448,351,160061,6,0,P|392:369|309:338,1,142.5,2|0,0:0|0:0,0:0:0:0:
260,291,160394,2,0,P|194:265|127:283,1,142.5,2|0,0:0|0:0,0:0:0:0:
74,339,160728,2,0,P|57:251|106:209,2,142.5,2|0|0,0:0|0:0|0:0,0:0:0:0:
103,99,161561,6,0,L|157:107,1,47.5,8|0,0:0|0:0,0:0:0:0:
264,33,161728,1,0,0:0:0:0:
264,33,161811,2,0,L|210:25,1,47.5,8|0,0:0|0:0,0:0:0:0:
79,125,161978,2,0,L|193:141,1,95,8|0,0:0|0:0,0:0:0:0:
257,150,162228,2,0,P|284:117|364:100,2,95
203,273,162728,6,0,B|218:328|218:328|274:367,1,113.999996520996,2|0,0:0|0:0,0:0:0:0:
395,364,163061,1,8,0:0:0:0:
360,171,163228,1,0,0:0:0:0:
203,273,163394,1,2,0:0:0:0:
414,261,163561,1,0,0:0:0:0:
441,254,163644,1,0,0:0:0:0:
463,235,163728,1,8,0:0:0:0:
378,117,163894,1,0,0:0:0:0:
366,143,163978,1,0,0:0:0:0:
360,171,164061,6,0,P|298:197|229:187,1,113.999996520996,2|0,0:0|0:0,0:0:0:0:
157,152,164394,1,8,0:0:0:0:
291,27,164561,1,0,0:0:0:0:
246,281,164728,1,2,0:0:0:0:
133,50,164894,1,0,0:0:0:0:
360,171,165061,1,8,0:0:0:0:
106,208,165228,1,0,0:0:0:0:
291,27,165394,6,0,B|325:35|357:32|357:32|366:50|381:63|381:63|417:60|450:74,1,170.999994781494,2|0,0:0|0:0,0:0:0:0:
507,139,165728,2,0,B|473:172|473:172|449:155|449:155|416:185|355:169,1,170.999994781494,2|0,0:0|0:0,0:0:0:0:
289,124,166061,2,0,P|278:194|364:254,2,170.999994781494,2|0|0,0:0|0:0|0:0,0:0:0:0:
291,27,166728,5,2,0:0:0:0:
86,78,166894,1,0,0:0:0:0:
86,78,166978,1,0,0:0:0:0:
86,78,167061,2,0,P|79:123|87:149,1,56.9999982604981,8|0,0:0|0:0,0:0:0:0:
206,141,167228,2,0,P|184:121|159:109,1,56.9999982604981
90,213,167394,2,0,P|116:204|139:188,1,56.9999982604981,2|0,0:0|0:0,0:0:0:0:
148,39,167561,1,0,0:0:0:0:
25,178,167728,1,8,0:0:0:0:
208,214,167894,1,0,0:0:0:0:
148,39,168061,6,0,P|94:78|86:141,1,113.999996520996,2|0,0:0|0:0,0:0:0:0:
90,245,168394,1,8,0:0:0:0:
273,174,168561,1,0,0:0:0:0:
174,348,168728,1,2,0:0:0:0:
159,151,168894,1,0,0:0:0:0:
170,124,168978,1,0,0:0:0:0:
192,106,169061,1,8,0:0:0:0:
328,160,169228,1,0,0:0:0:0:
302,172,169311,1,0,0:0:0:0:
273,174,169394,6,0,P|219:154|197:61,1,113.999996520996,2|0,0:0|0:0,0:0:0:0:
181,9,169728,1,8,0:0:0:0:
373,45,169894,1,0,0:0:0:0:
407,66,169978,1,0,0:0:0:0:
429,98,170061,1,2,0:0:0:0:
273,174,170228,1,0,0:0:0:0:
373,45,170394,1,8,0:0:0:0:
329,227,170561,1,0,0:0:0:0:
485,151,170728,6,0,P|481:235|387:237,1,170.999994781494,2|0,0:0|0:0,0:0:0:0:
329,227,171061,2,0,B|246:200|246:274|154:232,1,170.999994781494,2|0,0:0|0:0,0:0:0:0:
105,176,171394,2,0,P|79:244|155:320,2,170.999994781494,2|0|0,0:0|0:0|0:0,0:0:0:0:
170,74,172061,6,0,P|256:110|347:71,1,190,4|0,0:0|0:0,0:0:0:0:
105,176,172728,6,0,L|9:132,1,80.750001540184,2|0,0:0|0:0,0:0:0:0:
407,176,173061,2,0,L|503:132,1,80.750001540184,2|0,0:0|0:0,0:0:0:0:
346,47,173398,6,0,P|256:29|168:47,1,180.49999518013
40,157,174043,1,0,0:0:0:0:
152,292,174365,1,0,0:0:0:0:
152,292,174527,2,0,B|188:288|216:272|216:272|240:288|240:288|296:264|364:300,1,190
448,168,175172,5,0,0:0:0:0:
360,203,175333,1,8,0:0:0:0:
265,195,175494,1,0,0:0:0:0:
202,122,175656,1,8,0:0:0:0:
178,30,175817,1,0,0:0:0:0:
92,88,175978,6,0,B|136:320,1,213.750008153916
60,328,176623,2,0,P|124:376|208:280,1,228
340,356,177268,2,0,B|383:113,1,242.250004620552
460,136,177914,2,0,P|404:40|304:108,1,256.499992172241
224,36,178559,6,0,B|189:32|161:16|161:16|140:24|140:24|82:15|36:65,1,180.49999518013
128,148,179204,1,0,0:0:0:0:
56,272,179527,1,0,0:0:0:0:
56,272,179688,2,0,P|148:292|232:248,1,190
128,148,180333,5,0,0:0:0:0:
160,58,180494,1,8,0:0:0:0:
228,124,180656,1,0,0:0:0:0:
260,34,180817,1,8,0:0:0:0:
328,96,180978,1,0,0:0:0:0:
432,136,181139,6,0,P|444:208|316:244,1,213.750008153916
368,184,181785,2,0,B|344:136|287:142|287:142|232:150|204:92,1,199.499993911743
179,21,182430,2,0,P|147:41|139:133,1,123.499994346619
64,184,182914,2,0,L|16:176,2,30.8749985866547,8|10|8,0:0|0:0|0:0,0:0:0:0:
185,209,183236,1,8,0:0:0:0:
276,300,183398,6,0,L|359:238,1,95,2|0,0:0|0:0,0:0:0:0:
456,164,183720,6,0,P|500:72|454:-12,2,190
394,81,184688,1,0,0:0:0:0:
394,81,184849,2,0,P|302:124|218:79,1,190
60,184,185494,5,0,0:0:0:0:
8,115,185656,1,8,0:0:0:0:
57,45,185817,1,0,0:0:0:0:
139,70,185978,1,8,0:0:0:0:
140,156,186139,1,0,0:0:0:0:
60,184,186301,6,0,P|108:236|160:236,1,95,2|0,0:0|0:0,0:0:0:0:
152,316,186623,2,0,P|204:268|204:216,1,95,2|0,0:0|0:0,0:0:0:0:
140,156,186946,1,8,0:0:0:0:
250,66,187107,1,0,0:0:0:0:
273,207,187268,1,8,0:0:0:0:
372,70,187430,1,0,0:0:0:0:
372,70,187591,6,0,L|468:41,1,95,2|0,0:0|0:0,0:0:0:0:
455,152,187914,2,0,L|364:179,1,95,2|0,0:0|0:0,0:0:0:0:
273,207,188236,2,0,L|273:112,1,95,2|0,0:0|0:0,0:0:0:0:
466,271,188559,2,0,L|466:366,1,95,2|0,0:0|0:0,0:0:0:0:
352,328,188881,6,0,B|300:344|300:344|260:328|260:328|220:348|165:330,1,180.49999518013
212,184,189527,1,0,0:0:0:0:
84,104,189849,1,0,0:0:0:0:
84,104,190010,2,0,P|155:38|259:37,1,190
504,15,190656,5,0,0:0:0:0:
472,105,190817,1,8,0:0:0:0:
404,39,190979,1,0,0:0:0:0:
372,129,191140,1,8,0:0:0:0:
304,67,191301,1,0,0:0:0:0:
280,172,191462,6,0,P|183:158|124:48,1,228
248,51,192107,2,0,P|186:142|221:246,1,213.750008153916
295,157,192752,2,0,P|197:155|129:224,1,199.499993911743
242,256,193397,2,2,B|229:302|285:370|285:370|329:298|309:246,1,256.499992172241
388,124,194043,5,8,0:0:0:0:
260,148,194204,1,8,0:0:0:0:
286,22,194365,6,0,L|214:-10,3,42.7499986953736,0|0|0|0,3:0|3:0|3:0|3:0,3:0:0:0:
177,39,194688,2,0,L|117:31,3,42.7499986953736,0|0|0|0,3:0|3:0|3:0|3:0,3:0:0:0:
86,98,195010,2,0,L|14:114,3,42.7499986953736,0|0|0|0,3:0|3:0|3:0|3:0,3:0:0:0:
180,134,195333,6,0,L|232:166,3,42.7499986953736,0|0|0|0,3:0|3:0|3:0|3:0,3:0:0:0:
190,233,195656,2,0,L|226:285,3,42.7499986953736,0|0|0|0,3:0|3:0|3:0|3:0,3:0:0:0:
167,339,195978,2,0,L|175:399,3,42.7499986953736,0|0|0|0,3:0|3:0|3:0|3:0,3:0:0:0:
278,352,196301,2,0,L|316:334,3,42.7499986953736,0|0|0|0,3:0|3:0|3:0|3:0,3:0:0:0:
308,252,196623,5,8,0:0:0:0:
424,304,196785,1,8,0:0:0:0:
456,180,196946,6,0,L|504:164,3,42.7499986953736,0|0|0|0,3:0|3:0|3:0|3:0,3:0:0:0:
416,112,197268,2,0,L|468:72,3,42.7499986953736,0|0|0|0,3:0|3:0|3:0|3:0,3:0:0:0:
356,60,197591,2,0,L|392:12,3,42.7499986953736,0|0|0|0,3:0|3:0|3:0|3:0,3:0:0:0:
268,41,197914,5,0,0:0:0:0:
233,41,197995,1,0,0:0:0:0:
201,53,198076,1,0,0:0:0:0:
176,76,198156,1,0,0:0:0:0:
161,107,198237,1,0,0:0:0:0:
158,141,198317,1,0,0:0:0:0:
167,173,198398,1,0,0:0:0:0:
188,201,198479,1,0,0:0:0:0:
217,219,198559,1,0,0:0:0:0:
248,220,198639,1,0,0:0:0:0:
275,208,198720,1,0,0:0:0:0:
300,196,198801,1,0,0:0:0:0:
325,193,198881,1,0,0:0:0:0:
347,199,198962,1,0,0:0:0:0:
363,213,199043,1,0,0:0:0:0:
371,232,199123,1,0,0:0:0:0:
378,255,199204,5,8,0:0:0:0:
315,356,199365,1,8,0:0:0:0:
180,368,199527,6,0,L|124:369,3,42.7499986953736,0|0|0|0,3:0|3:0|3:0|3:0,3:0:0:0:
208,294,199849,2,0,L|248:255,3,42.7499986953736,0|0|0|0,3:0|3:0|3:0|3:0,3:0:0:0:
136,264,200172,2,0,L|80:265,3,42.7499986953736,0|0|0|0,3:0|3:0|3:0|3:0,3:0:0:0:
164,190,200494,6,0,L|204:151,3,42.7499986953736,0|0|0|0,3:0|3:0|3:0|3:0,3:0:0:0:
93,152,200817,2,0,L|37:153,3,42.7499986953736,0|0|0|0,3:0|3:0|3:0|3:0,3:0:0:0:
121,78,201139,2,0,L|161:39,3,42.7499986953736,0|0|0|0,3:0|3:0|3:0|3:0,3:0:0:0:
48,48,201462,2,0,L|-7:49,3,42.7499986953736,0|0|0|0,3:0|3:0|3:0|3:0,3:0:0:0:
100,0,201785,5,8,0:0:0:0:
224,36,201946,1,8,0:0:0:0:
348,8,202107,6,0,L|420:0,3,42.7499986953736,0|0|0|0,3:0|3:0|3:0|3:0,3:0:0:0:
372,80,202430,2,0,L|428:92,3,42.7499986953736,0|0|0|0,3:0|3:0|3:0|3:0,3:0:0:0:
384,156,202752,2,0,L|432:180,3,42.7499986953736,0|0|0|0,3:0|3:0|3:0|3:0,3:0:0:0:
382,243,203075,5,0,0:0:0:0:
364,254,203155,1,0,0:0:0:0:
344,262,203236,1,0,0:0:0:0:
323,266,203316,1,0,0:0:0:0:
301,266,203397,1,0,0:0:0:0:
281,261,203478,1,0,0:0:0:0:
261,253,203558,1,0,0:0:0:0:
243,241,203639,1,0,0:0:0:0:
228,226,203720,1,0,0:0:0:0:
216,208,203800,1,0,0:0:0:0:
208,189,203881,1,0,0:0:0:0:
204,168,203962,1,0,0:0:0:0:
203,146,204042,1,0,0:0:0:0:
207,125,204123,1,0,0:0:0:0:
215,106,204204,1,0,0:0:0:0:
227,88,204284,1,0,0:0:0:0:
243,72,204365,5,4,0:0:0:0:
312,44,204527,1,4,0:0:0:0:
360,102,204688,2,0,B|365:154|338:199|338:199|409:218|421:296|373:347|310:353|263:296,1,332.499989852906
216,352,205656,5,4,0:0:0:0:
156,308,205817,1,4,0:0:0:0:
84,335,205978,2,0,B|23:291|23:291|73:259|73:259|14:226|3:161|3:161|82:206|142:150,1,380
282,198,206946,5,0,0:0:0:0:
70,59,207268,1,0,0:0:0:0:
350,10,207591,1,0,0:0:0:0:
231,326,207914,1,0,0:0:0:0:
76,354,208075,1,0,0:0:0:0:
304,124,208397,5,0,0:0:0:0:
231,326,208559,1,8,0:0:0:0:
203,172,208720,1,0,0:0:0:0:
386,298,208881,1,8,0:0:0:0:
231,326,209043,1,2,0:0:0:0:
203,172,209204,1,8,0:0:0:0:
358,144,209365,1,0,0:0:0:0:
436,286,209527,5,8,0:0:0:0:
420,292,209607,1,0,0:0:0:0:
403,297,209688,1,0,0:0:0:0:
386,298,209768,1,0,0:0:0:0:
355,296,209849,5,8,0:0:0:0:
325,282,209930,1,0,0:0:0:0:
301,257,210010,1,0,0:0:0:0:
289,224,210091,1,0,0:0:0:0:
287,189,210172,1,0,0:0:0:0:
295,156,210252,1,0,0:0:0:0:
313,127,210333,1,0,0:0:0:0:
341,108,210414,1,0,0:0:0:0:
373,101,210494,1,0,0:0:0:0:
407,111,210575,1,0,0:0:0:0:
431,134,210656,1,0,0:0:0:0:
439,166,210736,1,0,0:0:0:0:
436,200,210817,5,8,0:0:0:0:
419,229,210897,1,0,0:0:0:0:
390,247,210978,1,0,0:0:0:0:
355,246,211059,1,0,0:0:0:0:
324,230,211139,1,8,0:0:0:0:
297,208,211220,1,0,0:0:0:0:
276,180,211301,1,0,0:0:0:0:
253,151,211381,1,0,0:0:0:0:
222,127,211462,1,0,0:0:0:0:
185,109,211543,1,0,0:0:0:0:
142,109,211623,1,0,0:0:0:0:
101,123,211704,1,0,0:0:0:0:
74,156,211785,1,0,0:0:0:0:
66,193,211865,1,0,0:0:0:0:
76,230,211946,1,0,0:0:0:0:
98,258,212027,1,0,0:0:0:0:
128,270,212107,6,4,P|164:277|254:223,1,142.500005435944
168,128,212752,1,0,0:0:0:0:
172,132,212914,2,0,L|142:227,1,71.2500027179719,4|0,0:0|0:0,0:0:0:0:
256,128,213236,1,0,0:0:0:0:
256,128,213397,2,0,L|256:216,1,71.2500027179719,4|0,0:0|0:0,0:0:0:0:
340,132,213719,1,0,0:0:0:0:
340,132,213881,2,0,L|370:227,1,71.2500027179719,4|0,0:0|0:0,0:0:0:0:
256,56,214204,1,4,0:0:0:0:
64,148,214688,5,0,0:0:0:0:
102,285,215010,1,4,0:0:0:0:
196,132,215333,1,0,0:0:0:0:
196,132,215494,2,0,L|280:104,1,71.2500027179719,4|0,0:0|0:0,0:0:0:0:
272,196,215817,1,0,0:0:0:0:
272,196,215978,2,0,L|356:224,1,71.2500027179719,4|0,0:0|0:0,0:0:0:0:
348,132,216301,1,0,0:0:0:0:
348,132,216462,2,0,L|432:104,1,71.2500027179719,4|0,0:0|0:0,0:0:0:0:
472,192,216785,1,4,0:0:0:0:
436,284,216946,5,0,0:0:0:0:
416,299,217027,1,0,0:0:0:0:
388,307,217107,1,0,0:0:0:0:
355,305,217188,1,0,0:0:0:0:
322,290,217268,2,0,P|281:236|287:159,1,142.500005435944,2|0,0:0|0:0,0:0:0:0:
184,96,217914,5,0,0:0:0:0:
184,96,218075,2,0,L|89:62,1,71.2500027179719,4|0,0:0|0:0,0:0:0:0:
141,165,218397,1,0,0:0:0:0:
141,165,218559,2,0,L|72:181,1,71.2500027179719,4|0,0:0|0:0,0:0:0:0:
139,244,218881,1,0,0:0:0:0:
139,244,219043,2,0,L|82:292,1,71.2500027179719,4|0,0:0|0:0,0:0:0:0:
172,317,219365,1,4,0:0:0:0:
180,104,219849,5,0,0:0:0:0:
324,104,220172,1,4,0:0:0:0:
328,288,220494,1,0,0:0:0:0:
328,288,220655,2,0,L|395:312,1,71.2500027179719,4|0,0:0|0:0,0:0:0:0:
371,219,220977,1,0,0:0:0:0:
371,219,221139,2,0,L|440:203,1,71.2500027179719,4|0,0:0|0:0,0:0:0:0:
373,140,221461,1,0,0:0:0:0:
373,140,221623,2,0,L|427:94,1,71.2500027179719,4|0,0:0|0:0,0:0:0:0:
340,67,221945,1,4,0:0:0:0:
188,180,222107,5,0,0:0:0:0:
199,199,222188,1,0,0:0:0:0:
211,219,222268,1,2,0:0:0:0:
222,239,222349,1,2,0:0:0:0:
232,258,222427,6,0,P|277:271|323:260,1,95,10|0,0:0|0:0,0:0:0:0:
434,166,222760,2,0,P|399:132|350:117,1,95,8|0,0:0|0:0,0:0:0:0:
214,91,223093,2,0,L|180:57,2,47.5,8|0|0,0:0|0:0|0:0,0:0:0:0:
315,192,223427,1,8,0:0:0:0:
304,211,223510,1,0,0:0:0:0:
292,231,223593,1,2,0:0:0:0:
281,251,223677,1,2,0:0:0:0:
270,270,223760,6,0,P|225:283|180:272,1,95,10|0,0:0|0:0,0:0:0:0:
53,183,224093,2,0,P|94:148|140:137,1,95,8|0,0:0|0:0,0:0:0:0:
312,102,224427,2,2,L|359:105,2,47.5,10|2|2,0:0|0:0|0:0,0:0:0:0:
423,186,224760,2,2,L|375:189,2,47.5,10|2|2,0:0|0:0|0:0,0:0:0:0:
302,278,225093,6,0,B|398:284,1,95,8|0,0:0|0:0,0:0:0:0:
238,365,225427,2,0,P|204:328|191:283,1,95,8|0,0:0|0:0,0:0:0:0:
212,170,225760,1,8,0:0:0:0:
216,152,225843,1,0,0:0:0:0:
221,134,225927,1,0,0:0:0:0:
320,188,226093,1,8,0:0:0:0:
325,206,226176,1,0,0:0:0:0:
331,226,226260,1,0,0:0:0:0:
268,336,226427,6,0,P|308:359|355:359,1,95,8|0,0:0|0:0,0:0:0:0:
336,248,226760,2,0,P|295:224|248:224,1,95,8|0,0:0|0:0,0:0:0:0:
129,248,227093,1,8,0:0:0:0:
129,248,227176,1,0,0:0:0:0:
129,248,227260,1,0,0:0:0:0:
129,57,227427,1,10,0:0:0:0:
313,105,227593,1,2,0:0:0:0:
129,248,227760,6,0,P|88:224|63:184,1,95,10|0,0:0|0:0,0:0:0:0:
129,57,228093,2,0,P|175:64|222:57,1,95,8|0,0:0|0:0,0:0:0:0:
380,24,228427,1,10,0:0:0:0:
396,29,228510,1,2,0:0:0:0:
414,34,228594,1,2,0:0:0:0:
360,164,228760,1,10,0:0:0:0:
344,169,228843,1,2,0:0:0:0:
326,174,228927,1,2,0:0:0:0:
129,248,229093,6,0,B|105:207|105:207|105:158,1,95,10|0,0:0|0:0,0:0:0:0:
36,284,229427,1,8,0:0:0:0:
172,328,229593,1,0,0:0:0:0:
204,188,229760,1,8,0:0:0:0:
204,188,229843,1,0,0:0:0:0:
204,188,229927,1,0,0:0:0:0:
106,79,230093,2,0,L|106:31,2,47.5,8|0|0,0:0|0:0|0:0,0:0:0:0:
232,12,230427,6,0,L|232:107,2,95,8|0|8,0:0|0:0|0:0,0:0:0:0:
364,64,230927,1,0,0:0:0:0:
324,200,231093,1,8,0:0:0:0:
319,216,231176,1,0,0:0:0:0:
314,234,231260,1,0,0:0:0:0:
200,236,231427,1,8,0:0:0:0:
195,218,231511,1,0,0:0:0:0:
190,202,231594,1,0,0:0:0:0:
256,340,231760,6,0,P|302:348|348:339,1,95,8|0,0:0|0:0,0:0:0:0:
468,264,232093,2,0,P|451:219|420:183,1,95,8|0,0:0|0:0,0:0:0:0:
280,84,232427,1,8,0:0:0:0:
251,67,232510,1,0,0:0:0:0:
219,59,232593,1,0,0:0:0:0:
185,58,232677,1,0,0:0:0:0:
153,66,232760,1,10,0:0:0:0:
124,81,232843,1,2,0:0:0:0:
99,103,232927,1,2,0:0:0:0:
81,131,233010,1,2,0:0:0:0:
70,161,233093,6,0,P|59:208|67:254,1,95,10|2,0:0|0:2,0:0:0:0:
196,191,233427,2,0,P|206:144|198:98,1,95,8|2,0:0|0:2,0:0:0:0:
324,36,233760,1,8,0:0:0:0:
341,40,233843,1,0,0:0:0:0:
359,45,233927,1,2,0:2:0:0:
476,80,234093,1,8,0:0:0:0:
470,98,234177,1,0,0:0:0:0:
465,115,234260,1,2,0:2:0:0:
461,132,234343,1,2,0:0:0:0:
456,151,234427,6,0,P|432:191|394:219,1,95,10|2,0:0|0:2,0:0:0:0:
252,204,234760,1,8,0:0:0:0:
352,116,234927,1,2,0:2:0:0:
316,264,235093,1,8,0:0:0:0:
311,282,235177,1,0,0:0:0:0:
306,299,235260,1,2,0:2:0:0:
182,299,235427,1,8,0:0:0:0:
177,282,235510,1,0,0:0:0:0:
172,264,235594,1,2,0:2:0:0:
128,108,235760,6,0,L|152:200,1,95,10|2,0:0|0:2,0:0:0:0:
360,199,236093,1,8,0:0:0:0:
397,60,236260,1,2,0:2:0:0:
223,89,236427,1,8,0:0:0:0:
198,93,236510,1,0,0:0:0:0:
175,98,236593,1,2,0:2:0:0:
151,103,236677,1,0,0:0:0:0:
128,108,236760,2,0,B|79:119|79:119|36:108,1,95,8|2,0:0|0:2,0:0:0:0:
80,24,237093,5,8,0:0:0:0:
80,196,237260,1,2,0:2:0:0:
228,76,237426,2,0,B|277:65|277:65|320:76,1,95,8|2,0:0|0:2,0:0:0:0:
280,164,237760,1,8,0:0:0:0:
280,164,237843,1,0,0:0:0:0:
280,164,237926,1,2,0:2:0:0:
147,248,238093,2,0,L|101:274,2,47.5,8|0|2,0:0|0:0|0:2,0:0:0:0:
328,268,238426,6,0,P|372:282|408:313,1,95,10|2,0:0|0:2,0:0:0:0:
424,200,238760,1,8,0:0:0:0:
244,196,238926,1,2,0:2:0:0:
328,356,239093,1,8,0:0:0:0:
328,356,239176,1,0,0:0:0:0:
328,356,239260,1,2,0:2:0:0:
335,171,239426,2,0,L|338:116,2,47.5,8|0|2,0:0|0:0|0:2,0:0:0:0:
198,205,239760,5,10,0:0:0:0:
337,123,239926,1,2,0:2:0:0:
227,93,240093,1,8,0:0:0:0:
308,234,240260,1,2,0:2:0:0:
180,200,240426,1,10,0:0:0:0:
156,193,240510,1,2,0:0:0:0:
133,187,240593,1,2,0:2:0:0:
16,152,240760,2,2,L|16:104,2,47.5,10|2|2,0:0|0:0|0:2,0:0:0:0:
132,72,241093,5,8,0:0:0:0:
155,66,241176,1,0,0:0:0:0:
179,59,241260,1,2,0:2:0:0:
336,20,241426,2,8,B|351:66|351:66|340:112,1,95,8|2,0:0|0:2,0:0:0:0:
296,280,241760,1,8,0:0:0:0:
290,303,241843,1,0,0:0:0:0:
283,327,241927,1,2,0:2:0:0:
184,208,242093,1,8,0:0:0:0:
189,184,242176,1,0,0:0:0:0:
196,160,242260,1,2,0:2:0:0:
202,137,242343,1,0,0:0:0:0:
220,98,242426,5,8,0:0:0:0:
220,98,242509,1,0,0:0:0:0:
220,98,242593,2,4,B|280:97|280:97|330:68,1,118.75
448,276,243093,1,6,0:0:0:0:
448,276,243426,1,6,0:0:0:0:
132,288,243760,5,10,0:0:0:0:
101,268,243843,1,2,0:0:0:0:
84,235,243926,1,2,0:0:0:0:
83,198,244010,1,2,0:0:0:0:
100,164,244093,2,0,P|112:114|100:64,1,104.500003189087,10|2,0:0|0:2,0:0:0:0:
10,113,244426,2,0,L|166:113,2,156.750004783631,8|0|2,0:0|0:0|0:2,0:0:0:0:
166,113,245093,5,8,0:0:0:0:
316,72,245260,1,2,0:2:0:0:
264,272,245426,1,8,0:0:0:0:
414,313,245593,1,2,0:2:0:0:
459,111,245760,1,8,0:0:0:0:
459,111,245926,1,2,0:2:0:0:
316,72,246093,1,8,0:0:0:0:
316,72,246176,1,0,0:0:0:0:
316,72,246260,1,2,0:2:0:0:
180,216,246426,6,0,P|230:226|282:216,1,104.500003189087,10|2,0:0|0:2,0:0:0:0:
403,123,246760,2,0,P|363:88|315:71,1,104.500003189087,8|2,0:0|0:2,0:0:0:0:
120,192,247093,1,10,0:0:0:0:
232,124,247260,1,2,0:0:0:0:
232,292,247426,1,8,0:0:0:0:
232,318,247510,1,0,0:0:0:0:
232,344,247593,1,2,0:2:0:0:
388,328,247760,6,0,P|430:298|451:251,2,104.500003189087,8|2|8,0:0|0:2|0:0,0:0:0:0:
355,235,248260,1,2,0:2:0:0:
416,152,248426,1,8,0:0:0:0:
441,158,248510,1,0,0:0:0:0:
466,165,248593,1,2,0:2:0:0:
316,128,248760,2,0,L|265:114,2,52.2500015945435,8|0|2,0:0|0:0|0:2,0:0:0:0:
228,272,249093,6,0,P|177:284|127:271,1,104.500003189087,8|2,0:0|0:2,0:0:0:0:
335,219,249426,2,0,P|348:270|335:320,1,104.500003189087,8|2,0:0|0:2,0:0:0:0:
284,112,249759,2,0,P|334:99|384:112,1,104.500003189087,8|2,0:0|0:2,0:0:0:0:
176,164,250093,2,0,P|166:139|163:113,2,52.2500015945435,8|0|2,0:0|0:0|0:2,0:0:0:0:
335,320,250426,6,0,P|327:268|331:216,1,104.500003189087,8|2,0:0|0:2,0:0:0:0:
172,60,250760,2,0,P|179:111|175:163,1,104.500003189087,8|2,0:0|0:2,0:0:0:0:
384,112,251093,1,10,0:0:0:0:
331,215,251260,2,0,P|279:223|227:216,1,104.500003189087,2|8,0:0|0:0,0:0:0:0:
227,216,251510,1,0,0:0:0:0:
227,216,251593,1,2,0:2:0:0:
76,104,251760,6,0,P|126:91|176:104,1,104.500003189087,8|2,0:0|0:2,0:0:0:0:
125,287,252093,2,0,L|125:177,1,104.500003189087,8|2,0:0|0:2,0:0:0:0:
264,152,252426,1,10,0:0:0:0:
356,104,252593,2,0,P|406:91|456:103,1,104.500003189087,2|8,0:0|0:0,0:0:0:0:
456,103,252843,1,0,0:0:0:0:
456,103,252926,1,2,0:2:0:0:
408,200,253093,5,10,0:0:0:0:
408,231,253176,1,2,0:0:0:0:
408,262,253260,1,2,0:2:0:0:
408,293,253343,1,2,0:0:0:0:
408,324,253426,1,10,0:0:0:0:
280,240,253593,1,2,0:2:0:0:
280,240,253760,1,8,0:0:0:0:
356,104,253926,1,2,0:2:0:0:
220,28,254093,1,8,0:0:0:0:
189,20,254176,1,0,0:0:0:0:
157,23,254260,1,2,0:2:0:0:
130,39,254343,1,0,0:0:0:0:
110,63,254426,6,0,P|93:112|58:150,1,104.500003189087,12|2,0:0|0:2,0:0:0:0:
125,315,254760,2,0,P|142:266|177:228,1,104.500003189087,8|2,0:0|0:2,0:0:0:0:
313,149,255093,2,0,P|387:128|462:146,2,156.750004783631,8|0|2,0:0|0:0|0:2,0:0:0:0:
392,252,255760,5,8,0:0:0:0:
260,266,255926,1,2,0:2:0:0:
313,149,256093,2,0,P|324:99|315:48,1,104.500003189087,8|2,0:0|0:2,0:0:0:0:
212,96,256426,1,8,0:0:0:0:
260,266,256593,1,2,0:2:0:0:
101,222,256760,1,8,0:0:0:0:
74,215,256843,1,0,0:0:0:0:
48,208,256926,1,2,0:2:0:0:
215,76,257093,6,0,P|203:126|213:177,1,104.500003189087,8|2,0:0|0:2,0:0:0:0:
293,283,257426,2,0,P|326:243|341:193,1,104.500003189087,8|2,0:0|0:2,0:0:0:0:
183,280,257760,1,10,0:0:0:0:
290,117,257926,2,0,P|338:101|393:114,1,104.500003189087,2|8,0:0|0:0,0:0:0:0:
390,113,258176,1,0,0:0:0:0:
390,113,258260,1,2,0:2:0:0:
208,160,258426,5,8,0:0:0:0:
258,33,258593,1,2,0:2:0:0:
344,188,258760,1,8,0:0:0:0:
174,77,258926,1,2,0:2:0:0:
148,71,259010,1,0,0:0:0:0:
121,75,259093,2,0,P|74:94|43:136,1,104.500003189087,8|2,0:0|0:2,0:0:0:0:
124,275,259426,2,0,P|143:227|136:176,1,104.500003189087,8|2,0:0|0:2,0:0:0:0:
300,72,259760,6,0,B|354:62|354:62|402:71,1,104.500003189087,12|2,0:0|0:2,0:0:0:0:
468,212,260093,2,0,B|414:221|414:221|362:211|364:211,1,104.500003189087,8|2,0:0|0:2,0:0:0:0:
211,140,260426,1,10,0:0:0:0:
201,103,260510,1,2,0:0:0:0:
192,67,260593,1,2,0:0:0:0:
365,212,260760,2,0,B|376:259|376:259|361:313,1,104.500003189087,8|2,0:0|0:2,0:0:0:0:
178,349,261093,6,0,P|123:355|66:349,1,104.500003189087,12|2,0:0|0:2,0:0:0:0:
124,204,261426,2,0,P|178:197|236:204,1,104.500003189087,8|2,0:0|0:2,0:0:0:0:
372,244,261760,1,10,0:0:0:0:
228,203,261926,2,0,P|222:151|230:99,1,104.500003189087,2|8,0:0|0:0,0:0:0:0:
280,8,262260,1,2,0:2:0:0:
69,137,262426,5,12,0:0:0:0:
163,321,262593,1,10,0:2:0:0:
362,215,262760,1,8,0:0:0:0:
159,215,262926,1,10,0:2:0:0:
358,321,263093,1,8,0:0:0:0:
256,141,263260,1,10,0:2:0:0:
256,364,263426,1,8,0:0:0:0:
340,128,263593,1,10,0:2:0:0:
128,246,263760,5,12,0:0:0:0:
346,269,263926,1,10,0:2:0:0:
128,174,264093,1,8,0:0:0:0:
316,331,264259,1,10,0:2:0:0:
167,113,264426,1,8,0:0:0:0:
255,364,264593,1,10,0:2:0:0:
227,76,264760,1,8,0:0:0:0:
185,364,264926,1,10,0:2:0:0:
300,73,265093,6,2,P|294:48|280:26,2,52.2500015945435,14|2|2,0:0|0:0|0:0,0:0:0:0:
316,331,265426,1,8,0:0:0:0:
128,174,265593,1,8,0:2:0:0:
401,195,265760,6,2,L|452:185,2,52.2500015945435,14|2|2,0:0|0:0|0:0,0:0:0:0:
124,247,266093,1,8,0:0:0:0:
280,26,266260,1,8,0:2:0:0:
184,286,266426,5,12,0:0:0:0:
153,313,266510,1,0,0:0:0:0:
112,317,266593,1,10,0:0:0:0:
75,298,266676,1,0,0:0:0:0:
56,260,266760,1,8,0:0:0:0:
59,218,266843,1,0,0:0:0:0:
87,186,266926,1,10,0:0:0:0:
128,176,267010,1,0,0:0:0:0:
167,191,267093,1,8,0:0:0:0:
195,222,267176,1,0,0:0:0:0:
229,247,267260,1,10,0:0:0:0:
269,258,267343,1,0,0:0:0:0:
310,250,267426,1,8,0:0:0:0:
343,222,267510,1,0,0:0:0:0:
352,181,267593,1,10,0:0:0:0:
340,141,267676,1,0,0:0:0:0:
298,110,267760,5,12,0:0:0:0:
312,44,269093,6,0,P|340:112|313:182,1,152,6|0,0:0|0:0,0:0:0:0:
240,116,269593,1,0,0:0:0:0:
240,116,269759,2,0,P|218:186|250:253,1,152,2|0,0:0|0:0,0:0:0:0:
379,302,270259,1,0,0:0:0:0:
379,302,270426,2,0,P|323:251|249:252,1,152,2|0,0:0|0:0,0:0:0:0:
286,351,270926,2,0,L|337:207,1,152,2|0,0:0|0:0,0:0:0:0:
339,208,271426,1,0,0:0:0:0:
388,84,271593,1,4,0:0:0:0:
388,84,271759,6,0,P|319:55|249:82,1,152,6|0,0:0|0:0,0:0:0:0:
180,152,272259,1,0,0:0:0:0:
180,152,272426,2,0,P|206:221|178:290,1,152,2|0,0:0|0:0,0:0:0:0:
108,220,272926,1,0,0:0:0:0:
108,220,273093,2,0,P|81:150|109:81,1,152,2|0,0:0|0:0,0:0:0:0:
192,28,273593,2,0,L|338:67,1,152,2|0,0:0|0:0,0:0:0:0:
338,67,274093,1,0,0:0:0:0:
407,179,274259,1,4,0:0:0:0:
407,179,274426,6,0,P|435:247|408:317,1,152,6|0,0:0|0:0,0:0:0:0:
336,248,274926,6,0,P|267:276|197:249,1,152,6|0,0:0|0:0,0:0:0:0:
268,180,275426,6,0,P|239:111|266:41,1,152,6|0,0:0|0:0,0:0:0:0:
336,112,275926,6,0,P|404:83|474:110,1,152,6|0,0:0|0:0,0:0:0:0:
406,178,276426,6,0,P|428:210|435:247,1,76,6|0,0:0|0:0,0:0:0:0:
420,344,276759,1,6,0:0:0:0:
267,344,277093,5,6,0:0:0:0:
244,344,277176,1,0,0:0:0:0:
221,344,277259,1,0,0:0:0:0:
198,344,277343,1,0,0:0:0:0:
175,344,277426,1,0,0:0:0:0:
152,344,277509,1,0,0:0:0:0:
129,344,277593,1,0,0:0:0:0:
106,344,277676,1,0,0:0:0:0:
83,344,277759,2,0,L|45:344,6,38
128,196,278593,5,0,0:0:0:0:
128,195,278759,2,0,P|141:141|181:102,1,114
212,88,279093,1,0,0:0:0:0:
244,82,279176,1,0,0:0:0:0:
276,90,279259,1,0,0:0:0:0:
304,107,279343,1,0,0:0:0:0:
323,131,279426,2,0,P|364:156|411:156,1,95,4|0,0:0|0:0,0:0:0:0:
389,64,279759,6,0,L|362:155,1,95,14|0,0:0|0:0,0:0:0:0:
332,244,280093,1,8,0:0:0:0:
276,90,280259,1,0,0:0:0:0:
443,183,280426,2,0,P|456:229|453:276,1,95,10|0,0:0|0:0,0:0:0:0:
434,369,280759,1,8,0:0:0:0:
332,244,280926,1,0,0:0:0:0:
407,101,281093,6,0,P|454:94|499:110,1,95,10|0,0:0|0:0,0:0:0:0:
443,183,281426,1,8,0:0:0:0:
307,138,281593,2,0,B|245:116|245:116|173:127|173:127|123:113,1,190,2|0,0:0|0:0,0:0:0:0:
123,113,282093,1,10,0:0:0:0:
264,359,282426,6,0,L|239:267,1,95,14|0,0:0|0:0,0:0:0:0:
214,175,282759,1,8,0:0:0:0:
329,259,282926,1,0,0:0:0:0:
162,304,283093,2,0,P|117:314|71:304,1,95,10|0,0:0|0:0,0:0:0:0:
116,218,283426,1,8,0:0:0:0:
239,267,283593,1,0,0:0:0:0:
136,369,283759,6,0,P|96:343|70:304,1,95,10|0,0:0|0:0,0:0:0:0:
39,213,284093,1,8,0:0:0:0:
205,138,284259,2,0,B|267:116|267:116|339:127|339:127|388:113,1,190,2|0,0:0|0:0,0:0:0:0:
388,112,284759,1,10,0:0:0:0:
242,358,285093,6,0,L|266:266,1,95,14|0,0:0|0:0,0:0:0:0:
292,174,285426,1,8,0:0:0:0:
177,258,285593,1,0,0:0:0:0:
343,303,285760,2,0,P|388:313|434:303,1,95,10|0,0:0|0:0,0:0:0:0:
390,217,286093,1,8,0:0:0:0:
252,204,286260,1,0,0:0:0:0:
370,368,286426,6,0,P|409:342|435:303,1,95,10|0,0:0|0:0,0:0:0:0:
467,212,286760,1,8,0:0:0:0:
363,89,286926,2,0,P|286:76|318:146,1,190,2|0,0:0|0:0,0:0:0:0:
411,167,287426,2,0,P|371:225|303:240,1,142.5,10|0,0:0|0:0,0:0:0:0:
256,234,287759,6,0,P|208:235|167:257,1,95,10|0,0:0|0:0,0:0:0:0:
96,322,288093,1,8,0:0:0:0:
237,334,288259,1,0,0:0:0:0:
171,175,288426,1,10,0:0:0:0:
166,336,288593,1,2,0:0:0:0:
199,182,288759,1,10,0:0:0:0:
136,321,288926,1,2,0:0:0:0:
222,197,289093,6,0,P|253:161|297:143,1,95,10|0,0:0|0:0,0:0:0:0:
390,126,289426,1,8,0:0:0:0:
479,236,289593,1,0,0:0:0:0:
479,236,289759,2,0,P|403:288|326:250,1,142.5,10|0,0:0|0:0,0:0:0:0:
316,254,290093,6,0,P|246:248|195:295,1,142.5,10|0,0:0|0:0,0:0:0:0:
157,382,290426,6,0,L|146:279,1,104.500003189087,14|0,0:0|0:0,0:0:0:0:
136,173,290759,1,8,0:0:0:0:
250,280,290926,1,0,0:0:0:0:
63,251,291093,2,0,P|33:198|32:143,1,104.500003189087,10|0,0:0|0:0,0:0:0:0:
39,51,291426,1,8,0:0:0:0:
186,106,291593,1,0,0:0:0:0:
160,292,291759,6,0,P|120:337|68:357,1,104.500003189087,10|0,0:0|0:0,0:0:0:0:
37,206,292093,1,8,0:0:0:0:
185,106,292259,2,0,P|281:142|328:233,1,209.000006378174,2|0,0:0|0:0,0:0:0:0:
341,337,292759,2,0,P|357:260|381:185,1,156.750004783631,10|0,0:0|0:0,0:0:0:0:
433,183,293093,6,0,P|394:151|341:149,1,104.500003189087,14|0,0:0|0:0,0:0:0:0:
242,182,293426,1,8,0:0:0:0:
359,260,293593,1,0,0:0:0:0:
336,72,293759,2,0,P|297:40|244:38,1,104.500003189087,14|0,0:0|0:0,0:0:0:0:
146,77,294093,1,8,0:0:0:0:
242,182,294259,1,0,0:0:0:0:
402,163,294426,6,0,P|434:122|443:71,1,104.500003189087,10|0,0:0|0:0,0:0:0:0:
336,72,294759,1,8,0:0:0:0:
444,72,294926,2,0,B|445:129|403:162|403:162|364:190|364:256,1,209.000006378174,2|0,0:0|0:0,0:0:0:0:
467,241,295426,2,0,L|323:178,1,156.750004783631,10|0,0:0|0:0,0:0:0:0:
272,159,295759,6,0,P|221:155|172:171,1,104.500003189087,14|0,0:0|0:0,0:0:0:0:
91,239,296093,1,8,0:0:0:0:
241,281,296259,1,0,0:0:0:0:
208,105,296426,2,0,L|189:2,1,104.500003189087,10|0,0:0|0:0,0:0:0:0:
106,65,296759,1,8,0:0:0:0:
200,190,296926,1,0,0:0:0:0:
309,76,297093,6,0,P|358:62|408:74,1,104.500003189087,10|0,0:0|0:0,0:0:0:0:
497,128,297426,1,8,0:0:0:0:
400,265,297593,2,0,P|403:349|467:294,1,209.000006378174,2|0,0:0|0:0,0:0:0:0:
469,199,298093,2,0,P|398:168|327:195,1,156.750004783631,10|0,0:0|0:0,0:0:0:0:
288,232,298426,6,0,P|243:256|192:254,1,104.500003189087,14|0,0:0|0:0,0:0:0:0:
94,216,298759,1,8,0:0:0:0:
213,113,298926,1,0,0:0:0:0:
370,166,299092,2,0,P|392:217|385:273,1,104.500003189087,10|0,0:0|0:0,0:0:0:0:
340,358,299426,1,8,0:0:0:0:
340,358,299592,1,0,0:0:0:0:
192,254,299759,6,0,P|237:229|288:231,1,104.500003189087,10|0,0:0|0:0,0:0:0:0:
387,264,300092,1,8,0:0:0:0:
266,355,300259,2,0,P|167:374|84:315,1,209.000006378174,2|0,0:0|0:0,0:0:0:0:
56,214,300759,2,0,P|108:145|137:226,1,209.000006378174,10|4,0:0|0:0,0:0:0:0:
364,98,303259,6,0,L|336:164,2,71.2500027179719
409,208,303759,6,0,P|364:245|251:154,1,227.999993041992,0|0,2:0|2:0,2:0:0:0:
240,80,304592,5,0,0:0:0:0:
176,32,304759,1,0,0:0:0:0:
100,60,304925,2,0,B|129:124|92:188|92:188|51:255|100:343,1,284.999991302491,0|0,2:0|2:0,2:0:0:0:
216,256,306092,6,0,L|344:237,1,113.999996520996
401,223,306592,1,0,0:0:0:0:
370,143,306759,1,0,0:0:0:0:
307,85,306925,1,0,0:0:0:0:
223,67,307092,1,0,0:0:0:0:
137,76,307259,6,0,L|82:137,1,56.9999982604981
95,189,307592,2,0,B|131:212|129:273|129:273|227:232|240:301|317:274,1,284.999991302491
280,196,308592,5,0,0:0:0:0:
360,204,308759,1,0,0:0:0:0:
408,268,308925,2,0,P|440:188|288:168,1,284.999991302491
360,204,309925,5,0,0:0:0:0:
304,260,310092,1,0,0:0:0:0:
340,336,310259,2,0,B|274:354|237:307|237:307|136:328|78:233,1,284.999991302491
28,104,311425,5,0,0:0:0:0:
100,58,311592,1,0,0:0:0:0:
159,119,311759,2,0,P|207:151|259:139,1,113.999996520996
338,107,312259,2,0,P|397:99|437:131,1,113.999996520996
433,216,312759,1,0,0:0:0:0:
413,298,312925,1,0,0:0:0:0:
327,297,313092,1,0,0:0:0:0:
278,226,313259,2,0,P|170:230|262:158,1,284.999991302491
421,122,314425,6,0,P|395:68|335:110,1,142.499995651245
328,122,314925,2,0,P|265:176|206:150,1,142.499995651245
193,155,315425,2,0,P|159:243|241:205,1,227.999993041992
272,132,316259,5,0,0:0:0:0:
288,40,316425,2,0,P|216:52|180:104,2,113.999996520996
390,144,317592,1,0,0:0:0:0:
416,288,318092,2,0,B|328:344|248:304|248:304|176:264|80:328,1,341.999989562989
60,128,319425,5,0,0:0:0:0:
121,67,319592,1,0,0:0:0:0:
205,52,319759,2,0,B|255:81|315:64,1,113.999996520996
373,2,320259,2,0,P|401:54|383:119,1,113.999996520996
296,212,320759,2,0,B|300:194|309:177|326:168|345:165|363:166|379:180|389:192|392:212|392:212|394:232|387:256|376:273|321:299|280:348|280:348|348:333|421:350,1,455.999986083985
486,302,322259,5,0,0:0:0:0:
481,199,322425,2,0,L|454:135,1,56.9999982604981
401,77,322759,1,0,0:0:0:0:
350,165,322925,1,0,0:0:0:0:
306,71,323092,1,0,0:0:0:0:
238,148,323259,1,0,0:0:0:0:
179,63,323425,1,0,0:0:0:0:
111,140,323592,1,0,0:0:0:0:
28,78,323759,2,0,L|14:146,1,56.9999982604981
256,192,324259,5,2,0:0:0:0:
256,192,324342,12,0,325759,0:0:0:0:
63,217,329925,5,0,0:0:0:0:
161,180,330092,1,0,0:0:0:0:
263,199,330259,1,0,0:0:0:0:
350,289,330425,6,0,P|355:211|378:147,1,113.999996520996,2|0,0:0|0:0,0:0:0:0:
461,130,330759,2,0,P|400:175|334:166,1,113.999996520996,8|0,0:0|0:0,0:0:0:0:
263,123,331092,1,2,0:0:0:0:
441,20,331259,1,0,0:0:0:0:
461,130,331425,1,8,0:0:0:0:
481,240,331592,1,0,0:0:0:0:
263,123,331759,6,0,P|197:121|147:163,1,113.999996520996,2|0,0:0|0:0,0:0:0:0:
323,197,332092,2,0,P|357:140|346:76,1,113.999996520996,8|0,0:0|0:0,0:0:0:0:
228,211,332425,2,0,P|259:268|320:291,1,113.999996520996,2|0,0:0|0:0,0:0:0:0:
403,298,332758,1,8,0:0:0:0:
323,197,332925,1,0,0:0:0:0:
176,319,333092,5,2,0:0:0:0:
301,288,333258,1,0,0:0:0:0:
120,177,333425,2,0,P|183:205|271:207,1,113.999996520996,8|0,0:0|0:0,0:0:0:0:
323,197,333758,1,2,0:0:0:0:
168,102,333925,2,0,P|62:108|38:212,1,227.999993041992
96,278,334425,6,0,P|124:230|118:174,1,113.999996520996,2|0,0:0|0:0,0:0:0:0:
30,337,334758,2,0,P|78:365|134:359,1,113.999996520996,2|0,0:0|0:0,0:0:0:0:
220,294,335092,1,2,0:0:0:0:
15,185,335258,1,0,0:0:0:0:
96,278,335425,1,8,0:0:0:0:
220,294,335592,1,0,0:0:0:0:
187,104,335758,5,2,0:0:0:0:
183,89,335842,1,0,0:0:0:0:
179,73,335925,1,0,0:0:0:0:
370,123,336092,2,0,L|360:254,1,95,8|0,0:0|0:0,0:0:0:0:
356,310,336425,1,2,0:0:0:0:
259,208,336592,1,0,0:0:0:0:
452,264,336758,1,8,0:0:0:0:
260,356,336925,1,0,0:0:0:0:
294,138,337092,6,0,P|233:135|186:170,1,95,2|0,0:0|0:0,0:0:0:0:
81,105,337425,2,0,L|91:236,1,95,8|0,0:0|0:0,0:0:0:0:
101,362,337758,2,0,B|133:368|133:368|164:361|164:361|209:377|263:354,1,142.5,2|0,0:0|0:0,0:0:0:0:
260,356,338092,1,8,0:0:0:0:
177,168,338258,1,0,0:0:0:0:
399,166,338425,6,0,P|406:212|388:298,1,95,2|0,0:0|0:0,0:0:0:0:
380,354,338758,1,8,0:0:0:0:
298,201,338925,1,0,0:0:0:0:
495,256,339092,2,0,P|426:255|372:268,1,95,2|0,0:0|0:0,0:0:0:0:
311,291,339425,1,8,0:0:0:0:
399,166,339592,1,0,0:0:0:0:
502,334,339758,6,0,P|442:355|433:233,1,190,2|8,0:0|0:0,0:0:0:0:
472,185,340258,1,0,0:0:0:0:
310,114,340425,2,0,B|301:174|301:174|249:213|249:213|237:282,1,190,2|8,0:0|0:0,0:0:0:0:
224,370,340925,1,0,0:0:0:0:
360,328,341092,6,0,B|355:366|381:383|421:369|429:343|430:310|412:291|386:281|371:253|370:230|382:201,1,213.749993476868
435,166,341592,2,0,B|380:135|331:160|331:160|285:183|213:144,1,213.749993476868
212,76,342092,2,0,P|152:136|156:184,1,128.249996086121
230,153,342425,5,8,0:0:0:0:
418,129,342592,1,0,0:0:0:0:
238,185,342758,1,8,0:0:0:0:
426,205,342925,1,0,0:0:0:0:
238,221,343092,1,8,0:0:0:0:
414,281,343258,1,0,0:0:0:0:
225,253,343425,1,8,0:0:0:0:
386,353,343592,1,0,0:0:0:0:
212,348,343758,6,0,P|140:348|69:229,1,213.749993476868
30,163,344258,2,0,B|85:143|126:179|126:179|167:217|247:207,1,213.749993476868
242,125,344758,2,0,P|304:167|310:236,1,128.249996086121
230,209,345092,5,8,0:0:0:0:
260,21,345259,1,0,0:0:0:0:
198,199,345425,1,8,0:0:0:0:
184,11,345592,1,0,0:0:0:0:
162,198,345759,1,8,0:0:0:0:
108,20,345925,1,0,0:0:0:0:
129,209,346092,1,8,0:0:0:0:
35,46,346259,1,0,0:0:0:0:
24,244,346425,6,0,P|85:310|119:313,1,104.500003189087,2|0,0:0|0:0,0:0:0:0:
196,144,346758,1,8,0:0:0:0:
372,208,346925,1,0,0:0:0:0:
180,164,347092,1,8,0:0:0:0:
388,184,347258,1,0,0:0:0:0:
168,192,347425,1,8,0:0:0:0:
396,152,347592,1,0,0:0:0:0:
240,288,347758,5,2,0:0:0:0:
316,84,347925,1,0,0:0:0:0:
260,308,348092,1,8,0:0:0:0:
284,68,348258,1,0,0:0:0:0:
296,320,348425,1,8,0:0:0:0:
252,64,348592,1,0,0:0:0:0:
324,324,348758,1,8,0:0:0:0:
120,236,348925,5,0,0:0:0:0:
180,44,349092,2,0,P|208:124|248:140,1,104.500003189087,2|0,0:0|0:0,0:0:0:0:
388,24,349425,1,2,0:0:0:0:
416,252,349592,1,0,0:0:0:0:
252,144,349758,1,2,0:0:0:0:
476,100,349925,1,0,0:0:0:0:
492,300,350092,1,2,0:0:0:0:
462,321,350175,1,0,0:0:0:0:
427,331,350258,1,0,0:0:0:0:
390,327,350342,1,0,0:0:0:0:
357,309,350425,5,8,0:0:0:0:
220,131,350592,1,0,0:0:0:0:
197,337,350758,1,0,0:0:0:0:
371,192,350925,1,0,0:0:0:0:
256,192,351092,12,0,353425,0:0:0:0:
192,128,353762,5,0,0:0:0:0:
204,148,354095,1,0,0:0:0:0:
216,168,354428,2,0,P|363:184|360:76,1,285,8|0,0:0|0:0,0:0:0:0:
295,133,355761,6,0,P|312:245|372:312,1,190
358,301,357094,2,0,P|217:194|76:301,1,380
217,344,359344,6,0,P|218:308|217:272,1,71.25
212,224,359761,2,0,P|152:208|112:136,1,142.5
97,71,360511,6,0,P|124:70|143:76,1,47.5
180,104,360844,2,0,B|232:132|276:104|276:104|312:81|355:84|383:99,1,213.75
332,204,362094,5,0,0:0:0:0:
320,219,362428,2,0,P|241:217|280:149,1,190
108,60,364428,5,0,0:0:0:0:
120,80,364761,1,0,0:0:0:0:
268,104,365094,6,0,P|199:119|132:100,2,142.500005435944,4|0|0,0:0|0:0|0:0,0:0:0:0:
400,26,366094,1,0,0:0:0:0:
439,178,366428,2,0,P|436:108|400:48,2,142.500005435944
296,144,367428,1,0,0:0:0:0:
192,240,367761,6,0,P|157:247|122:239,2,71.2500027179719
160,168,368261,1,0,0:0:0:0:
80,168,368428,2,0,L|44:168,2,35.625001358986
244,168,368761,1,0,0:0:0:0:
244,168,368928,1,0,0:0:0:0:
348,240,369094,6,0,P|358:274|360:310,1,71.2500027179719
231,237,369428,2,0,P|233:202|244:168,1,71.2500027179719
356,120,369761,1,0,0:0:0:0:
356,120,369844,1,0,0:0:0:0:
356,120,369928,1,0,0:0:0:0:
231,237,370094,1,0,0:0:0:0:
231,237,370261,1,0,0:0:0:0:
144,56,370428,6,0,L|126:25,1,35.625001358986,12|0,0:0|0:0,0:0:0:0:
368,56,371761,6,0,L|385:25,1,35.625001358986,12|0,0:0|0:0,0:0:0:0:
256,256,373094,6,0,L|256:291,1,35.625001358986,12|0,0:0|0:0,0:0:0:0:
256,92,373761,1,8,0:0:0:0:
92,144,374428,6,0,L|86:203,1,35.625001358986,12|0,0:0|0:0,0:0:0:0:
216,196,374761,1,8,0:0:0:0:
404,96,375094,6,0,L|409:155,1,35.625001358986,12|0,0:0|0:0,0:0:0:0:
324,156,375261,1,8,0:0:0:0:
416,244,375428,5,8,0:0:0:0:
418,271,375511,1,8,0:0:0:0:
420,299,375594,1,8,0:0:0:0:
423,327,375678,1,8,0:0:0:0:
426,356,375761,6,0,P|342:288|242:331,1,227.999993041992,14|8,0:0|0:0,0:0:0:0:
242,331,376261,1,2,0:0:0:0:
132,108,376428,2,0,P|96:185|73:268,2,170.999994781494,10|2|2,0:0|0:0|0:0,0:0:0:0:
392,48,377094,5,10,0:0:0:0:
304,232,377261,1,2,0:0:0:0:
200,28,377428,1,10,0:0:0:0:
420,176,377594,1,2,0:0:0:0:
420,176,377678,1,2,0:0:0:0:
420,176,377761,2,0,P|432:231|418:285,1,113.999996520996,8|0,0:0|0:0,0:0:0:0:
208,285,378094,2,0,P|249:246|303:231,1,113.999996520996,8|0,0:0|0:0,0:0:0:0:
87,44,378428,6,0,L|47:272,1,227.999993041992,10|8,0:0|0:0,0:0:0:0:
48,268,378928,1,2,0:0:0:0:
274,134,379094,2,0,P|356:121|419:175,2,170.999994781494,10|2|2,0:0|0:0|0:0,0:0:0:0:
329,212,379761,6,0,L|365:104,1,113.999996520996,8|0,0:0|0:0,0:0:0:0:
228,272,380094,2,0,L|191:164,1,113.999996520996,8|0,0:0|0:0,0:0:0:0:
86,130,380428,2,0,P|142:134|190:163,1,113.999996520996,8|0,0:0|0:0,0:0:0:0:
433,178,380761,2,0,P|376:182|328:211,1,113.999996520996,8|0,0:0|0:0,0:0:0:0:
156,360,381094,5,14,0:0:0:0:
190,163,381261,1,0,0:0:0:0:
348,296,381428,1,8,0:0:0:0:
104,252,381594,1,2,0:0:0:0:
283,71,381761,2,0,P|341:134|356:217,2,170.999994781494,10|2|2,0:0|0:0|0:0,0:0:0:0:
56,40,382428,5,10,0:0:0:0:
127,227,382594,1,2,0:0:0:0:
201,39,382761,1,10,0:0:0:0:
48,144,382928,1,2,0:0:0:0:
40,152,383011,1,2,0:0:0:0:
32,160,383094,2,0,P|24:216|30:272,1,113.999996520996,10|0,0:0|0:0,0:0:0:0:
300,183,383427,2,0,P|298:126|283:71,1,113.999996520996,10|0,0:0|0:0,0:0:0:0:
188,344,383761,5,10,0:0:0:0:
408,184,383927,2,0,P|423:238|451:288,1,113.999996520996,2|8,0:0|0:0,0:0:0:0:
472,84,384261,1,2,0:0:0:0:
472,84,384344,1,2,0:0:0:0:
472,84,384427,2,0,P|390:64|316:103,2,170.999994781494,10|2|2,0:0|0:0|0:0,0:0:0:0:
408,184,385094,5,14,0:0:0:0:
236,279,385261,1,14,0:0:0:0:
253,63,385427,2,0,P|339:63|393:150,1,170.999994781494,14|0,0:0|0:0,0:0:0:0:
397,163,385761,2,0,L|376:286,1,113.999996520996,10|0,0:0|0:0,0:0:0:0:
196,296,386094,1,8,0:0:0:0:
178,254,386177,1,8,0:0:0:0:
170,208,386261,1,8,0:0:0:0:
172,162,386344,1,8,0:0:0:0:
188,119,386427,6,0,P|240:218|224:329,1,227.999993041992,14|8,0:0|0:0,0:0:0:0:
65,244,386927,1,2,0:0:0:0:
308,118,387094,2,0,P|337:198|339:283,2,170.999994781494,10|2|2,0:0|0:0|0:0,0:0:0:0:
150,233,387761,5,10,0:0:0:0:
326,296,387927,1,2,0:0:0:0:
254,45,388094,1,10,0:0:0:0:
226,306,388261,1,2,0:0:0:0:
225,317,388344,1,2,0:0:0:0:
224,329,388427,2,0,P|280:328|326:296,1,113.999996520996,8|0,0:0|0:0,0:0:0:0:
192,140,388761,2,0,P|136:129|84:150,1,113.999996520996,8|0,0:0|0:0,0:0:0:0:
340,164,389094,6,0,B|332:80|315:5|315:5|282:27|260:63,1,227.999993041992,14|8,0:0|0:0,0:0:0:0:
150,233,389594,1,0,0:0:0:0:
342,334,389761,2,0,P|345:248|339:163,2,170.999994781494,10|2|2,0:0|0:0|0:0,0:0:0:0:
202,125,390427,6,0,P|226:74|270:39,1,113.999996520996,10|0,0:0|0:0,0:0:0:0:
159,321,390761,2,0,P|206:353|262:362,1,113.999996520996,8|0,0:0|0:0,0:0:0:0:
74,173,391094,2,0,P|70:116|90:63,1,113.999996520996,8|0,0:0|0:0,0:0:0:0:
284,248,391428,2,0,P|340:252|393:232,1,113.999996520996,8|0,0:0|0:0,0:0:0:0:
183,31,391761,5,14,0:0:0:0:
136,265,391927,1,0,0:0:0:0:
312,102,392094,1,8,0:0:0:0:
73,131,392261,1,0,0:0:0:0:
284,248,392427,2,0,P|367:245|433:192,2,170.999994781494,10|2|2,0:0|0:0|0:0,0:0:0:0:
488,48,393094,5,10,0:0:0:0:
444,320,393261,1,2,0:0:0:0:
204,192,393427,1,10,0:0:0:0:
433,192,393594,1,2,0:0:0:0:
442,192,393677,1,2,0:0:0:0:
451,192,393761,6,0,P|477:241|477:297,1,113.999996520996,10|0,0:0|0:0,0:0:0:0:
312,144,394094,2,0,P|285:94|285:38,1,113.999996520996,10|0,0:0|0:0,0:0:0:0:
395,70,394427,5,14,0:0:0:0:
188,259,394594,1,10,0:0:0:0:
206,30,394761,1,10,0:0:0:0:
321,285,394927,1,10,0:0:0:0:
109,197,395094,5,14,0:0:0:0:
387,166,395261,1,10,0:0:0:0:
239,342,395428,1,10,0:0:0:0:
295,67,395594,1,10,0:0:0:0:
414,257,395761,5,12,0:0:0:0:
79,67,395928,1,10,0:0:0:0:
418,155,396094,1,10,0:0:0:0:
70,158,396261,1,10,0:0:0:0:
377,73,396428,1,12,0:0:0:0:
105,234,396595,1,8,0:0:0:0:
311,25,396761,1,8,0:0:0:0:
174,276,396928,1,8,0:0:0:0:
225,18,397094,5,12,0:0:0:0:
87,68,398185,6,0,L|98:167,1,88.6666639607748
35,232,398518,6,0,P|126:248|181:202,1,126.666666666667,2|0,0:0|0:0,0:0:0:0:
196,167,398851,1,8,0:0:0:0:
477,232,399184,2,0,P|386:248|331:202,1,126.666666666667,2|0,0:0|0:0,0:0:0:0:
314,165,399518,2,0,P|254:146|196:167,1,126.666666666667,8|0,0:0|0:0,0:0:0:0:
152,234,399851,6,0,P|192:306|257:253,1,190,2|0,0:0|0:0,0:0:0:0:
146,46,400406,1,0,0:0:0:0:
119,56,400518,2,0,P|66:104|49:167,1,126.666666666667,2|0,0:0|0:0,0:0:0:0:
35,232,400851,1,8,0:0:0:0:
266,281,401073,1,0,0:0:0:0:
257,253,401184,6,0,B|243:191|243:191|273:122,1,126.666666666667,2|0,0:0|0:0,0:0:0:0:
215,62,401518,2,0,B|277:48|277:48|346:78,1,126.666666666667,8|0,0:0|0:0,0:0:0:0:
406,20,401851,2,0,B|420:82|420:82|390:151,1,126.666666666667,2|0,0:0|0:0,0:0:0:0:
448,211,402184,2,0,B|386:225|386:225|317:195,1,126.666666666667,8|0,0:0|0:0,0:0:0:0:
257,253,402518,6,0,B|195:267|195:267|126:237,1,126.666666666667,2|0,0:0|0:0,0:0:0:0:
81,159,402851,2,0,B|143:145|143:145|200:170,1,126.666666666667,2|0,0:0|0:0,0:0:0:0:
257,253,403184,1,8,0:0:0:0:
92,58,403518,1,8,0:0:0:0:
165,64,403629,1,8,0:0:0:0:
238,70,403740,1,8,0:0:0:0:
310,138,403851,6,0,P|393:144|408:102,1,107.666668720245,10|0,0:0|0:0,0:0:0:0:
384,49,404184,1,8,0:0:0:0:
333,29,404295,1,0,0:0:0:0:
279,34,404406,1,0,0:0:0:0:
238,70,404518,2,0,P|212:115|214:164,1,63.3333333333333,2|0,0:0|0:0,0:0:0:0:
105,100,404739,1,0,0:0:0:0:
115,153,404851,2,0,P|141:197|185:220,1,63.3333333333333,8|0,0:0|0:0,0:0:0:0:
75,283,405073,1,0,0:0:0:0:
126,300,405185,6,0,P|178:299|219:272,1,63.3333333333333,2|0,0:0|0:0,0:0:0:0:
281,242,405406,1,0,0:0:0:0:
316,200,405518,1,8,0:0:0:0:
362,227,405629,1,0,0:0:0:0:
415,224,405740,1,0,0:0:0:0:
456,190,405851,2,0,P|464:125|418:72,1,126.666666666667,2|0,0:0|0:0,0:0:0:0:
329,56,406184,2,0,L|321:140,1,75.9999976806641,8|0,0:0|0:0,0:0:0:0:
316,200,406406,1,0,0:0:0:0:
308,269,406518,5,10,0:0:0:0:
110,118,407073,1,0,0:0:0:0:
122,206,407184,1,8,0:0:0:0:
402,118,407406,1,0,0:0:0:0:
390,206,407517,1,8,0:0:0:0:
110,118,407740,1,0,0:0:0:0:
122,206,407851,5,8,0:0:0:0:
256,44,408184,1,8,0:0:0:0:
256,119,408295,1,0,0:0:0:0:
256,198,408406,1,0,0:0:0:0:
256,282,408518,1,12,0:0:0:0:
101,91,409184,5,0,0:0:0:0:
411,91,410518,1,0,0:0:0:0:
256,44,411184,1,2,0:0:0:0:
256,146,411518,1,2,0:0:0:0:
256,248,411851,6,0,B|269:286|291:297|291:297|338:287|402:290,1,139.333337585449,2|0,0:0|0:0,0:0:0:0:
452,279,412184,2,0,L|465:197,1,69.6666687927247,8|0,0:0|0:0,0:0:0:0:
475,122,412406,1,0,0:0:0:0:
479,94,412518,1,2,0:0:0:0:
328,28,412740,1,0,0:0:0:0:
340,105,412851,2,0,L|359:211,1,69.6666687927247,8|0,0:0|0:0,0:0:0:0:
131,29,413184,6,0,L|150:135,1,69.6666687927247,2|0,0:0|0:0,0:0:0:0:
160,184,413406,1,0,0:0:0:0:
166,211,413518,1,8,0:0:0:0:
340,105,413740,1,0,0:0:0:0:
263,98,413851,1,2,0:0:0:0:
383,215,414073,1,0,0:0:0:0:
308,234,414184,1,2,0:0:0:0:
461,303,414406,1,0,0:0:0:0:
397,347,414518,6,0,P|317:363|241:336,1,139.333337585449,2|0,0:0|0:0,0:0:0:0:
173,299,414851,1,8,0:0:0:0:
268,143,415073,1,0,0:0:0:0:
205,200,415184,2,0,P|150:213|111:204,1,69.6666687927247,2|0,0:0|0:0,0:0:0:0:
48,216,415406,2,0,P|64:161|91:132,1,69.6666687927247,2|0,0:0|0:0,0:0:0:0:
112,73,415629,1,8,0:0:0:0:
193,111,415740,1,8,0:0:0:0:
205,200,415851,6,0,P|225:247|356:253,1,139.333337585449,2|0,0:0|0:0,0:0:0:0:
398,257,416184,1,8,0:0:0:0:
446,89,416406,1,0,0:0:0:0:
390,45,416518,1,2,0:0:0:0:
322,23,416629,1,0,0:0:0:0:
252,29,416740,1,0,0:0:0:0:
189,58,416851,1,10,0:0:0:0:
243,120,416962,1,8,0:0:0:0:
255,202,417073,1,8,0:0:0:0:
230,281,417184,5,2,0:0:0:0:
42,46,417518,1,2,0:0:0:0:
69,312,417851,2,8,L|57:394,2,63.3333333333333
162,257,418184,2,8,L|150:339,2,63.3333333333333
255,202,418518,1,8,0:0:0:0:
147,78,418740,2,0,L|143:48,2,31.6666666666667
69,312,419184,1,2,0:0:0:0:
255,202,419518,2,0,B|286:193|318:202|318:202|341:195|341:195|371:208|407:199,1,151.999995361328
485,193,419851,5,2,0:0:0:0:
264,384,420184,1,10,0:0:0:0:
403,199,420462,1,0,0:0:0:0:
403,199,420518,2,2,P|391:171|390:142,2,47.5
440,270,420768,2,2,P|469:273|495:286,2,47.5
353,287,421073,1,0,0:0:0:0:
310,309,421184,1,8,0:0:0:0:
269,38,421518,1,2,0:0:0:0:
485,193,421851,1,10,0:0:0:0:
45,239,422518,6,0,B|94:187|94:187|188:201,1,139.333337585449,2|0,0:0|0:0,0:0:0:0:
231,266,422851,2,0,B|182:318|182:318|88:304,1,139.333337585449,8|0,0:0|0:0,0:0:0:0:
45,239,423184,2,0,L|66:96,1,139.333337585449,2|0,0:0|0:0,0:0:0:0:
75,16,423518,1,8,0:0:0:0:
286,119,423740,1,0,0:0:0:0:
213,144,423851,6,0,L|123:180,1,69.6666687927247,2|0,0:0|0:0,0:0:0:0:
295,240,424073,2,0,L|205:276,1,69.6666687927247,2|0,0:0|0:0,0:0:0:0:
438,46,424406,1,0,0:0:0:0:
412,119,424518,2,0,B|397:200|414:259|414:259|396:219|367:211,1,209.000006378174,2|0,0:0|0:0,0:0:0:0:
197,47,425184,6,0,P|154:54|115:68,1,69.6666687927247,2|0,0:0|0:0,0:0:0:0:
54,103,425406,1,0,0:0:0:0:
40,131,425518,2,0,L|57:220,1,69.6666687927247,8|0,0:0|0:0,0:0:0:0:
96,280,425740,1,0,0:0:0:0:
172,272,425851,2,0,B|222:257|263:264|263:264|236:249|226:226,1,139.333337585449,2|0,0:0|0:0,0:0:0:0:
207,156,426184,2,0,L|118:173,1,69.6666687927247,8|0,0:0|0:0,0:0:0:0:
53,199,426406,1,0,0:0:0:0:
13,264,426517,6,0,P|45:348|106:364,1,139.333337585449,2|0,0:0|0:0,0:0:0:0:
158,340,426851,2,0,L|171:271,1,69.6666687927247,8|0,0:0|0:0,0:0:0:0:
202,186,427073,1,0,0:0:0:0:
264,141,427184,2,0,P|351:142|409:189,1,139.333337585449,2|0,0:0|0:0,0:0:0:0:
410,258,427517,1,8,0:0:0:0:
325,293,427629,1,8,0:0:0:0:
237,270,427740,1,8,0:0:0:0:
202,186,427851,6,0,P|158:134|90:128,1,139.333337585449,2|0,0:0|0:0,0:0:0:0:
22,68,428184,2,0,P|0:134|39:203,1,139.333337585449,8|0,0:0|0:0,0:0:0:0:
9,282,428517,2,0,P|77:268|117:198,1,139.333337585449,2|0,0:0|0:0,0:0:0:0:
202,186,428851,1,8,0:0:0:0:
311,369,429073,1,0,0:0:0:0:
325,293,429184,6,0,L|339:213,1,69.6666687927247,2|0,0:0|0:0,0:0:0:0:
430,349,429406,2,0,L|444:269,1,69.6666687927247,2|0,0:0|0:0,0:0:0:0:
380,44,429740,1,0,0:0:0:0:
304,32,429851,2,0,B|232:25|232:25|189:74|189:74|106:65,1,209.000006378174,2|0,0:0|0:0,0:0:0:0:
325,293,430517,6,0,P|381:313|428:305,1,69.6666687927247,2|0,0:0|0:0,0:0:0:0:
388,206,430740,2,0,P|332:186|285:194,1,69.6666687927247,2|0,0:0|0:0,0:0:0:0:
213,196,430962,1,8,0:0:0:0:
219,279,431073,1,8,0:0:0:0:
227,362,431184,2,0,L|310:377,1,69.6666687927247,2|0,0:0|0:0,0:0:0:0:
325,293,431406,2,0,L|408:308,1,69.6666687927247,2|0,0:0|0:0,0:0:0:0:
252,110,431740,1,8,0:0:0:0:
213,196,431851,6,0,P|126:206|91:191,1,69.6666687927247,10|0,0:0|0:0,0:0:0:0:
44,208,432073,2,0,L|56:294,1,69.6666687927247,10|0,0:0|0:0,0:0:0:0:
242,41,432406,2,0,L|254:127,1,69.6666687927247,10|0,0:0|0:0,0:0:0:0:
84,208,451535,6,0,B|96:176|96:176|128:156,1,71.2500027179719,2|0,0:0|0:0,0:0:0:0:
160,228,451917,1,0,0:0:0:0:
226,281,452108,2,0,P|242:215|195:151,1,142.500005435944,2|0,0:0|0:0,0:0:0:0:
348,128,452872,5,0,0:0:0:0:
428,128,453063,2,0,L|400:220,1,71.2500027179719,2|0,0:0|0:0,0:0:0:0:
348,128,453636,1,0,0:0:0:0:
428,128,453827,2,0,L|404:208,1,71.2500027179719,2|0,0:0|0:0,0:0:0:0:
384,272,454210,1,4,0:0:0:0:
337,209,454401,1,0,0:0:0:0:
259,199,454592,6,0,B|227:211|227:211|207:243,1,71.2500027179719,2|0,0:0|0:0,0:0:0:0:
279,274,454974,1,0,0:0:0:0:
332,340,455165,2,0,P|266:356|202:309,1,142.500005435944,2|0,0:0|0:0,0:0:0:0:
279,274,455738,1,0,0:0:0:0:
352,231,455929,2,0,P|294:192|227:208,1,142.500005435944,2|0,0:0|0:0,0:0:0:0:
279,274,456503,1,0,0:0:0:0:
207,317,456694,6,0,L|123:301,1,71.2500027179719,4|0,0:0|0:0,0:0:0:0:
67,34,457649,6,0,B|100:28|100:28|134:46,1,71.2500027179719,2|0,0:0|0:0,0:0:0:0:
87,109,458031,1,0,0:0:0:0:
74,193,458222,2,0,P|138:174|171:102,1,142.500005435944,2|0,0:0|0:0,0:0:0:0:
308,108,458987,5,0,0:0:0:0:
369,159,459178,2,0,L|288:211,1,71.2500027179719,2|0,0:0|0:0,0:0:0:0:
308,108,459751,1,0,0:0:0:0:
369,159,459942,2,0,L|299:204,1,71.2500027179719,2|0,0:0|0:0,0:0:0:0:
243,241,460325,1,4,0:0:0:0:
187,298,460515,1,0,0:0:0:0:
128,350,460706,6,0,B|108:321|108:321|110:284,1,71.2500027179719,2|0,0:0|0:0,0:0:0:0:
187,298,461088,1,0,0:0:0:0:
269,275,461279,2,0,P|225:224|145:225,1,142.500005435944,2|0,0:0|0:0,0:0:0:0:
187,298,461853,1,0,0:0:0:0:
240,356,462044,1,0,0:0:0:0:
316,336,462235,5,4,0:0:0:0:
348,264,462499,6,0,L|336:192,1,71.25,2|0,0:0|0:0,0:0:0:0:
404,180,462960,6,0,L|392:108,1,71.25,2|0,0:0|0:0,0:0:0:0:
460,92,463560,6,0,L|448:20,1,71.25,2|0,0:0|0:0,0:0:0:0:
512,0,464387,5,4,0:0:0:0:
160,92,471410,5,10,0:0:0:0:
160,92,471743,6,0,P|148:168|160:216,1,95,2|0,0:0|0:0,0:0:0:0:
288,148,472077,1,8,0:0:0:0:
232,24,472243,2,0,P|184:-4|112:4,1,95,8|0,0:0|0:0,0:0:0:0:
36,72,472577,6,0,L|48:196,1,95,2|0,0:0|0:0,0:0:0:0:
144,268,472910,2,0,L|153:173,1,95,2|0,0:0|0:0,0:0:0:0:
240,72,473243,2,0,L|252:196,1,95,2|0,0:0|0:0,0:0:0:0:
348,268,473576,2,0,L|357:173,1,95
452,76,473910,1,8,0:0:0:0:
452,76,474077,2,0,L|464:200,1,95,8|0,0:0|0:0,0:0:0:0:
448,312,474410,6,0,P|372:376|344:376,1,95,10|0,0:0|0:0,0:0:0:0:
252,312,474743,1,8,0:0:0:0:
320,184,474910,2,0,P|384:260|384:288,1,95,8|0,0:0|0:0,0:0:0:0:
252,312,475243,6,0,P|175:320|133:300,1,95,2|0,0:0|0:0,0:0:0:0:
204,205,475577,2,0,P|196:128|216:86,1,95,2|0,0:0|0:0,0:0:0:0:
309,156,475910,2,0,P|386:148|428:168,1,95,2|0,0:0|0:0,0:0:0:0:
357,263,476244,2,0,P|365:340|345:382,1,95,2|0,0:0|0:0,0:0:0:0:
252,312,476577,1,8,0:0:0:0:
252,312,476743,2,0,P|175:320|133:300,1,95,8|0,0:0|0:0,0:0:0:0:
120,148,477077,6,0,P|76:72|44:60,1,95,10|0,0:0|0:0,0:0:0:0:
12,232,477410,1,8,0:0:0:0:
192,240,477577,2,0,P|228:192|236:144,1,95,8|0,0:0|0:0,0:0:0:0:
108,28,477910,6,0,L|8:80,1,95,2|0,0:0|0:0,0:0:0:0:
120,240,478243,2,0,L|220:188,1,95,2|0,0:0|0:0,0:0:0:0:
4,140,478577,2,0,L|56:240,1,95,2|0,0:0|0:0,0:0:0:0:
224,128,478910,2,0,L|172:27,1,95,2|0,0:0|0:0,0:0:0:0:
120,240,479243,1,8,0:0:0:0:
120,240,479410,2,0,L|220:188,1,95,8|0,0:0|0:0,0:0:0:0:
332,84,479743,6,0,P|384:152|384:172,1,95,10|0,0:0|0:0,0:0:0:0:
272,300,480077,1,8,0:0:0:0:
120,240,480243,2,0,P|177:192|236:181,1,95,8|0,0:0|0:0,0:0:0:0:
360,252,480577,6,0,P|368:332|340:380,1,95,2|0,0:0|0:0,0:0:0:0:
244,236,480910,2,0,P|210:309|162:336,1,95,2|0,0:0|0:0,0:0:0:0:
148,164,481243,2,0,P|82:210|27:210,1,95,2|0,0:0|0:0,0:0:0:0:
108,56,481577,2,0,P|27:64|-20:36,1,95,2|0,0:0|0:0,0:0:0:0:
220,8,481910,1,8,0:0:0:0:
220,8,482077,2,0,B|200:136,1,95,8|0,0:0|0:0,0:0:0:0:
148,192,482410,5,2,0:0:0:0:
231,207,482577,1,0,0:0:0:0:
306,172,482743,1,8,0:0:0:0:
362,108,482910,1,0,0:0:0:0:
362,108,483077,1,2,0:0:0:0:
334,188,483244,1,0,0:0:0:0:
342,271,483410,1,8,0:0:0:0:
397,336,483577,1,0,0:0:0:0:
472,268,483743,6,0,P|444:204|420:256,2,152,2|2|2,0:0|0:0|0:0,0:0:0:0:
332,356,484743,1,0,0:0:0:0:
112,252,485077,6,0,P|96:188|112:112,1,104.500003189087,2|0,0:0|0:0,0:0:0:0:
252,64,485410,1,8,0:0:0:0:
296,272,485577,1,0,0:0:0:0:
192,184,485743,1,2,0:0:0:0:
300,148,485910,1,0,0:0:0:0:
192,304,486077,5,8,0:0:0:0:
128,128,486243,1,0,0:0:0:0:
300,228,486410,1,2,0:0:0:0:
80,224,486577,1,8,0:0:0:0:
80,224,486743,2,0,P|27:151|71:43,1,209.000006378174,10|8,0:0|0:0,0:0:0:0:
228,124,487410,6,0,P|280:120|320:128,1,85.4999973907472,2|0,0:0|0:0,0:0:0:0:
340,144,487660,1,8,0:0:0:0:
340,144,487743,2,0,L|332:240,1,85.4999973907472,10|0,0:0|0:0,0:0:0:0:
216,212,488077,6,0,P|164:208|116:224,1,95,2|0,0:0|0:0,0:0:0:0:
72,272,488327,1,8,0:0:0:0:
72,272,488410,2,0,L|80:376,1,95,10|0,0:0|0:0,0:0:0:0:
264,348,488743,6,0,L|292:228,1,104.500003189087,2|0,0:0|0:0,0:0:0:0:
380,216,488993,1,8,0:0:0:0:
380,216,489077,2,0,P|432:232|480:216,1,104.500003189087,10|0,0:0|0:0,0:0:0:0:
308,152,489410,6,0,L|280:20,1,113.999996520996,2|0,0:0|0:0,0:0:0:0:
172,4,489660,1,8,0:0:0:0:
176,8,489744,2,0,P|112:28|64:8,1,113.999996520996,10|0,0:0|0:0,0:0:0:0:
36,128,490077,5,2,0:0:0:0:
203,128,490243,1,0,0:0:0:0:
119,272,490410,1,8,0:0:0:0:
278,219,490576,1,0,0:0:0:0:
242,382,490743,1,2,0:0:0:0:
187,227,490910,1,0,0:0:0:0:
351,255,491077,2,0,L|476:276,1,104.500003189087,8|0,0:0|0:0,0:0:0:0:
364,100,491410,1,2,0:0:0:0:
364,100,491577,1,2,0:0:0:0:
172,152,491743,5,8,0:0:0:0:
351,255,491910,1,0,0:0:0:0:
316,40,492077,1,8,0:0:0:0:
124,84,492243,2,0,P|92:168|108:204,1,104.500003189087,8|0,0:0|0:0,0:0:0:0:
204,84,492577,2,0,P|152:8|120:4,1,104.500003189087,8|0,0:0|0:0,0:0:0:0:
172,152,492910,1,0,0:0:0:0:
272,224,493077,5,10,0:0:0:0:
290,234,493160,1,0,0:0:0:0:
310,239,493243,1,0,0:0:0:0:
331,240,493327,1,0,0:0:0:0:
351,235,493410,1,8,0:0:0:0:
371,218,493493,1,0,0:0:0:0:
383,195,493577,1,0,0:0:0:0:
385,169,493660,1,0,0:0:0:0:
372,146,493743,5,10,0:0:0:0:
344,130,493827,1,0,0:0:0:0:
312,130,493910,1,0,0:0:0:0:
277,140,493993,1,0,0:0:0:0:
243,154,494077,1,8,0:0:0:0:
201,154,494160,1,0,0:0:0:0:
155,141,494243,1,0,0:0:0:0:
115,106,494327,1,0,0:0:0:0:
103,55,494410,5,4,0:0:0:0:
103,55,494910,1,0,0:0:0:0:
4,224,495077,1,0,0:0:0:0:
280,304,495410,5,0,0:0:0:0:
212,164,495577,1,0,0:0:0:0:
212,164,495660,1,0,0:0:0:0:
212,164,495743,6,0,P|232:100|304:52,1,113.999996520996,2|0,0:0|0:0,0:0:0:0:
416,120,496077,1,8,0:0:0:0:
268,228,496243,2,0,P|157:229|134:200,1,113.999996520996,8|0,0:0|0:0,0:0:0:0:
152,28,496577,1,0,0:0:0:0:
152,28,496743,1,2,0:0:0:0:
336,144,496910,1,0,0:0:0:0:
336,144,497077,5,2,0:0:0:0:
188,236,497243,1,0,0:0:0:0:
240,64,497410,1,8,0:0:0:0:
352,220,497577,2,0,L|316:344,1,113.999996520996,8|0,0:0|0:0,0:0:0:0:
188,236,497910,2,0,L|156:126,1,113.999996520996,8|0,0:0|0:0,0:0:0:0:
368,80,498243,1,0,0:0:0:0:
204,24,498410,5,2,0:0:0:0:
204,24,498576,1,0,0:0:0:0:
60,152,498743,1,8,0:0:0:0:
188,236,498910,2,0,P|196:168|160:116,1,113.999996520996,8|0,0:0|0:0,0:0:0:0:
60,152,499243,1,0,0:0:0:0:
76,312,499410,1,0,0:0:0:0:
248,324,499576,2,0,P|312:304|300:156,1,227.999993041992,2|0,0:0|0:0,0:0:0:0:
188,236,500076,5,8,0:0:0:0:
188,236,500243,2,0,P|169:157|180:111,1,113.999996520996,8|0,0:0|0:0,0:0:0:0:
312,164,500576,2,0,P|338:267|247:323,1,227.999993041992,2|0,0:0|0:0,0:0:0:0:
112,236,501076,5,2,0:0:0:0:
112,236,501243,1,0,0:0:0:0:
204,76,501410,1,8,0:0:0:0:
208,256,501576,2,0,P|140:332|108:336,1,113.999996520996,8|0,0:0|0:0,0:0:0:0:
16,228,501910,1,0,0:0:0:0:
16,228,502076,1,2,0:0:0:0:
248,156,502243,1,0,0:0:0:0:
248,156,502410,5,2,0:0:0:0:
152,280,502576,1,0,0:0:0:0:
168,92,502743,1,8,0:0:0:0:
344,180,502910,2,0,L|452:236,1,113.999996520996,8|0,0:0|0:0,0:0:0:0:
320,288,503243,2,0,L|218:340,1,113.999996520996,8|0,0:0|0:0,0:0:0:0:
116,212,503576,1,0,0:0:0:0:
248,104,503743,5,2,0:0:0:0:
248,104,503910,1,0,0:0:0:0:
320,288,504076,1,8,0:0:0:0:
416,152,504243,2,0,P|416:68|380:24,1,113.999996520996,8|0,0:0|0:0,0:0:0:0:
328,108,504576,1,0,0:0:0:0:
496,176,504742,1,8,0:0:0:0:
340,12,504910,2,0,P|286:22|231:93,1,113.999996520996,8|0,0:0|0:0,0:0:0:0:
216,192,505243,5,10,0:0:0:0:
376,236,505410,1,10,0:0:0:0:
164,272,505576,1,10,0:0:0:0:
301,175,505743,2,0,P|401:143|413:147,1,113.999996520996,10|10,0:0|0:0,0:0:0:0:
452,296,506076,2,0,P|352:328|340:324,1,113.999996520996,10|10,0:0|0:0,0:0:0:0:
164,272,506410,5,14,0:0:0:0:
208,100,506576,1,2,0:0:0:0:
264,272,506743,1,10,0:0:0:0:
103,100,506910,2,0,P|55:127|32:178,1,113.999996520996,2|8,0:0|0:0,0:0:0:0:
124,188,507243,1,0,0:0:0:0:
124,188,507410,1,8,0:0:0:0:
328,100,507576,6,0,P|383:90|434:113,1,113.999996520996,2|8,0:0|0:0,0:0:0:0:
371,179,507910,1,0,0:0:0:0:
272,24,508076,1,10,0:0:0:0:
172,180,508243,2,0,P|178:235|213:279,1,113.999996520996,2|8,0:0|0:0,0:0:0:0:
364,352,508576,2,0,P|357:296|322:252,1,113.999996520996,0|8,0:0|0:0,0:0:0:0:
260,200,508910,1,0,0:0:0:0:
393,187,509076,5,8,0:0:0:0:
218,128,509243,1,0,0:0:0:0:
322,252,509410,1,8,0:0:0:0:
295,77,509576,1,0,0:0:0:0:
216,259,509743,2,0,P|171:288|100:291,1,113.999996520996,8|0,0:0|0:0,0:0:0:0:
131,151,510076,2,0,P|199:127|339:195,1,227.999993041992,8|8,0:0|0:0,0:0:0:0:
407,296,510576,1,0,0:0:0:0:
420,163,510743,5,0,0:0:0:0:
420,163,510910,1,8,0:0:0:0:
216,259,511076,2,0,P|166:293|144:353,1,113.999996520996,8|0,0:0|0:0,0:0:0:0:
241,349,511410,1,8,0:0:0:0:
241,349,511576,1,0,0:0:0:0:
184,136,511743,5,10,0:0:0:0:
308,240,511910,1,2,0:0:0:0:
96,192,512076,1,10,0:0:0:0:
292,143,512243,2,0,P|347:152|390:189,1,113.999996520996,2|8,0:0|0:0,0:0:0:0:
420,300,512576,1,0,0:0:0:0:
420,300,512743,1,8,0:0:0:0:
204,208,512910,2,0,P|183:155|193:100,1,113.999996520996,2|0,0:0|0:0,0:0:0:0:
247,32,513243,1,0,0:0:0:0:
328,232,513410,5,10,0:0:0:0:
168,332,513576,1,2,0:0:0:0:
55,204,513743,2,0,P|101:170|156:160,1,113.999996520996,10|0,0:0|0:0,0:0:0:0:
236,336,514076,2,0,P|184:313|147:270,1,113.999996520996,10|0,0:0|0:0,0:0:0:0:
248,228,514410,5,8,0:0:0:0:
248,228,514576,1,0,0:0:0:0:
72,204,514743,2,0,P|52:244|56:304,1,95,2|0,0:0|0:0,0:0:0:0:
156,128,515076,2,0,P|176:168|172:228,1,95,2|0,0:0|0:0,0:0:0:0:
64,68,515410,1,2,0:0:0:0:
64,68,515576,1,0,0:0:0:0:
264,59,515743,6,0,P|318:75|356:116,1,113.999996520996,14|0,0:0|0:0,0:0:0:0:
264,160,516076,1,8,0:0:0:0:
168,112,516243,6,0,P|154:57|171:3,1,113.999996520996,2|8,0:0|0:0,0:0:0:0:
208,252,516576,2,0,P|221:306|204:360,1,113.999996520996,2|8,0:0|0:0,0:0:0:0:
264,160,516910,2,0,P|318:146|372:163,1,113.999996520996,2|8,0:0|0:0,0:0:0:0:
110,204,517243,2,0,P|55:217|1:200,1,113.999996520996,2|8,0:0|0:0,0:0:0:0:
217,52,517576,2,0,L|263:179,1,113.999996520996,2|8,0:0|0:0,0:0:0:0:
147,310,517910,2,0,B|113:259|109:203|109:203|161:247|213:235,1,227.999993041992,2|0,0:0|0:0,0:0:0:0:
198,120,518410,6,0,L|158:252,1,113.999996520996,10|0,0:0|0:0,0:0:0:0:
248,316,518743,1,8,0:0:0:0:
87,188,518910,6,0,P|79:252|111:304,1,113.999996520996,2|8,0:0|0:0,0:0:0:0:
272,136,519243,2,0,P|280:72|248:20,1,113.999996520996,2|8,0:0|0:0,0:0:0:0:
232,244,519576,2,0,P|287:253|338:230,1,113.999996520996,2|8,0:0|0:0,0:0:0:0:
121,87,519909,2,0,P|66:78|15:101,1,113.999996520996,2|8,0:0|0:0,0:0:0:0:
101,294,520243,2,0,L|81:170,1,113.999996520996,2|8,0:0|0:0,0:0:0:0:
256,40,520576,2,0,L|276:164,1,113.999996520996,2|8,0:0|0:0,0:0:0:0:
240,237,520910,1,2,0:0:0:0:
448,112,521076,6,0,P|468:164|464:221,1,113.999996520996,14|0,0:0|0:0,0:0:0:0:
424,332,521410,1,8,0:0:0:0:
173,252,521576,6,0,P|208:207|259:183,1,113.999996520996,2|8,0:0|0:0,0:0:0:0:
268,8,521910,2,0,P|232:52|181:76,1,113.999996520996,2|8,0:0|0:0,0:0:0:0:
24,76,522243,2,0,P|68:111|92:162,1,113.999996520996,2|8,0:0|0:0,0:0:0:0:
280,272,522576,2,0,P|235:236|211:185,1,113.999996520996,2|8,0:0|0:0,0:0:0:0:
367,51,522910,2,0,P|358:106|326:153,1,113.999996520996,2|8,0:0|0:0,0:0:0:0:
140,83,523243,2,0,P|250:75|327:154,1,227.999993041992,2|0,0:0|0:0,0:0:0:0:
171,292,523743,6,0,L|210:184,1,113.999996520996,10|0,0:0|0:0,0:0:0:0:
100,200,524076,1,8,0:0:0:0:
326,153,524243,6,0,P|297:106|249:75,1,113.999996520996,2|8,0:0|0:0,0:0:0:0:
308,288,524577,2,0,P|364:286|414:259,1,113.999996520996,2|8,0:0|0:0,0:0:0:0:
128,192,524910,2,0,P|157:239|205:270,1,113.999996520996,2|8,0:0|0:0,0:0:0:0:
146,57,525244,2,0,P|89:58|39:85,1,113.999996520996,2|8,0:0|0:0,0:0:0:0:
248,152,525577,2,0,L|284:43,1,113.999996520996,2|8,0:0|0:0,0:0:0:0:
315,280,525910,2,0,P|205:291|118:222,1,227.999993041992,2|0,0:0|0:0,0:0:0:0:
384,188,526410,6,0,P|419:232|426:287,1,113.999996520996,14|0,0:0|0:0,0:0:0:0:
315,280,526743,1,8,0:0:0:0:
268,168,526910,6,0,P|288:115|332:81,1,113.999996520996,2|8,0:0|0:0,0:0:0:0:
160,188,527243,2,0,P|137:136|144:80,1,113.999996520996,2|8,0:0|0:0,0:0:0:0:
124,300,527576,2,0,P|71:279|37:235,1,113.999996520996,2|8,0:0|0:0,0:0:0:0:
57,15,527910,2,0,P|109:35|143:80,1,113.999996520996,2|8,0:0|0:0,0:0:0:0:
256,28,528243,2,0,P|278:79|271:135,1,113.999996520996,2|8,0:0|0:0,0:0:0:0:
387,180,528576,2,0,P|318:264|208:260,1,227.999993041992,2|0,0:0|0:0,0:0:0:0:
120,96,529077,6,0,L|80:228,1,113.999996520996,14|0,0:0|0:0,0:0:0:0:
28,80,529410,1,8,0:0:0:0:
128,300,529577,6,0,P|64:308|12:276,1,113.999996520996,2|8,0:0|0:0,0:0:0:0:
176,116,529910,2,0,P|240:108|292:140,1,113.999996520996,2|8,0:0|0:0,0:0:0:0:
68,156,530243,2,0,P|58:100|81:49,1,113.999996520996,2|8,0:0|0:0,0:0:0:0:
228,260,530576,2,0,P|237:315|214:366,1,113.999996520996,2|8,0:0|0:0,0:0:0:0:
24,280,530910,2,0,L|148:300,1,113.999996520996,2|8,0:0|0:0,0:0:0:0:
272,132,531243,2,0,L|148:112,1,113.999996520996,2|8,0:0|0:0,0:0:0:0:
77,148,531577,1,2,0:0:0:0:
396,215,531743,6,0,P|419:154|414:88,1,132.999995941162,14|0,0:0|0:0,0:0:0:0:
272,132,532076,1,8,0:0:0:0:
273,283,532243,6,0,P|314:334|373:362,1,132.999995941162,2|8,0:0|0:0,0:0:0:0:
272,132,532576,2,0,P|230:80|171:52,1,132.999995941162,2|8,0:0|0:0,0:0:0:0:
351,207,532910,2,0,P|402:165|430:106,1,132.999995941162,2|8,0:0|0:0,0:0:0:0:
200,208,533243,2,0,P|148:249|120:308,1,132.999995941162,2|8,0:0|0:0,0:0:0:0:
399,330,533576,2,0,L|348:202,1,132.999995941162,2|8,0:0|0:0,0:0:0:0:
155,92,533910,2,0,P|151:221|240:315,1,265.999991882324,2|0,0:0|0:0,0:0:0:0:
430,106,534410,6,0,L|292:168,1,132.999995941162,14|0,0:0|0:0,0:0:0:0:
217,202,534743,1,8,0:0:0:0:
97,62,534910,2,0,L|235:124,1,132.999995941162,14|0,0:0|0:0,0:0:0:0:
308,160,535243,1,8,0:0:0:0:
120,332,535410,2,0,B|152:192|256:108|256:108|360:192|391:330,1,531.999983764649,14|0,0:0|0:0,0:0:0:0:
256,256,536410,5,4,0:0:0:0:
256,192,536493,12,0,538076,0:0:0:0:
110,61,544690,5,2,0:0:0:0:
195,106,544898,1,0,0:0:0:0:
195,106,545002,2,0,L|206:226,1,95
308,200,545419,2,0,L|317:106,1,95
402,61,545835,1,0,0:0:0:0:
391,313,546356,5,2,0:0:0:0:
309,246,546565,1,0,0:0:0:0:
309,246,546669,2,0,L|208:309,1,95
156,341,547085,1,0,0:0:0:0:
391,313,547606,5,0,0:0:0:0:
325,67,548023,5,2,0:0:0:0:
280,152,548231,1,0,0:0:0:0:
280,152,548335,2,0,L|166:132,1,95
232,232,548752,2,0,L|346:252,1,95
280,332,549169,1,0,0:0:0:0:
70,192,549690,5,2,0:0:0:0:
139,269,549898,1,0,0:0:0:0:
139,269,550002,2,0,L|179:171,1,95
205,100,550419,1,0,0:0:0:0:
70,192,550940,5,2,0:0:0:0:
35,83,551148,1,0,0:0:0:0:
134,28,551356,2,8,L|178:12,1,47.5,2|2,0:0|0:0,0:0:0:0:
253,106,551669,2,2,L|191:127,2,47.5
259,210,552085,2,2,L|321:231,2,47.5
477,83,552815,5,0,0:0:0:0:
378,28,553023,2,2,L|333:12,1,47.5
259,106,553336,2,2,L|321:127,2,47.5
253,210,553752,2,2,L|191:231,2,47.5
154,350,554481,5,0,0:0:0:0:
123,240,554690,2,2,L|75:233,1,47.5
236,256,555002,2,2,L|299:265,2,47.5
215,253,555315,5,0,0:0:0:0:
184,143,555523,2,2,L|136:136,1,47.5
297,159,555836,2,2,L|360:168,2,47.5
276,157,556148,5,8,0:0:0:0:
238,49,556356,2,0,L|342:62,1,95,8|0,0:0|0:0,0:0:0:0:
391,241,556773,2,0,L|404:137,1,95,2|0,0:0|0:0,0:0:0:0:
274,49,557190,2,0,L|170:62,1,95,8|0,0:0|0:0,0:0:0:0:
121,241,557607,2,0,L|108:137,1,95,2|0,0:0|0:0,0:0:0:0:
238,49,558023,6,0,L|323:61,1,47.5,8|0,0:0|0:0,0:0:0:0:
334,173,558231,2,0,L|340:121,1,47.5,2|0,0:0|0:0,0:0:0:0:
238,119,558440,2,0,L|153:131,1,47.5,8|0,0:0|0:0,0:0:0:0:
142,243,558648,2,0,L|136:190,1,47.5,2|0,0:0|0:0,0:0:0:0:
238,189,558856,2,0,L|323:201,1,47.5,8|0,0:0|0:0,0:0:0:0:
334,313,559064,2,0,L|340:261,1,47.5,2|0,0:0|0:0,0:0:0:0:
238,259,559273,2,0,L|153:271,1,47.5,8|0,0:0|0:0,0:0:0:0:
142,383,559481,2,0,L|136:330,1,47.5,2|0,0:0|0:0,0:0:0:0:
238,329,559690,5,8,0:0:0:0:
270,321,559794,1,0,0:0:0:0:
296,301,559898,1,0,0:0:0:0:
314,273,560002,1,0,0:0:0:0:
293,235,560106,5,8,0:0:0:0:
276,207,560210,1,0,0:0:0:0:
272,175,560314,1,0,0:0:0:0:
279,142,560418,1,0,0:0:0:0:
304,107,560523,5,8,0:0:0:0:
296,75,560627,1,0,0:0:0:0:
276,49,560731,1,0,0:0:0:0:
248,31,560835,1,0,0:0:0:0:
213,55,560939,5,8,0:0:0:0:
175,75,561043,1,0,0:0:0:0:
132,77,561147,1,0,0:0:0:0:
91,63,561251,1,0,0:0:0:0:
63,18,561356,5,4,0:0:0:0:
88,124,563023,6,0,P|131:196|290:179,1,218.500004167557,2|0,0:0|0:0,0:0:0:0:
350,120,563648,1,0,0:0:0:0:
202,102,563856,2,0,L|114:293,1,163.875003125668,2|0,0:0|0:0,0:0:0:0:
127,271,564273,1,8,0:0:0:0:
127,271,564377,2,0,P|180:310|250:311,1,109.250002083778
246,315,564690,5,8,0:0:0:0:
274,0,565106,2,0,P|205:36|195:115,1,163.875003125668,10|0,0:0|0:0,0:0:0:0:
121,158,565523,2,0,P|188:199|261:169,1,163.875003125668,10|0,0:0|0:0,0:0:0:0:
335,212,565940,2,0,P|342:147|287:90,1,109.250002083778,8|0,0:0|0:0,0:0:0:0:
276,85,566252,6,0,L|88:16,1,163.875003125668,2|0,0:0|0:0,0:0:0:0:
26,101,566773,1,8,0:0:0:0:
161,171,566981,1,0,0:0:0:0:
30,251,567190,2,0,P|109:328|189:330,1,163.875003125668,2|0,0:0|0:0,0:0:0:0:
181,340,567606,1,8,0:0:0:0:
180,340,567710,2,0,L|311:294,1,109.250002083778
305,292,568023,5,8,0:0:0:0:
118,28,568440,2,0,P|187:64|197:143,1,163.875003125668,10|0,0:0|0:0,0:0:0:0:
271,186,568857,2,0,P|204:227|131:197,1,163.875003125668,10|0,0:0|0:0,0:0:0:0:
57,240,569274,2,0,P|50:175|105:118,1,109.250002083778,8|0,0:0|0:0,0:0:0:0:
116,113,569586,6,0,L|304:44,1,163.875003125668,2|0,0:0|0:0,0:0:0:0:
387,80,570106,1,8,0:0:0:0:
264,173,570315,1,0,0:0:0:0:
443,218,570523,2,0,L|468:337,1,109.250002083778,2|0,0:0|0:0,0:0:0:0:
345,310,570940,1,8,0:0:0:0:
247,192,571148,1,0,0:0:0:0:
419,216,571356,1,2,0:0:0:0:
276,272,571565,1,0,0:0:0:0:
317,102,571773,5,8,0:0:0:0:
419,216,571981,1,0,0:0:0:0:
231,276,572190,2,0,L|112:236,1,109.250002083778,2|0,0:0|0:0,0:0:0:0:
204,149,572606,5,8,0:0:0:0:
54,113,572815,1,0,0:0:0:0:
222,69,573023,1,2,0:0:0:0:
76,114,573231,1,0,0:0:0:0:
245,158,573440,1,8,0:0:0:0:
98,114,573648,1,0,0:0:0:0:
282,46,573856,2,0,L|390:4,1,109.250002083778,2|0,0:0|0:0,0:0:0:0:
456,102,574273,2,0,P|475:179|454:252,1,109.250002083778,8|0,0:0|0:0,0:0:0:0:
351,172,574690,5,8,0:0:0:0:
208,227,574898,1,0,0:0:0:0:
347,331,575106,1,8,0:0:0:0:
350,133,575315,1,0,0:0:0:0:
174,247,575523,1,8,0:0:0:0:
381,350,575731,1,0,0:0:0:0:
349,94,575940,1,8,0:0:0:0:
346,72,576044,1,0,0:0:0:0:
343,50,576148,1,8,0:0:0:0:
340,28,576252,1,0,0:0:0:0:
335,6,576356,5,8,0:0:0:0:
112,52,577815,5,0,0:0:0:0:
256,80,578023,1,8,0:0:0:0:
404,172,578648,5,0,0:0:0:0:
260,200,578856,1,8,0:0:0:0:
260,200,579064,1,8,0:0:0:0:
112,296,579481,5,0,0:0:0:0:
256,324,579689,1,8,0:0:0:0:
256,196,579898,1,0,0:0:0:0:
112,224,580106,1,2,0:0:0:0:
112,96,580315,1,0,0:0:0:0:
256,124,580523,1,8,0:0:0:0:
288,25,580731,5,0,0:0:0:0:
392,69,580940,2,0,L|404:193,1,95,2|0,0:0|0:0,0:0:0:0:
384,245,581356,1,8,0:0:0:0:
312,176,581981,5,0,0:0:0:0:
211,290,582190,1,8,0:0:0:0:
211,290,582398,1,8,0:0:0:0:
197,86,582815,5,0,0:0:0:0:
96,200,583024,1,8,0:0:0:0:
215,172,583231,1,0,0:0:0:0:
72,118,583440,1,2,0:0:0:0:
197,86,583648,1,0,0:0:0:0:
96,200,583857,1,8,0:0:0:0:
215,172,584065,5,0,0:0:0:0:
96,200,584273,2,0,L|128:307,1,95,2|0,0:0|0:0,0:0:0:0:
213,316,584690,6,0,P|258:286|343:285,1,104.500003189087,2|0,0:0|0:0,0:0:0:0:
389,224,585106,2,0,L|416:112,1,104.500003189087,8|0,0:0|0:0,0:0:0:0:
321,72,585523,2,0,L|296:173,1,104.500003189087,2|0,0:0|0:0,0:0:0:0:
306,278,585940,2,0,P|348:315|436:309,1,104.500003189087,8|0,0:0|0:0,0:0:0:0:
389,224,586356,5,10,0:0:0:0:
270,182,586565,1,8,0:0:0:0:
413,153,586773,1,10,0:0:0:0:
251,110,586981,1,8,0:0:0:0:
437,82,587190,1,10,0:0:0:0:
333,11,587398,5,0,0:0:0:0:
333,136,587606,2,0,L|333:252,1,104.500003189087,2|0,0:0|0:0,0:0:0:0:
269,324,588023,6,0,P|202:328|135:290,1,104.500003189087,2|0,0:0|0:0,0:0:0:0:
100,235,588440,2,0,B|143:207|143:207|200:220,1,104.500003189087,8|0,0:0|0:0,0:0:0:0:
167,315,588856,2,0,B|124:343|124:343|67:330,1,104.500003189087,2|0,0:0|0:0,0:0:0:0:
12,244,589273,2,0,P|6:182|30:123,1,104.500003189087,8|0,0:0|0:0,0:0:0:0:
109,197,589690,5,10,0:0:0:0:
196,106,589899,1,8,0:0:0:0:
212,251,590107,1,10,0:0:0:0:
112,117,590315,1,8,0:0:0:0:
296,157,590524,1,10,0:0:0:0:
212,251,590731,5,0,0:0:0:0:
196,106,590940,1,0,0:0:0:0:
219,77,591044,1,0,0:0:0:0:
252,62,591148,1,0,0:0:0:0:
288,58,591252,1,0,0:0:0:0:
337,72,591356,6,0,P|391:113|437:117,1,104.500003189087,2|0,0:0|0:0,0:0:0:0:
512,45,591773,2,0,P|458:4|412:0,1,104.500003189087,8|0,0:0|0:0,0:0:0:0:
337,72,592190,2,0,L|289:208,1,104.500003189087,2|0,0:0|0:0,0:0:0:0:
384,264,592606,2,0,L|418:165,1,104.500003189087,8|0,0:0|0:0,0:0:0:0:
337,72,593023,5,10,0:0:0:0:
227,168,593231,1,8,0:0:0:0:
392,139,593440,1,10,0:0:0:0:
210,91,593648,1,8,0:0:0:0:
371,223,593856,1,10,0:0:0:0:
405,80,594065,5,0,0:0:0:0:
274,144,594273,2,0,L|226:280,1,104.500003189087,2|0,0:0|0:0,0:0:0:0:
118,276,594690,6,0,P|82:227|76:178,1,104.500003189087,2|0,0:0|0:0,0:0:0:0:
150,84,595106,2,0,B|184:63|184:63|283:45,1,104.500003189087,8|0,0:0|0:0,0:0:0:0:
359,109,595523,2,0,B|380:169|380:169|379:209,1,104.500003189087,2|0,0:0|0:0,0:0:0:0:
296,305,595940,2,0,P|260:256|254:207,1,104.500003189087,8|0,0:0|0:0,0:0:0:0:
271,89,596356,5,10,0:0:0:0:
410,44,596564,1,8,0:0:0:0:
379,209,596773,1,10,0:0:0:0:
329,27,596981,1,8,0:0:0:0:
506,136,597189,1,10,0:0:0:0:
379,209,597398,5,0,0:0:0:0:
426,68,597606,2,0,L|461:184,1,104.500003189087,2|0,0:0|0:0,0:0:0:0:
344,246,598023,6,0,P|264:234|235:252,1,104.500003189087,2|0,0:0|0:0,0:0:0:0:
340,355,598440,2,0,P|417:332|436:303,1,104.500003189087,8|0,0:0|0:0,0:0:0:0:
456,168,598856,2,0,L|426:68,1,104.500003189087,2|0,0:0|0:0,0:0:0:0:
286,22,599273,2,0,L|194:72,1,104.500003189087,8|0,0:0|0:0,0:0:0:0:
132,204,599690,5,10,0:0:0:0:
273,292,599898,1,8,0:0:0:0:
241,106,600106,1,10,0:0:0:0:
142,291,600315,1,8,0:0:0:0:
360,220,600523,1,10,0:0:0:0:
241,106,600731,5,0,0:0:0:0:
269,271,600940,2,0,L|404:325,1,104.500003189087,2|0,0:0|0:0,0:0:0:0:
442,197,601356,6,0,P|441:136|491:95,1,104.500003189087,2|0,0:0|0:0,0:0:0:0:
511,244,601773,2,0,P|475:275|417:277,1,104.500003189087,8|0,0:0|0:0,0:0:0:0:
339,322,602190,2,0,L|304:210,1,104.500003189087,2|0,0:0|0:0,0:0:0:0:
248,135,602606,2,0,L|216:234,1,104.500003189087,8|0,0:0|0:0,0:0:0:0:
242,314,603023,5,10,0:0:0:0:
153,172,603231,1,8,0:0:0:0:
336,129,603440,1,10,0:0:0:0:
242,314,603648,1,8,0:0:0:0:
120,119,603856,1,10,0:0:0:0:
366,70,604065,1,0,0:0:0:0:
242,314,604273,1,8,0:0:0:0:
236,157,604481,1,0,0:0:0:0:
377,224,604690,5,4,0:0:0:0:
29,172,606356,6,0,B|26:134|8:84|8:84|57:101|57:101|91:61|91:61|101:114|118:147,1,285.000010871888
131,213,607190,2,8,P|140:311|164:211,1,285.000010871888,0|0,0:0|0:0,0:0:0:0:
183,146,608023,2,0,B|202:108|216:49|216:49|235:50|265:52|287:71|293:102|273:130|245:131|245:131|265:183,1,285.000010871888
327,225,608856,2,0,B|282:224|268:237|257:256|264:270|273:301|313:290|313:290|346:285|357:301|363:321|354:342|344:351|326:358|299:359|276:354,1,285.000010871888
344,157,609690,2,0,B|380:25|380:25|392:25|392:25|430:170,1,285.000010871888
403,225,610523,2,0,B|418:272|455:266|488:255|485:209|485:209|504:277|495:339|440:373,1,285.000010871888
93,174,611356,6,0,B|145:162|179:102|179:102|198:315,1,285.000010871888
299,115,612190,2,0,B|419:141|419:141|336:187|311:312,1,285.000010871888
181,73,613023,6,0,P|123:110|101:172,1,109.250002083778,2|0,0:0|0:0,0:0:0:0:
84,263,613440,1,8,0:0:0:0:
217,191,613649,1,0,0:0:0:0:
198,336,613857,2,0,L|321:303,1,109.250002083778,2|0,0:0|0:0,0:0:0:0:
418,271,614274,5,8,0:0:0:0:
344,137,614482,1,0,0:0:0:0:
303,307,614690,1,2,0:0:0:0:
403,192,614898,1,0,0:0:0:0:
232,154,615106,1,8,0:0:0:0:
303,307,615315,1,0,0:0:0:0:
374,164,615523,2,0,L|421:65,1,109.250002083778,2|0,0:0|0:0,0:0:0:0:
302,57,615940,5,8,0:0:0:0:
276,207,616148,1,0,0:0:0:0:
175,64,616356,1,2,0:0:0:0:
310,135,616565,1,0,0:0:0:0:
155,215,616773,1,8,0:0:0:0:
175,64,616981,1,0,0:0:0:0:
268,237,617190,2,0,L|391:279,1,109.250002083778,2|0,0:0|0:0,0:0:0:0:
466,198,617606,2,0,P|425:145|364:137,1,109.250002083778,8|0,0:0|0:0,0:0:0:0:
267,141,618023,5,8,0:0:0:0:
188,271,618231,1,0,0:0:0:0:
361,247,618440,1,8,0:0:0:0:
222,107,618648,1,0,0:0:0:0:
181,326,618856,1,8,0:0:0:0:
412,225,619065,1,0,0:0:0:0:
180,77,619273,1,8,0:0:0:0:
162,64,619377,1,0,0:0:0:0:
143,52,619481,1,8,0:0:0:0:
124,40,619585,1,0,0:0:0:0:
106,27,619690,5,8,0:0:0:0:
112,144,621356,6,0,P|172:112|240:121,1,123.499994346619,2|0,0:0|0:0,0:0:0:0:
336,168,621773,1,8,0:0:0:0:
164,268,621981,1,0,0:0:0:0:
178,240,622086,1,0,0:0:0:0:
193,213,622190,1,2,0:0:0:0:
309,282,622398,1,0,0:0:0:0:
123,349,622606,2,0,L|61:326,1,61.7499971733095,8|0,0:0|0:0,0:0:0:0:
135,191,622815,2,0,L|197:214,1,61.7499971733095,8|0,0:0|0:0,0:0:0:0:
309,282,623023,5,2,0:0:0:0:
363,118,623231,1,0,0:0:0:0:
309,282,623440,1,2,0:0:0:0:
273,138,623648,1,0,0:0:0:0:
144,318,623856,2,0,B|189:370|189:370|283:382,1,123.499994346619,8|8,0:0|0:0,0:0:0:0:
309,282,624273,6,0,B|321:233|321:233|343:202|343:202|354:156,1,123.499994346619,2|0,0:0|0:0,0:0:0:0:
251,93,624690,2,0,B|239:142|239:142|217:172|217:172|206:219,1,123.499994346619,2|0,0:0|0:0,0:0:0:0:
144,318,625106,2,8,L|196:377,2,61.7499971733095
45,224,625523,5,2,0:0:0:0:
136,92,625731,2,0,L|144:21,1,61.7499971733095,8|0,0:0|0:0,0:0:0:0:
266,135,625940,2,0,L|259:196,1,61.7499971733095,8|0,0:0|0:0,0:0:0:0:
147,249,626148,1,2,0:0:0:0:
152,218,626252,1,0,0:0:0:0:
155,187,626356,2,0,L|163:116,1,61.7499971733095,8|0,0:0|0:0,0:0:0:0:
285,230,626565,2,0,L|278:291,1,61.7499971733095,8|0,0:0|0:0,0:0:0:0:
377,182,626773,5,2,0:0:0:0:
331,41,626981,1,0,0:0:0:0:
300,36,627085,1,0,0:0:0:0:
269,33,627189,2,0,L|198:25,1,61.7499971733095,2|0,0:0|0:0,0:0:0:0:
167,103,627398,2,0,L|101:131,1,61.7499971733095,8|0,0:0|0:0,0:0:0:0:
246,199,627606,2,0,L|302:174,1,61.7499971733095,8|0,0:0|0:0,0:0:0:0:
362,110,627815,1,2,0:0:0:0:
207,26,628023,5,8,0:0:0:0:
144,199,628231,1,0,0:0:0:0:
296,80,628440,1,8,0:0:0:0:
99,93,628648,1,0,0:0:0:0:
245,233,628856,1,8,0:0:0:0:
207,26,629065,1,0,0:0:0:0:
36,158,629273,1,8,0:0:0:0:
207,26,629481,1,0,0:0:0:0:
255,256,629690,5,10,0:0:0:0:
105,67,629898,1,0,0:0:0:0:
346,115,630106,1,10,0:0:0:0:
116,223,630315,1,0,0:0:0:0:
286,28,630523,1,10,0:0:0:0:
375,277,630731,1,0,0:0:0:0:
150,122,630940,1,10,0:0:0:0:
422,71,631148,1,0,0:0:0:0:
162,209,631356,5,10,0:0:0:0:
162,209,631565,1,8,0:0:0:0:
450,321,631773,1,10,0:0:0:0:
450,321,631981,1,8,0:0:0:0:
290,14,632190,1,10,0:0:0:0:
290,14,632398,1,8,0:0:0:0:
138,365,632606,1,10,0:0:0:0:
138,365,632815,5,8,0:0:0:0:
154,333,632919,1,0,0:0:0:0:
170,301,633023,1,10,0:0:0:0:
186,269,633127,1,0,0:0:0:0:
202,237,633231,1,8,0:0:0:0:
458,185,633440,1,10,0:0:0:0:
458,185,633648,1,8,0:0:0:0:
178,33,633856,5,10,0:0:0:0:
174,105,633960,5,10,0:0:0:0:
214,169,634065,5,10,0:0:0:0:
282,201,634169,5,10,0:0:0:0:
354,185,634273,5,10,0:0:0:0:
388,171,634377,1,0,0:0:0:0:
424,171,634481,1,0,0:0:0:0:
458,185,634585,1,0,0:0:0:0:
484,211,634690,1,0,0:0:0:0:
256,192,634794,12,0,639690,0:0:0:0:
