osu file format v14

[General]
AudioFilename: audio.ogg
AudioLeadIn: 0
PreviewTime: 53493
Countdown: 0
SampleSet: Soft
StackLeniency: 0.7
Mode: 0
LetterboxInBreaks: 0
WidescreenStoryboard: 1

[Editor]
Bookmarks: 15457,29743,38314,45934,53553,58553,61172,66172,68791,72600,80219,84029,91648,99267,106886,122124,124565,137362,144981,152600
DistanceSpacing: 1.5
BeatDivisor: 4
GridSize: 32
TimelineZoom: 2.1

[Metadata]
Title:Rush
TitleUnicode:Rush
Artist:Troye Sivan
ArtistUnicode:Troye Sivan
Creator:rHO
Version:My High
Source:
Tags:saturnalize fsjallink haruto something to give each other english dance pop house euro garage
BeatmapID:4380244
BeatmapSetID:2046192

[Difficulty]
HPDrainRate:5
CircleSize:5
OverallDifficulty:8.8
ApproachRate:9.2
SliderMultiplier:1.4
SliderTickRate:1

[Events]
//Background and Video events
0,0,"bd282670-8cce-4009-9c65-be03a6c2a1c4.jpg",0,0
Video,0,"output.mp4"
//Break Periods
//Storyboard Layer 0 (Background)
//Storyboard Layer 1 (Fail)
//Storyboard Layer 2 (Pass)
//Storyboard Layer 3 (Foreground)
//Storyboard Layer 4 (Overlay)
//Storyboard Sound Samples

[TimingPoints]
220,476.190476190476,4,2,10,100,1,0
577,-100,4,2,23,100,0,0
934,-100,4,2,12,100,0,0
1410,-100,4,2,10,100,0,0
1529,-100,4,2,11,100,0,0
1886,-100,4,2,12,100,0,0
2362,-100,4,2,10,100,0,0
2481,-100,4,2,11,100,0,0
2839,-100,4,2,12,100,0,0
3315,-100,4,2,10,100,0,0
3434,-100,4,2,11,100,0,0
3791,-100,4,2,12,100,0,0
4267,-100,4,2,10,100,0,0
4386,-100,4,2,11,100,0,0
4743,-100,4,2,12,100,0,0
5219,-100,4,2,10,100,0,0
5339,-100,4,2,11,100,0,0
5696,-100,4,2,12,100,0,0
6172,-100,4,2,10,100,0,0
6291,-100,4,2,11,100,0,0
6648,-100,4,2,12,100,0,0
7124,-100,4,2,10,100,0,0
7243,-100,4,2,11,100,0,0
7600,-100,4,2,12,100,0,0
8077,-100,4,2,10,100,0,0
8196,-100,4,2,23,100,0,0
8553,-100,4,2,12,100,0,0
9029,-100,4,2,10,100,0,0
9148,-100,4,2,11,100,0,0
9505,-100,4,2,12,100,0,0
9981,-100,4,2,10,100,0,0
10100,-100,4,2,11,100,0,0
10457,-100,4,2,12,100,0,0
10934,-100,4,2,10,100,0,0
11053,-100,4,2,11,100,0,0
11410,-100,4,2,12,100,0,0
11886,-100,4,2,10,100,0,0
12005,-100,4,2,11,100,0,0
12362,-100,4,2,12,100,0,0
12839,-100,4,2,10,100,0,0
12958,-100,4,2,11,100,0,0
13315,-100,4,2,12,100,0,0
13791,-100,4,2,10,100,0,0
13910,-100,4,2,11,100,0,0
14267,-100,4,2,12,100,0,0
14505,-100,4,2,10,100,0,0
14624,-100,4,2,11,100,0,0
14862,-66.6666666666667,4,2,11,100,0,0
15219,-66.6666666666667,4,2,15,100,0,0
15458,-100,4,2,15,100,0,0
15815,-100,4,2,11,100,0,0
15934,-100,4,2,13,100,0,0
16648,-100,4,2,14,100,0,0
16767,-100,4,2,11,100,0,0
16886,-100,4,2,13,100,0,0
17124,-66.6666666666667,4,2,13,100,0,0
17362,-100,4,2,13,100,0,0
17719,-100,4,2,11,100,0,0
17839,-100,4,2,13,100,0,0
18553,-100,4,2,14,100,0,0
18672,-100,4,2,11,100,0,0
18791,-100,4,2,13,100,0,0
19029,-66.6666666666667,4,2,13,100,0,0
19267,-100,4,2,13,100,0,0
19624,-100,4,2,11,100,0,0
19743,-100,4,2,13,100,0,0
20458,-100,4,2,14,100,0,0
20577,-100,4,2,11,100,0,0
20696,-100,4,2,13,100,0,0
20934,-66.6666666666667,4,2,13,100,0,0
21172,-100,4,2,13,100,0,0
21529,-100,4,2,11,100,0,0
21648,-100,4,2,13,100,0,0
22362,-100,4,2,14,100,0,0
22481,-100,4,2,11,100,0,0
22600,-100,4,2,13,100,0,0
22839,-66.6666666666667,4,2,13,100,0,0
23077,-133.333333333333,4,2,11,100,0,1
23553,-100,4,2,13,100,0,1
24029,-133.333333333333,4,2,13,100,0,1
24267,-133.333333333333,4,2,14,100,0,1
24505,-133.333333333333,4,2,13,100,0,1
24981,-100,4,2,13,100,0,1
25219,-100,4,2,14,100,0,1
25338,-100,4,2,11,100,0,1
25458,-100,4,2,13,100,0,1
26172,-100,4,2,10,100,0,1
26410,-100,4,2,13,100,0,1
26767,-100,4,2,13,100,0,0
26886,-133.333333333333,4,2,11,100,0,1
27362,-100,4,2,13,100,0,1
28077,-100,4,2,14,100,0,1
28315,-100,4,2,13,100,0,1
29029,-100,4,2,14,100,0,1
29148,-100,4,2,11,100,0,1
29267,-100,4,2,13,100,0,1
29743,-100,4,2,11,100,0,0
29862,-66.6666666666667,4,2,11,100,0,0
30458,-66.6666666666667,4,2,15,100,0,0
30696,-100,4,2,15,100,0,0
31053,-100,4,2,11,100,0,0
31172,-100,4,2,13,100,0,0
31886,-100,4,2,14,100,0,0
32005,-100,4,2,11,100,0,0
32124,-100,4,2,13,100,0,0
32362,-62.5,4,2,13,100,0,0
32600,-100,4,2,13,100,0,0
32838,-100,4,2,10,100,0,0
32958,-100,4,2,11,100,0,0
33077,-100,4,2,13,100,0,0
33791,-100,4,2,14,100,0,0
33910,-100,4,2,11,100,0,0
34029,-100,4,2,13,100,0,0
34267,-62.5,4,2,13,100,0,0
34505,-100,4,2,13,100,0,0
34743,-100,4,2,10,100,0,0
34862,-100,4,2,11,100,0,0
34981,-100,4,2,13,100,0,0
35696,-100,4,2,14,100,0,0
35815,-100,4,2,11,100,0,0
35934,-100,4,2,13,100,0,0
36172,-62.5,4,2,13,100,0,0
36410,-100,4,2,13,100,0,0
36648,-100,4,2,10,100,0,0
36767,-100,4,2,11,100,0,0
36886,-100,4,2,13,100,0,0
37600,-100,4,2,14,100,0,0
37719,-100,4,2,11,100,0,0
37839,-100,4,2,13,100,0,0
38077,-62.5,4,2,13,100,0,0
38315,-125,4,2,11,100,0,1
38791,-83.3333333333333,4,2,13,100,0,1
39505,-83.3333333333333,4,2,14,100,0,1
39624,-83.3333333333333,4,2,11,100,0,1
39743,-100,4,2,13,100,0,1
40458,-100,4,2,14,100,0,1
40577,-100,4,2,11,100,0,1
40696,-100,4,2,13,100,0,1
41529,-100,4,2,11,100,0,1
41648,-100,4,2,13,100,0,1
42005,-100,4,2,13,100,0,0
42124,-100,4,2,11,100,0,1
42600,-100,4,2,13,100,0,1
43315,-100,4,2,14,100,0,1
43434,-100,4,2,11,100,0,1
43553,-100,4,2,13,100,0,1
44267,-100,4,2,10,100,0,1
44386,-100,4,2,11,100,0,1
44505,-100,4,2,13,100,0,1
44981,-100,4,2,11,100,0,1
45100,-62.5,4,2,11,100,0,1
45696,-62.5,4,2,14,100,0,1
45934,-62.5,4,2,10,100,0,0
46648,-133.333333333333,4,2,16,100,0,0
47005,-133.333333333333,4,2,16,5,0,0
47124,-133.333333333333,4,2,16,100,0,0
47600,-133.333333333333,4,2,16,5,0,0
47839,-133.333333333333,4,2,16,100,0,0
48553,-133.333333333333,4,2,16,100,0,0
48910,-133.333333333333,4,2,16,100,0,0
49029,-133.333333333333,4,2,16,100,0,0
49505,-133.333333333333,4,2,16,5,0,0
49743,-133.333333333333,4,2,16,100,0,0
50339,-133.333333333333,4,2,16,5,0,0
50458,-133.333333333333,4,2,16,100,0,0
50815,-133.333333333333,4,2,16,5,0,0
50934,-133.333333333333,4,2,16,100,0,0
51410,-133.333333333333,4,2,16,5,0,0
51648,-133.333333333333,4,2,13,100,0,0
53077,-133.333333333333,4,2,17,100,0,0
53315,-133.333333333333,4,2,18,100,0,0
53553,-100,4,2,15,100,0,1
53910,-100,4,2,11,100,0,1
54029,-66.6666666666667,4,2,19,100,0,1
54148,-66.6666666666667,4,2,10,100,0,1
54267,-66.6666666666667,4,2,15,100,0,1
54505,-66.6666666666667,4,2,17,100,0,1
54743,-66.6666666666667,4,2,10,100,0,1
54862,-66.6666666666667,4,2,18,100,0,1
55100,-66.6666666666667,4,2,13,100,0,1
55219,-66.6666666666667,4,2,17,100,0,1
55458,-66.6666666666667,4,2,15,100,0,1
55696,-66.6666666666667,4,2,20,100,0,1
55815,-66.6666666666667,4,2,11,100,0,1
55934,-66.6666666666667,4,2,19,100,0,1
56053,-66.6666666666667,4,2,10,100,0,1
56172,-66.6666666666667,4,2,15,100,0,1
56410,-66.6666666666667,4,2,17,100,0,1
56767,-66.6666666666667,4,2,18,100,0,1
56886,-55.5555555555556,4,2,19,100,0,1
57243,-55.5555555555556,4,2,12,100,0,1
57362,-100,4,2,15,100,0,1
57719,-100,4,2,11,100,0,1
57839,-62.5,4,2,19,100,0,1
57958,-62.5,4,2,10,100,0,1
58077,-62.5,4,2,15,100,0,1
58315,-62.5,4,2,17,100,0,1
58553,-83.3333333333333,4,2,14,100,0,0
58672,-83.3333333333333,4,2,18,100,0,0
58791,-83.3333333333333,4,2,13,100,0,0
59029,-83.3333333333333,4,2,21,100,0,0
59386,-83.3333333333333,4,2,10,100,0,0
59505,-83.3333333333333,4,2,22,100,0,0
59624,-83.3333333333333,4,2,11,100,0,0
59743,-83.3333333333333,4,2,13,100,0,0
59862,-83.3333333333333,4,2,10,100,0,0
59981,-83.3333333333333,4,2,13,100,0,0
60219,-83.3333333333333,4,2,10,100,0,0
60577,-83.3333333333333,4,2,18,100,0,0
60815,-83.3333333333333,4,2,13,100,0,0
60934,-83.3333333333333,4,2,12,100,0,0
61172,-100,4,2,15,100,0,1
61529,-100,4,2,11,100,0,1
61648,-62.5,4,2,19,100,0,1
61767,-62.5,4,2,10,100,0,1
61886,-62.5,4,2,15,100,0,1
62124,-62.5,4,2,17,100,0,1
62362,-62.5,4,2,10,100,0,1
62481,-62.5,4,2,18,100,0,1
62719,-62.5,4,2,13,100,0,1
62839,-62.5,4,2,17,100,0,1
63077,-62.5,4,2,15,100,0,1
63315,-62.5,4,2,20,100,0,1
63434,-62.5,4,2,11,100,0,1
63553,-62.5,4,2,19,100,0,1
63672,-62.5,4,2,10,100,0,1
63791,-62.5,4,2,15,100,0,1
64029,-76.9230769230769,4,2,17,100,0,1
64386,-76.9230769230769,4,2,18,100,0,1
64505,-50,4,2,19,100,0,1
64862,-50,4,2,12,100,0,1
64981,-100,4,2,15,100,0,1
65338,-100,4,2,11,100,0,1
65458,-58.8235294117647,4,2,19,100,0,1
65577,-58.8235294117647,4,2,10,100,0,1
65696,-58.8235294117647,4,2,15,100,0,1
65934,-58.8235294117647,4,2,17,100,0,1
66172,-76.9230769230769,4,2,14,100,0,1
66291,-76.9230769230769,4,2,18,100,0,1
66410,-66.6666666666667,4,2,13,100,0,1
66648,-55.5555555555556,4,2,21,100,0,1
66767,-55.5555555555556,4,2,21,100,0,0
66886,-55.5555555555556,4,2,10,100,0,1
67124,-55.5555555555556,4,2,22,100,0,1
67243,-55.5555555555556,4,2,11,100,0,0
67362,-55.5555555555556,4,2,13,100,0,1
67719,-55.5555555555556,4,2,13,100,0,0
67839,-55.5555555555556,4,2,23,100,0,1
67958,-55.5555555555556,4,2,11,100,0,1
68077,-55.5555555555556,4,2,10,100,0,1
68196,-55.5555555555556,4,2,23,100,0,1
68315,-55.5555555555556,4,2,15,100,0,1
68553,-55.5555555555556,4,2,12,100,0,1
68672,-55.5555555555556,4,2,12,5,0,0
68791,-66.6666666666667,4,2,15,100,0,1
69148,-66.6666666666667,4,2,11,100,0,1
69267,-66.6666666666667,4,2,19,100,0,1
69624,-66.6666666666667,4,2,12,100,0,1
69743,-66.6666666666667,4,2,17,100,0,1
70100,-66.6666666666667,4,2,18,100,0,1
70219,-41.6666666666667,4,2,19,100,0,1
70576,-41.6666666666667,4,2,12,100,0,1
70696,-66.6666666666667,4,2,15,100,0,1
71053,-66.6666666666667,4,2,11,100,0,1
71172,-66.6666666666667,4,2,19,100,0,1
71529,-66.6666666666667,4,2,15,100,0,1
71648,-66.6666666666667,4,2,17,100,0,1
72005,-66.6666666666667,4,2,18,100,0,1
72124,-41.6666666666667,4,2,19,100,0,1
72481,-41.6666666666667,4,2,12,100,0,1
72600,-41.6666666666667,4,2,15,100,0,1
72839,-100,4,2,10,100,0,1
72958,-100,4,2,11,100,0,1
73077,-100,4,2,13,100,0,1
73196,-100,4,2,12,100,0,1
73791,-100,4,2,14,100,0,1
73910,-66.6666666666667,4,2,18,100,0,1
74148,-66.6666666666667,4,2,13,100,0,1
74267,-100,4,2,21,100,0,1
74624,-100,4,2,10,100,0,1
74743,-66.6666666666667,4,2,22,100,0,1
74862,-66.6666666666667,4,2,11,100,0,1
74981,-66.6666666666667,4,2,13,100,0,1
75100,-66.6666666666667,4,2,10,100,0,1
75219,-66.6666666666667,4,2,13,100,0,1
75458,-83.3333333333333,4,2,10,100,0,1
75815,-100,4,2,18,100,0,1
76053,-100,4,2,19,100,0,1
76172,-58.8235294117647,4,2,12,100,0,1
76410,-76.9230769230769,4,2,15,100,0,1
76767,-76.9230769230769,4,2,11,100,0,1
76886,-76.9230769230769,4,2,19,100,0,1
77243,-76.9230769230769,4,2,12,100,0,1
77362,-76.9230769230769,4,2,17,100,0,1
77719,-76.9230769230769,4,2,18,100,0,1
77839,-41.6666666666667,4,2,19,100,0,1
78196,-41.6666666666667,4,2,12,100,0,1
78315,-66.6666666666667,4,2,15,100,0,1
78672,-66.6666666666667,4,2,11,100,0,1
78791,-66.6666666666667,4,2,19,100,0,1
79148,-66.6666666666667,4,2,15,100,0,1
79267,-66.6666666666667,4,2,17,100,0,1
79624,-66.6666666666667,4,2,18,100,0,1
79743,-41.6666666666667,4,2,19,100,0,1
80100,-41.6666666666667,4,2,12,100,0,1
80219,-100,4,2,15,100,0,1
80458,-62.5,4,2,10,100,0,1
80577,-62.5,4,2,11,100,0,1
80696,-62.5,4,2,13,100,0,1
80815,-62.5,4,2,12,100,0,1
81410,-62.5,4,2,14,100,0,1
81529,-62.5,4,2,18,100,0,1
81648,-76.9230769230769,4,2,13,100,0,1
81886,-100,4,2,21,100,0,0
82243,-100,4,2,10,100,0,0
82362,-66.6666666666667,4,2,22,100,0,0
82481,-66.6666666666667,4,2,11,100,0,0
82600,-66.6666666666667,4,2,13,100,0,0
82719,-66.6666666666667,4,2,10,100,0,0
82839,-83.3333333333333,4,2,13,100,0,0
83077,-83.3333333333333,4,2,10,100,0,0
83434,-83.3333333333333,4,2,18,100,0,0
83553,-83.3333333333333,4,2,13,100,0,0
83791,-83.3333333333333,4,2,12,100,0,0
84029,-83.3333333333333,4,2,13,100,0,1
84148,-83.3333333333333,4,2,13,100,0,0
85696,-83.3333333333333,4,2,24,100,0,0
85934,-83.3333333333333,4,2,14,100,0,0
86291,-83.3333333333333,4,2,11,100,0,0
86410,-83.3333333333333,4,2,13,100,0,0
87124,-83.3333333333333,4,2,14,100,0,0
87243,-83.3333333333333,4,2,11,100,0,0
87362,-66.6666666666667,4,2,13,100,0,0
87600,-55.5555555555556,4,2,13,100,0,0
87839,-100,4,2,13,100,0,0
88196,-100,4,2,11,100,0,0
88315,-100,4,2,19,100,0,0
88374,-100,4,2,19,30,0,0
88553,-100,4,2,12,100,0,0
89029,-76.9230769230769,4,2,14,100,0,0
89148,-76.9230769230769,4,2,11,100,0,0
89267,-62.5,4,2,13,100,0,0
89743,-83.3333333333333,4,2,13,100,0,0
89981,-83.3333333333333,4,2,10,100,0,0
90100,-83.3333333333333,4,2,11,100,0,0
90219,-83.3333333333333,4,2,13,100,0,0
90934,-83.3333333333333,4,2,14,100,0,0
91053,-83.3333333333333,4,2,11,100,0,0
91172,-83.3333333333333,4,2,13,100,0,0
91410,-57.1428571428571,4,2,13,100,0,0
91648,-83.3333333333333,4,2,11,100,0,1
92124,-62.5,4,2,13,100,0,1
92600,-55.5555555555556,4,2,13,100,0,1
92839,-55.5555555555556,4,2,14,100,0,1
92958,-55.5555555555556,4,2,11,100,0,1
93077,-83.3333333333333,4,2,13,100,0,1
93791,-83.3333333333333,4,2,14,100,0,1
93910,-83.3333333333333,4,2,11,100,0,1
94029,-83.3333333333333,4,2,13,100,0,1
94505,-125,4,2,13,100,0,1
94862,-125,4,2,11,100,0,1
94981,-83.3333333333333,4,2,13,100,0,1
95339,-83.3333333333333,4,2,13,100,0,0
95458,-50,4,2,11,100,0,1
95934,-83.3333333333333,4,2,13,100,0,1
96410,-66.6666666666667,4,2,13,100,0,1
96648,-55.5555555555556,4,2,14,100,0,1
96767,-55.5555555555556,4,2,11,100,0,1
96886,-50,4,2,13,100,0,1
97362,-100,4,2,13,100,0,1
97600,-100,4,2,10,100,0,1
97719,-100,4,2,11,100,0,1
97839,-100,4,2,13,100,0,1
98315,-100,4,2,11,100,0,1
98434,-66.6666666666667,4,2,11,100,0,1
98672,-55.5555555555556,4,2,11,100,0,1
99029,-43.4782608695652,4,2,14,100,0,1
99267,-43.4782608695652,4,2,18,100,0,0
99981,-43.4782608695652,4,2,16,100,0,0
100219,-43.4782608695652,4,2,18,100,0,0
100458,-43.4782608695652,4,2,16,100,0,0
100696,-43.4782608695652,4,2,18,100,0,0
101886,-43.4782608695652,4,2,16,100,0,0
102124,-43.4782608695652,4,2,18,100,0,0
102362,-43.4782608695652,4,2,16,100,0,0
102600,-43.4782608695652,4,2,20,100,0,0
102839,-43.4782608695652,4,2,12,100,0,0
103077,-83.3333333333333,4,2,25,100,0,0
104267,-83.3333333333333,4,2,26,100,0,0
104386,-83.3333333333333,4,2,27,100,0,0
104505,-83.3333333333333,4,2,28,100,0,0
104624,-83.3333333333333,4,2,29,100,0,0
104743,-83.3333333333333,4,2,30,100,0,0
104862,-83.3333333333333,4,2,31,100,0,0
104981,-83.3333333333333,4,2,32,100,0,0
105100,-83.3333333333333,4,2,33,100,0,0
105696,-83.3333333333333,4,2,34,100,0,0
105815,-83.3333333333333,4,2,33,100,0,0
106410,-83.3333333333333,4,2,17,100,0,0
106648,-83.3333333333333,4,2,18,100,0,0
106886,-76.9230769230769,4,2,15,100,0,1
107243,-76.9230769230769,4,2,11,100,0,1
107362,-50,4,2,19,100,0,1
107540,-50,4,2,10,100,0,1
107600,-58.8235294117647,4,2,15,100,0,1
107839,-58.8235294117647,4,2,17,100,0,1
108077,-58.8235294117647,4,2,10,100,0,1
108196,-58.8235294117647,4,2,18,100,0,1
108434,-58.8235294117647,4,2,13,100,0,1
108553,-58.8235294117647,4,2,17,100,0,1
108791,-58.8235294117647,4,2,15,100,0,1
109029,-58.8235294117647,4,2,20,100,0,1
109148,-58.8235294117647,4,2,11,100,0,1
109267,-58.8235294117647,4,2,19,100,0,1
109445,-58.8235294117647,4,2,10,100,0,1
109505,-58.8235294117647,4,2,15,100,0,1
109743,-76.9230769230769,4,2,17,100,0,1
110100,-76.9230769230769,4,2,18,100,0,1
110219,-50,4,2,19,100,0,1
110576,-50,4,2,12,100,0,1
110696,-76.9230769230769,4,2,15,100,0,1
111053,-76.9230769230769,4,2,11,100,0,1
111172,-58.8235294117647,4,2,19,100,0,1
111350,-58.8235294117647,4,2,10,100,0,1
111410,-58.8235294117647,4,2,15,100,0,1
111648,-58.8235294117647,4,2,17,100,0,1
111886,-76.9230769230769,4,2,14,100,0,1
112064,-76.9230769230769,4,2,18,100,0,1
112124,-76.9230769230769,4,2,13,100,0,1
112362,-100,4,2,21,100,0,0
112719,-100,4,2,10,100,0,0
112839,-58.8235294117647,4,2,22,100,0,0
112958,-58.8235294117647,4,2,11,100,0,0
113077,-58.8235294117647,4,2,13,100,0,0
113196,-71.4285714285714,4,2,10,100,0,0
113434,-71.4285714285714,4,2,13,100,0,0
113553,-71.4285714285714,4,2,10,100,0,0
113910,-71.4285714285714,4,2,18,100,0,0
114029,-71.4285714285714,4,2,13,100,0,0
114267,-58.8235294117647,4,2,12,100,0,0
114505,-76.9230769230769,4,2,15,100,0,1
114862,-76.9230769230769,4,2,11,100,0,1
114981,-50,4,2,19,100,0,1
115159,-50,4,2,10,100,0,1
115219,-58.8235294117647,4,2,15,100,0,1
115458,-58.8235294117647,4,2,17,100,0,1
115696,-58.8235294117647,4,2,10,100,0,1
115815,-58.8235294117647,4,2,18,100,0,1
116053,-58.8235294117647,4,2,13,100,0,1
116172,-58.8235294117647,4,2,17,100,0,1
116410,-55.5555555555556,4,2,15,100,0,1
116648,-55.5555555555556,4,2,20,100,0,1
116767,-55.5555555555556,4,2,11,100,0,1
116886,-50,4,2,19,100,0,1
117064,-50,4,2,10,100,0,1
117124,-55.5555555555556,4,2,15,100,0,1
117362,-71.4285714285714,4,2,17,100,0,1
117719,-71.4285714285714,4,2,18,100,0,1
117839,-45.4545454545455,4,2,19,100,0,1
118196,-45.4545454545455,4,2,12,100,0,1
118315,-71.4285714285714,4,2,15,100,0,1
118672,-71.4285714285714,4,2,11,100,0,1
118791,-50,4,2,19,100,0,1
118969,-50,4,2,10,100,0,1
119029,-58.8235294117647,4,2,15,100,0,1
119267,-58.8235294117647,4,2,17,100,0,1
119505,-58.8235294117647,4,2,14,100,0,1
119624,-58.8235294117647,4,2,18,100,0,1
119743,-58.8235294117647,4,2,13,100,0,1
119981,-50,4,2,21,100,0,1
120100,-50,4,2,21,100,0,0
120219,-50,4,2,10,100,0,1
120458,-50,4,2,22,100,0,1
120577,-50,4,2,11,100,0,0
120696,-50,4,2,13,100,0,1
120815,-50,4,2,10,100,0,1
120934,-50,4,2,13,100,0,1
121053,-50,4,2,13,100,0,0
121172,-50,4,2,10,100,0,1
121529,-50,4,2,18,100,0,1
121589,-50,4,2,18,100,0,0
121648,-50,4,2,19,100,0,1
121708,-50,4,2,19,100,0,0
121767,-50,4,2,19,100,0,1
121827,-50,4,2,19,100,0,0
121886,-40,4,2,10,100,0,1
122005,-40,4,2,10,100,0,0
122124,-66.6666666666667,4,2,15,100,0,1
122362,-66.6666666666667,4,2,10,100,0,1
122481,-66.6666666666667,4,2,11,100,0,1
122600,-66.6666666666667,4,2,19,100,0,1
122957,-66.6666666666667,4,2,12,100,0,1
123077,-66.6666666666667,4,2,17,100,0,1
123434,-66.6666666666667,4,2,18,100,0,1
123493,-66.6666666666667,4,2,18,100,0,0
123553,-45.4545454545455,4,2,19,100,0,1
123910,-45.4545454545455,4,2,11,100,0,1
124029,-45.4545454545455,4,2,15,100,0,1
124267,-45.4545454545455,4,2,10,100,0,1
124386,-45.4545454545455,4,2,11,100,0,1
124505,-66.6666666666667,4,2,19,100,0,1
124862,-66.6666666666667,4,2,15,100,0,1
124981,-66.6666666666667,4,2,17,100,0,1
125338,-66.6666666666667,4,2,18,100,0,1
125458,-66.6666666666667,4,2,19,100,0,1
125696,-66.6666666666667,4,2,12,100,0,1
125934,-66.6666666666667,4,2,15,100,0,1
126172,-76.9230769230769,4,2,10,100,0,1
126410,-76.9230769230769,4,2,13,100,0,1
126529,-76.9230769230769,4,2,12,100,0,1
127124,-76.9230769230769,4,2,14,100,0,1
127243,-76.9230769230769,4,2,18,100,0,1
127481,-76.9230769230769,4,2,13,100,0,1
127600,-76.9230769230769,4,2,21,100,0,1
127839,-100,4,2,10,100,0,0
128077,-100,4,2,22,100,0,0
128196,-100,4,2,11,100,0,0
128315,-100,4,2,13,100,0,0
128434,-100,4,2,10,100,0,0
128553,-80,4,2,13,100,0,0
128791,-100,4,2,10,100,0,0
129148,-100,4,2,18,100,0,0
129386,-100,4,2,19,100,0,0
129505,-66.6666666666667,4,2,12,100,0,0
129743,-66.6666666666667,4,2,15,100,0,1
130100,-66.6666666666667,4,2,11,100,0,1
130219,-66.6666666666667,4,2,19,100,0,1
130457,-66.6666666666667,4,2,12,100,0,1
130696,-66.6666666666667,4,2,17,100,0,1
131053,-66.6666666666667,4,2,18,100,0,1
131172,-50,4,2,19,100,0,1
131529,-50,4,2,12,100,0,1
131648,-66.6666666666667,4,2,15,100,0,1
131886,-66.6666666666667,4,2,10,100,0,1
132005,-66.6666666666667,4,2,11,100,0,1
132124,-66.6666666666667,4,2,19,100,0,1
132481,-66.6666666666667,4,2,15,100,0,1
132600,-66.6666666666667,4,2,17,100,0,1
132957,-66.6666666666667,4,2,18,100,0,1
133077,-41.6666666666667,4,2,19,100,0,1
133315,-41.6666666666667,4,2,12,100,0,1
133434,-41.6666666666667,4,2,15,100,0,1
133553,-66.6666666666667,4,2,15,100,0,1
133791,-66.6666666666667,4,2,10,100,0,1
134029,-66.6666666666667,4,2,13,100,0,1
134148,-66.6666666666667,4,2,12,100,0,1
134743,-66.6666666666667,4,2,14,100,0,1
134862,-66.6666666666667,4,2,18,100,0,1
134981,-55.5555555555556,4,2,13,100,0,1
135219,-55.5555555555556,4,2,21,100,0,1
135458,-71.4285714285714,4,2,10,100,0,0
135696,-71.4285714285714,4,2,22,100,0,0
135815,-71.4285714285714,4,2,11,100,0,0
135934,-50,4,2,13,100,0,0
136053,-50,4,2,10,100,0,0
136172,-71.4285714285714,4,2,13,100,0,0
136410,-71.4285714285714,4,2,10,100,0,0
136767,-71.4285714285714,4,2,18,100,0,0
136886,-71.4285714285714,4,2,35,100,0,0
137362,-71.4285714285714,4,2,10,100,0,1
137481,-71.4285714285714,4,2,10,100,0,0
137719,-71.4285714285714,4,2,11,100,0,0
137839,-133.333333333333,4,2,13,100,0,0
138553,-133.333333333333,4,2,10,100,0,0
138672,-133.333333333333,4,2,11,100,0,0
138791,-133.333333333333,4,2,13,100,0,0
139505,-133.333333333333,4,2,10,100,0,0
139624,-133.333333333333,4,2,11,100,0,0
139743,-133.333333333333,4,2,13,100,0,0
140458,-133.333333333333,4,2,10,100,0,0
140577,-133.333333333333,4,2,11,100,0,0
140696,-133.333333333333,4,2,13,100,0,0
140934,-133.333333333333,4,2,16,100,0,0
141172,-133.333333333333,4,2,10,100,0,0
141529,-133.333333333333,4,2,11,100,0,0
141648,-133.333333333333,4,2,13,100,0,0
142362,-133.333333333333,4,2,14,100,0,0
142481,-133.333333333333,4,2,11,100,0,0
142600,-100,4,2,13,100,0,0
143315,-100,4,2,14,100,0,0
143434,-100,4,2,11,100,0,0
143553,-100,4,2,13,100,0,0
144267,-100,4,2,10,100,0,0
144386,-100,4,2,11,100,0,0
144505,-133.333333333333,4,2,35,100,0,0
144624,-133.333333333333,4,2,33,100,0,0
144743,-133.333333333333,4,2,30,100,0,0
144862,-133.333333333333,4,2,27,100,0,0
144981,-117.647058823529,4,2,27,100,0,1
145219,-117.647058823529,4,2,31,100,0,1
145339,-117.647058823529,4,2,27,100,0,1
145458,-117.647058823529,4,2,13,100,0,1
145696,-117.647058823529,4,2,33,100,0,1
145934,-117.647058823529,4,2,31,100,0,1
146291,-117.647058823529,4,2,11,100,0,1
146410,-117.647058823529,4,2,35,100,0,1
146529,-117.647058823529,4,2,30,100,0,1
146648,-117.647058823529,4,2,33,100,0,1
146886,-117.647058823529,4,2,31,100,0,1
147243,-117.647058823529,4,2,27,100,0,1
147362,-117.647058823529,4,2,31,100,0,1
147600,-117.647058823529,4,2,12,100,0,1
147719,-117.647058823529,4,2,27,100,0,1
148017,-117.647058823529,4,2,31,100,0,1
148196,-117.647058823529,4,2,18,100,0,1
148315,-117.647058823529,4,2,31,100,0,1
148553,-117.647058823529,4,2,36,100,0,1
148791,-117.647058823529,4,2,27,100,0,1
149029,-117.647058823529,4,2,37,100,0,1
149148,-117.647058823529,4,2,11,100,0,1
149267,-117.647058823529,4,2,38,100,0,1
149981,-117.647058823529,4,2,39,100,0,1
150100,-117.647058823529,4,2,11,100,0,1
150219,-117.647058823529,4,2,13,100,0,1
150696,-117.647058823529,4,2,13,100,0,0
150934,-117.647058823529,4,2,13,90,0,0
151172,-117.647058823529,4,2,13,80,0,0
151410,-117.647058823529,4,2,13,70,0,0
151648,-117.647058823529,4,2,13,60,0,0
151886,-117.647058823529,4,2,13,50,0,0
152124,-117.647058823529,4,2,16,5,0,0

[Colours]
Combo1 : 255,55,55
Combo2 : 255,231,55

[HitObjects]
26,325,220,6,0,L|35:358,3,35,2|0|0|0,1:2|2:0|3:0|3:0,2:0:0:0:
52,285,696,1,2,1:2:0:0:
58,271,815,1,0,2:0:0:0:
58,257,934,1,2,3:2:0:0:
64,243,1053,1,0,2:0:0:0:
89,178,1172,5,2,1:2:0:0:
97,171,1291,1,0,2:0:0:0:
108,174,1410,1,0,3:0:0:0:
117,173,1529,1,0,3:0:0:0:
135,187,1648,2,0,L|171:170,3,35,0|0|0|0,1:0|2:0|3:0|2:0,2:0:0:0:
230,223,2124,6,0,L|221:256,3,35,0|0|0|0,1:0|2:0|3:0|3:0,2:0:0:0:
188,286,2600,1,0,1:0:0:0:
197,299,2719,1,0,2:0:0:0:
200,313,2839,1,0,3:0:0:0:
209,327,2958,1,0,2:0:0:0:
259,376,3077,5,0,1:0:0:0:
263,366,3196,1,0,2:0:0:0:
278,370,3315,1,0,3:0:0:0:
300,353,3434,1,0,3:0:0:0:
316,342,3553,2,0,L|322:298,3,35,0|0|0|0,1:0|2:0|3:0|2:0,2:0:0:0:
392,295,4029,6,0,L|381:261,3,35,0|0|0|0,1:0|2:0|3:0|3:0,2:0:0:0:
368,242,4505,1,0,1:0:0:0:
378,228,4624,1,0,2:0:0:0:
369,215,4743,1,0,3:0:0:0:
375,197,4862,1,0,2:0:0:0:
440,167,4981,5,0,1:0:0:0:
453,155,5100,1,0,2:0:0:0:
442,141,5219,1,0,3:0:0:0:
449,124,5339,1,0,3:0:0:0:
484,111,5458,2,0,L|453:76,3,35,0|0|0|0,1:0|2:0|3:0|2:0,2:0:0:0:
417,28,5934,6,0,L|390:51,3,35,0|0|0|0,1:0|2:0|3:0|3:0,2:0:0:0:
368,74,6410,1,0,1:0:0:0:
353,60,6529,1,0,2:0:0:0:
336,72,6648,1,0,3:0:0:0:
318,69,6767,1,0,2:0:0:0:
248,50,6886,5,0,1:0:0:0:
236,67,7005,1,0,2:0:0:0:
243,86,7124,1,0,3:0:0:0:
236,106,7243,1,0,3:0:0:0:
250,121,7362,2,0,L|262:179,1,35,0|0,1:0|2:0,2:0:0:0:
284,191,7600,2,0,L|271:241,1,35,2|0,3:2|2:0,2:0:0:0:
202,312,7839,5,2,1:2:0:0:
178,317,7958,1,0,2:0:0:0:
163,297,8077,1,2,3:2:0:0:
138,292,8196,1,0,3:0:0:0:
135,267,8315,2,0,L|124:227,1,35,2|0,1:2|2:0,2:0:0:0:
63,206,8553,2,0,L|69:163,1,35,2|0,3:2|2:0,2:0:0:0:
65,87,8791,5,2,1:2:0:0:
80,64,8910,1,0,2:0:0:0:
107,70,9029,1,0,3:0:0:0:
129,53,9148,1,0,3:0:0:0:
171,58,9267,2,0,L|159:20,3,35,0|0|0|0,1:0|2:0|3:0|2:0,2:0:0:0:
222,105,9743,5,0,1:0:0:0:
234,129,9862,1,0,2:0:0:0:
219,153,9981,1,0,3:0:0:0:
228,179,10100,1,0,3:0:0:0:
197,219,10219,2,0,L|186:259,3,35,0|0|0|0,1:0|2:0|3:0|2:0,2:0:0:0:
101,293,10696,5,0,1:0:0:0:
73,298,10815,1,0,2:0:0:0:
55,276,10934,1,0,3:0:0:0:
31,260,11053,1,0,3:0:0:0:
53,221,11172,2,0,L|61:177,3,35,0|0|0|0,1:0|2:0|3:0|2:0,2:0:0:0:
137,154,11648,5,0,1:0:0:0:
164,139,11767,1,0,2:0:0:0:
177,110,11886,1,0,3:0:0:0:
169,81,12005,1,0,3:0:0:0:
128,45,12124,2,0,L|104:-7,3,35,0|0|0|0,1:0|2:0|3:0|2:0,2:0:0:0:
55,90,12600,5,0,1:0:0:0:
41,118,12719,1,0,2:0:0:0:
56,145,12839,1,0,3:0:0:0:
59,176,12958,1,0,3:0:0:0:
91,201,13077,2,0,L|84:242,3,35,0|0|0|0,1:0|2:0|3:0|2:0,2:0:0:0:
156,268,13553,5,0,1:0:0:0:
187,265,13672,1,0,2:0:0:0:
206,289,13791,1,0,3:0:0:0:
233,297,13910,1,0,3:0:0:0:
277,258,14029,2,0,L|286:215,3,35,0|0|0|0,1:0|2:0|3:0|2:0,2:0:0:0:
421,332,14505,5,8,1:2:0:0:
510,286,14624,2,0,P|490:289|473:298,1,35,8|0,2:0|2:0,2:0:0:0:
354,363,14862,2,0,P|308:355|245:315,1,105,8|0,2:0|2:0,2:0:0:0:
324,237,15219,2,0,P|280:255|268:264,1,52.5,8|0,1:2|2:0,2:0:0:0:
46,349,15458,6,0,P|22:299|22:236,1,105,4|0,1:2|3:0,2:0:0:0:
0,186,15934,2,0,L|11:136,1,35,8|0,1:2|2:0,2:0:0:0:
153,282,16172,2,0,P|146:325|133:355,1,70,2|0,3:2|1:0,2:0:0:0:
136,349,16648,6,0,P|165:344|181:329,1,35,2|0,3:2|3:0,2:0:0:0:
106,233,16886,2,0,P|84:275|87:291,1,35,10|0,1:2|2:0,2:0:0:0:
235,328,17124,2,0,P|280:337|314:362,1,52.5,2|0,3:2|2:0,2:0:0:0:
352,357,17362,6,0,P|366:318|368:240,1,105,2|2,1:2|3:2,2:0:0:0:
310,223,17839,1,8,1:2:0:0:
455,62,18077,2,0,P|461:111|484:157,1,70,2|0,3:2|1:0,2:0:0:0:
468,130,18553,6,0,P|430:147|406:145,1,35,2|0,3:2|3:0,2:0:0:0:
314,32,18791,2,0,P|350:44|372:57,1,35,10|0,1:2|2:0,2:0:0:0:
388,193,19029,2,0,P|378:226|377:259,1,52.5,2|0,3:2|2:0,2:0:0:0:
308,290,19267,6,0,P|265:235|276:189,1,105,2|0,1:2|3:0,2:0:0:0:
209,165,19743,2,0,P|203:181|199:198,1,35,8|0,1:2|2:0,2:0:0:0:
136,325,19981,2,0,P|85:336|51:358,1,70,2|0,3:2|1:0,2:0:0:0:
69,344,20458,6,0,P|62:319|66:287,1,35,2|0,3:2|3:0,2:0:0:0:
196,283,20696,2,0,P|206:312|208:332,1,35,10|0,1:2|2:0,2:0:0:0:
3,267,20934,2,0,P|22:212|38:194,1,52.5,2|0,3:2|2:0,2:0:0:0:
69,166,21172,6,0,P|81:115|76:59,1,105,2|2,1:2|3:2,2:0:0:0:
22,28,21648,1,8,1:2:0:0:
127,218,21886,2,0,B|107:255|113:333,1,105,2|0,3:2|2:0,2:0:0:0:
119,333,22362,2,0,P|141:330|156:323,1,35,2|0,3:2|3:0,2:0:0:0:
234,271,22600,2,0,P|205:268|177:272,1,35,10|0,1:2|2:0,2:0:0:0:
9,376,22839,2,0,P|52:370|92:334,1,52.5,2|0,3:2|2:0,2:0:0:0:
364,293,23077,6,0,P|381:239|376:198,1,78.7500000000002,6|0,1:2|3:0,2:0:0:0:
205,234,23553,6,0,P|198:256|200:273,1,35,10|0,1:2|2:0,2:0:0:0:
431,175,23791,2,0,P|426:151|395:122,1,35,2|0,3:2|2:0,2:0:0:0:
131,279,24029,2,0,P|139:311|159:340,1,52.5000000000001,2|2,1:2|3:2,2:0:0:0:
373,87,24505,6,0,P|325:72|287:73,1,78.7500000000002,10|0,1:2|2:0,2:0:0:0:
248,115,24981,6,0,P|231:120|216:128,1,35,2|0,1:2|2:0,2:0:0:0:
275,254,25219,2,0,P|290:246|304:235,1,35,2|0,3:2|3:0,2:0:0:0:
158,105,25458,2,0,P|146:140|150:177,1,70,10|2,1:2|3:2,2:0:0:0:
366,259,25934,2,0,P|379:222|380:192,1,70,2|0,1:2|3:0,2:0:0:0:
92,216,26410,2,0,P|99:252|121:282,1,70,10|0,1:2|3:0,2:0:0:0:
431,146,26886,6,0,P|421:107|399:75,1,78.7500000000002,6|0,1:2|3:0,2:0:0:0:
371,228,27362,6,0,P|380:242|392:255,1,35,10|0,1:2|2:0,2:0:0:0:
464,7,27600,2,0,P|446:11|430:18,1,35,2|0,3:2|2:0,2:0:0:0:
385,320,27839,2,0,P|423:316|456:294,1,70,2|2,1:2|3:2,2:0:0:0:
400,114,28315,2,0,P|361:117|328:139,1,70,10|0,1:2|3:0,2:0:0:0:
502,335,28791,2,0,P|512:306|513:287,1,35,2|0,1:2|2:0,2:0:0:0:
361,192,29029,2,0,P|351:227|353:250,1,35,2|0,3:2|3:0,2:0:0:0:
485,247,29267,2,0,P|479:219|467:202,1,35,10|0,1:2|2:0,2:0:0:0:
304,279,29505,2,0,P|309:306|321:323,1,35,2|0,3:2|2:0,2:0:0:0:
361,359,29743,5,8,1:2:0:0:
239,305,29862,2,0,P|215:292|186:292,1,52.5,8|0,2:0|2:0,2:0:0:0:
94,376,30100,2,0,P|153:376|203:351,1,105,8|0,2:0|2:0,2:0:0:0:
165,199,30458,2,0,P|140:236|143:261,1,52.5,10|0,1:2|2:0,2:0:0:0:
373,353,30696,6,0,L|489:374,1,105,6|0,1:2|3:0,2:1:0:0:
506,313,31172,2,0,P|498:294|496:260,1,35,8|0,1:2|2:0,2:0:0:0:
306,295,31410,2,0,P|307:336|295:373,1,70,2|0,3:2|1:0,2:0:0:0:
299,363,31886,6,0,P|264:350|253:343,1,35,2|0,3:2|3:0,2:0:0:0:
356,220,32124,2,0,P|366:253|366:275,1,35,10|0,1:2|2:0,2:0:0:0:
195,350,32362,2,0,P|159:351|122:379,1,56,2|0,3:2|2:0,2:0:0:0:
79,341,32600,6,0,P|64:307|63:261,1,70,2|0,1:2|3:0,2:0:0:0:
134,190,32958,1,2,3:2:0:0:
128,209,33077,2,0,L|85:221,1,35,8|0,1:2|2:0,2:0:0:0:
247,195,33315,2,0,P|250:241|230:304,1,105,2|0,3:2|2:0,2:0:0:0:
225,307,33791,2,0,P|204:271|204:258,1,35,2|0,3:2|3:0,2:0:0:0:
366,289,34029,2,0,P|354:301|339:310,1,35,10|0,1:2|2:0,2:0:0:0:
149,241,34267,2,0,P|156:190|137:146,1,56,2|0,3:2|2:0,2:0:0:0:
89,172,34505,6,0,P|80:214|86:265,1,70,2|0,1:2|3:0,2:0:0:0:
117,312,34862,1,0,3:0:0:0:
107,299,34981,1,8,1:2:0:0:
29,141,35219,2,0,P|79:137|130:112,1,105,2|0,3:2|2:0,2:0:0:0:
110,52,35696,2,0,L|65:45,1,35,2|0,3:2|3:0,2:0:0:0:
167,194,35934,2,0,P|174:179|177:161,1,35,10|0,1:2|2:0,2:0:0:0:
283,41,36172,2,0,P|292:87|328:108,1,56,2|0,3:2|2:0,2:0:0:0:
349,138,36410,6,0,P|346:177|337:212,1,70,2|0,1:2|3:0,2:0:0:0:
251,238,36767,1,2,3:2:0:0:
266,256,36886,2,0,L|276:210,1,35,8|0,1:2|2:0,2:0:0:0:
432,158,37124,2,0,P|416:89|419:36,1,105,2|0,3:2|2:0,2:0:0:0:
412,45,37600,2,0,P|406:70|394:90,1,35,2|0,3:2|3:0,2:0:0:0:
299,50,37839,2,0,P|297:32|300:15,1,35,10|0,1:2|2:0,2:0:0:0:
512,202,38077,2,0,P|461:219|424:220,1,56,2|0,3:2|2:0,2:0:0:0:
183,265,38315,6,0,P|146:263|102:281,1,84,6|0,1:2|3:0,2:0:0:0:
146,381,38791,2,0,P|173:379|208:366,1,42,10|0,1:2|2:0,2:0:0:0:
46,227,39029,2,0,P|33:252|26:288,1,42,2|0,3:2|2:0,2:0:0:0:
227,217,39267,2,0,P|211:193|183:169,1,42,2|0,1:2|2:0,2:0:0:0:
143,225,39505,2,0,P|158:248|186:272,1,42,2|0,3:2|3:0,2:0:0:0:
317,280,39743,2,0,P|334:240|342:163,1,105,10|0,1:2|2:0,2:0:0:0:
365,84,40219,6,0,P|350:121|353:143,1,35,2|0,1:2|2:0,2:0:0:0:
486,175,40458,2,0,P|500:137|497:115,1,35,2|0,3:2|3:0,2:0:0:0:
317,281,40696,2,0,P|324:313|335:342,1,35,10|0,1:2|2:0,2:0:0:0:
460,295,40934,2,0,P|452:262|441:233,1,35,2|0,3:2|2:0,2:0:0:0:
210,205,41172,2,0,P|191:237|191:314,1,105,2|0,1:2|3:0,2:0:0:0:
249,365,41648,2,0,P|268:333|268:256,1,105,10|0,1:2|2:0,2:0:0:0:
5,275,42124,6,0,P|15:323|50:369,1,105,6|0,1:2|3:0,2:0:0:0:
193,295,42600,2,0,P|187:271|175:255,1,35,10|0,1:2|2:0,2:0:0:0:
106,330,42839,2,0,P|118:360|132:379,1,35,2|0,3:2|2:0,2:0:0:0:
187,202,43077,2,0,P|156:193|133:198,1,35,2|0,1:2|2:0,2:0:0:0:
236,371,43315,2,0,P|267:379|289:374,1,35,2|0,3:2|3:0,2:0:0:0:
386,310,43553,6,0,P|390:274|375:205,1,105,10|0,1:2|2:0,2:0:0:0:
319,176,44029,1,0,1:0:0:0:
311,157,44148,1,0,2:0:0:0:
303,140,44267,2,0,L|349:130,1,35,0|0,3:0|3:0,2:0:0:0:
407,70,44505,2,0,L|360:60,1,35,8|0,1:2|2:0,2:0:0:0:
314,35,44743,1,0,3:0:0:0:
314,35,44981,5,8,1:2:0:0:
263,85,45100,2,0,P|239:94|208:97,1,56,8|2,2:0|2:0,2:0:0:0:
42,24,45339,2,0,B|93:21|156:59,1,112,8|0,2:0|2:0,2:0:0:0:
12,103,45696,2,0,P|66:92|93:76,1,56,10|0,1:2|2:0,2:0:0:0:
414,61,45934,5,4,2:0:0:0:
409,138,46648,6,0,B|448:126|441:115|483:101,1,78.7500000000002,2|0,2:0|2:0,2:0:0:0:
501,168,47124,2,0,L|484:280,1,105,2|0,2:0|2:0,2:0:0:0:
357,96,47839,5,0,2:0:0:0:
310,148,48553,6,0,P|277:172|237:166,1,78.7500000000002,2|0,2:0|2:0,2:0:0:0:
185,139,49029,2,0,L|166:19,1,105,2|0,2:0|2:0,2:0:0:0:
362,186,49743,5,0,2:0:0:0:
419,230,50219,6,0,B|413:259,1,26.2500000000001,2|0,2:0|2:0,2:0:0:0:
360,286,50458,2,0,P|318:266|270:271,1,78.7500000000002,2|0,2:0|2:0,2:0:0:0:
217,247,50934,2,0,L|237:357,1,105,2|0,2:0|2:0,2:0:0:0:
244,153,51648,5,4,2:0:0:0:
256,192,51767,12,0,52600,2:0:0:0:
312,109,53077,5,8,2:0:0:0:
352,123,53196,1,8,2:0:0:0:
368,82,53315,1,8,2:0:0:0:
324,67,53434,1,8,2:0:0:0:
150,192,53553,6,2,B|163:238|163:238|182:252|182:252|192:295,1,105,6|0,1:2|3:0,2:1:0:0:
80,171,54029,6,0,L|90:117,1,52.5,10|2,1:2|2:0,2:0:0:0:
115,286,54267,2,0,L|102:358,1,52.5,2|0,3:2|2:0,2:0:0:0:
225,203,54505,1,2,1:2:0:0:
211,126,54624,1,0,2:0:0:0:
222,193,54743,5,0,3:0:0:0:
208,116,54862,2,0,B|217:72|217:72|225:71|225:71|237:15,1,105,2|0,3:2|2:0,2:0:0:0:
289,125,55219,2,0,L|301:200,1,52.5,2|0,3:2|2:0,2:0:0:0:
349,270,55458,6,0,B|328:293|328:293|306:291,1,52.5,2|0,1:2|2:0,2:0:0:0:
167,323,55696,2,0,B|136:316|136:316|126:297,1,52.5,2|0,3:2|3:0,2:0:0:0:
275,349,55934,2,0,B|244:342|244:342|234:323,1,52.5,10|2,1:2|2:0,2:0:0:0:
138,217,56172,2,0,B|128:187|128:187|140:169,1,52.5,2|0,3:2|2:0,2:0:0:0:
358,280,56410,6,0,B|428:293|428:293|441:288|441:288|513:301,1,157.5,2|2,1:2|3:2,2:0:0:0:
512,231,56886,6,2,L|316:199,1,189,10|0,1:2|2:0,2:1:0:0:
69,181,57362,6,2,B|83:130|83:130|72:112|72:112|85:61,1,105,2|0,1:2|3:0,2:1:0:0:
136,27,57839,6,0,L|150:81,1,56,10|2,1:2|2:0,2:0:0:0:
13,220,58077,2,0,L|-1:157,1,56,2|0,3:2|2:0,2:0:0:0:
218,138,58315,5,2,1:2:0:0:
229,212,58434,1,0,2:0:0:0:
229,127,58553,6,0,P|269:131|296:148,1,42,2|2,3:2|3:2,2:0:0:0:
223,217,58791,2,0,P|202:217|181:212,1,42,10|0,1:2|2:0,2:0:0:0:
355,131,59029,6,0,P|340:88|343:7,1,126,2|0,3:2|2:0,2:0:0:0:
440,54,59505,6,0,P|435:88|421:108,1,42,2|0,3:2|3:0,2:0:0:0:
256,57,59743,2,0,P|256:30|265:12,1,42,10|2,1:2|2:0,2:0:0:0:
375,190,59981,2,0,P|381:210|384:231,1,42,2|0,3:2|2:0,2:0:0:0:
340,364,60219,5,2,1:2:0:0:
351,290,60339,1,0,2:0:0:0:
351,374,60458,5,0,3:0:0:0:
366,307,60577,2,0,P|398:293|474:294,1,84,2|0,3:2|2:0,2:0:0:0:
286,332,60934,2,0,P|261:341|219:341,1,42,2|0,3:2|2:0,2:0:0:0:
501,254,61172,6,2,B|493:221|493:221|474:207|474:207|461:161,1,105,2|0,1:2|3:0,2:1:0:0:
423,59,61648,6,0,L|416:115,1,56,10|2,1:2|2:0,2:0:0:0:
425,318,61886,2,0,L|433:263,1,56,2|0,3:2|2:0,2:0:0:0:
352,145,62124,5,2,1:2:0:0:
275,159,62243,1,0,2:0:0:0:
336,150,62362,5,0,3:0:0:0:
259,164,62481,2,0,B|212:154|212:154|211:146|211:146|152:133,1,112,2|0,3:2|2:0,2:0:0:0:
307,219,62839,2,0,L|376:232,1,56,2|0,3:2|2:0,2:0:0:0:
101,308,63077,6,0,B|130:308|130:308|148:288,1,56,2|0,1:2|2:0,2:0:0:0:
58,201,63315,2,0,B|72:226|72:226|98:232,1,56,2|0,3:2|3:0,2:0:0:0:
156,133,63553,6,0,B|185:130|185:130|203:149,1,56,10|2,1:2|2:0,2:0:0:0:
167,357,63791,2,0,B|195:351|195:351|210:329,1,56,2|0,3:2|2:0,2:0:0:0:
356,159,64029,6,0,B|364:97|364:97|373:82|373:82|385:2,1,136.5,2|2,1:2|3:2,2:0:0:0:
503,146,64505,6,2,B|416:165|416:165|397:188|397:188|296:210,1,210,10|0,1:2|2:0,2:1:0:0:
101,183,64981,6,2,B|87:131|87:131|69:121|69:121|54:71,1,105,2|0,1:2|3:0,2:1:0:0:
137,15,65458,6,0,L|126:74,1,59.5,10|2,1:2|2:0,2:0:0:0:
19,239,65696,2,0,L|30:180,1,59.5,2|0,3:2|2:0,2:0:0:0:
235,172,65934,1,2,1:2:0:0:
302,157,66053,1,0,2:0:0:0:
214,108,66172,2,0,P|218:68|235:22,1,45.5,2|2,3:2|3:2,2:0:0:0:
365,188,66410,2,0,P|361:228|344:274,1,52.5,10|0,1:2|2:0,2:0:0:0:
150,199,66648,2,0,P|154:132|166:94,1,62.9999999999999,2|0,3:2|2:0,2:0:0:0:
413,137,66886,5,4,1:2:0:0:
465,25,67124,6,0,P|472:78|466:111,1,62.9999999999999,2|0,3:2|3:0,2:0:0:0:
291,208,67362,5,14,1:2:0:0:
398,349,67600,6,0,P|407:296|403:263,1,62.9999999999999,2|0,3:2|2:0,2:0:0:0:
224,166,67839,1,14,1:2:0:0:
200,94,67958,1,8,2:0:0:0:
158,193,68077,1,0,3:0:0:0:
134,121,68196,2,0,P|121:84|120:16,1,62.9999999999999,10|6,3:2|1:2,2:0:0:0:
303,181,68434,1,0,2:0:0:0:
279,261,68553,2,0,P|266:298|265:366,1,62.9999999999999,10|0,1:2|2:0,2:0:0:0:
309,192,68791,6,2,P|359:206|485:209,1,157.5,6|0,1:2|3:0,2:1:0:0:
290,265,69267,2,2,P|220:245|115:245,1,157.5,10|0,1:2|2:0,2:1:0:0:
315,340,69743,2,0,P|393:362|475:365,1,157.5,2|2,1:2|3:2,2:0:0:0:
40,340,70219,6,2,P|166:288|299:282,1,252,10|0,1:2|2:0,2:1:0:0:
148,224,70696,6,2,P|51:222|-6:198,1,157.5,2|0,1:2|3:0,2:1:0:0:
190,290,71172,2,2,P|287:292|344:316,1,157.5,10|0,1:2|2:0,2:1:0:0:
227,219,71648,2,0,P|196:146|193:67,1,157.5,2|2,1:2|3:2,2:0:0:0:
152,384,72124,6,2,P|157:306|71:137,1,252,10|0,1:2|2:0,2:1:0:0:
0,15,72600,5,2,1:2:0:0:
201,48,72839,6,0,L|158:42,1,35,2|0,3:2|3:0,2:0:0:0:
103,33,73077,1,8,1:2:0:0:
2,82,73196,2,0,L|74:91,1,70,2|0,2:0|2:0,2:0:0:0:
221,117,73553,2,0,L|186:111,1,35,2|0,1:2|2:0,2:0:0:0:
192,179,73791,1,2,3:2:0:0:
0,189,73910,2,0,P|51:189|101:152,1,105,2|0,3:2|2:0,2:0:0:0:
274,74,74267,6,0,P|341:85|376:114,1,105,2|0,3:2|2:0,2:0:0:0:
440,73,74743,2,0,P|448:48|448:10,1,52.5,2|0,3:2|3:0,2:0:0:0:
493,146,74981,2,0,P|493:172|500:197,1,52.5,10|2,1:2|2:0,2:0:0:0:
357,221,75219,2,0,P|355:194|348:169,1,52.5,2|0,3:2|2:0,2:0:0:0:
286,326,75458,6,0,L|279:377,1,42,2|0,1:2|2:0,2:0:0:0:
351,350,75696,1,0,3:0:0:0:
235,240,75815,2,0,L|246:157,1,70,2|0,3:2|2:0,2:0:0:0:
167,222,76172,2,0,P|169:254|179:289,1,59.5,2|0,3:2|2:0,2:0:0:0:
366,357,76410,6,2,P|433:347|497:324,1,136.5,2|0,1:2|3:0,2:1:0:0:
308,314,76886,2,2,P|243:291|176:281,1,136.5,10|0,1:2|2:0,2:1:0:0:
369,283,77362,2,0,P|406:226|425:155,1,136.5,2|2,1:2|3:2,2:0:0:0:
68,381,77839,6,2,P|196:326|323:314,1,252,10|0,1:2|2:0,2:1:0:0:
171,139,78315,6,2,P|115:136|14:94,1,157.5,2|0,1:2|3:0,2:1:0:0:
230,184,78791,2,2,P|296:145|389:131,1,157.5,10|0,1:2|2:0,2:1:0:0:
163,207,79267,2,0,P|165:283|142:374,1,157.5,2|2,1:2|3:2,2:1:0:0:
0,13,79743,6,2,P|25:117|102:247,1,252,10|0,1:2|2:0,2:1:0:0:
400,368,80219,6,0,L|436:373,1,35,2|0,1:2|2:0,2:0:0:0:
345,296,80458,2,0,L|401:304,1,56,2|0,3:2|3:0,2:0:0:0:
331,224,80696,1,8,1:2:0:0:
509,248,80815,2,0,L|398:233,1,112,2|0,2:0|2:0,2:0:0:0:
416,156,81172,1,2,1:2:0:0:
371,96,81291,1,0,2:0:0:0:
416,156,81410,6,0,P|383:165|352:166,1,56,2|2,3:2|3:2,2:0:0:0:
339,34,81648,2,0,P|360:28|383:26,1,45.5,10|0,1:2|2:0,2:0:0:0:
172,207,81886,6,0,P|132:203|70:176,1,105,2|0,3:2|2:0,2:0:0:0:
342,51,82362,2,0,P|316:43|290:45,1,52.5,2|0,3:2|3:0,2:0:0:0:
353,245,82600,2,0,P|378:252|404:252,1,52.5,10|2,1:2|2:0,2:0:0:0:
233,110,82839,6,0,P|191:115|152:132,1,84,2|2,3:2|1:2,2:0:0:0:
6,211,83196,1,0,2:0:0:0:
54,159,83315,2,0,L|105:169,1,42,0|2,3:0|3:2,2:0:0:0:
174,337,83553,1,8,1:2:0:0:
138,281,83672,1,0,2:0:0:0:
184,208,83791,2,0,L|125:218,1,42,2|0,3:2|2:0,2:0:0:0:
465,348,84029,5,4,2:0:0:0:
253,36,85696,1,0,1:2:0:0:
255,44,85755,1,0,1:0:0:0:
256,52,85815,1,0,1:0:0:0:
258,60,85874,1,0,1:0:0:0:
260,68,85934,6,0,P|216:86|173:84,1,84,2|0,1:2|3:0,2:0:0:0:
284,142,86291,1,2,3:2:0:0:
380,112,86410,2,0,P|350:106|333:105,1,42,8|0,1:2|2:0,2:0:0:0:
115,2,86648,2,0,P|102:40|109:135,1,126,2|0,3:2|2:0,2:0:0:0:
113,140,87124,2,0,P|125:167|130:197,1,42,2|0,3:2|3:0,2:0:0:0:
38,261,87362,2,0,P|28:237|17:195,1,52.5,10|0,1:2|2:0,2:0:0:0:
198,137,87600,2,0,P|195:178|180:215,1,62.9999999999999,2|0,3:2|2:0,2:0:0:0:
12,347,87839,6,0,P|58:339|107:303,1,105,2|0,1:2|3:0,2:0:0:0:
283,360,88315,2,0,L|300:363,4,17.5,10|0|0|0|0,1:2|2:0|2:0|2:0|3:0,2:0:0:0:
283,360,88791,6,0,L|274:310,1,35,0|0,1:0|2:0,2:0:0:0:
372,265,89029,2,0,P|370:292|367:318,1,45.5,2|0,3:2|3:0,2:0:0:0:
176,251,89267,2,0,P|221:247|257:197,1,84,10|0,1:2|2:0,2:0:0:0:
258,210,89505,2,0,P|271:179|274:141,1,56,2|0,3:2|2:0,2:0:0:0:
446,229,89743,6,0,P|434:274|438:320,1,84,2|0,1:2|3:0,2:0:0:0:
486,356,90100,1,2,3:2:0:0:
373,351,90219,2,0,P|370:329|367:309,1,42,8|0,1:2|2:0,2:0:0:0:
508,117,90458,2,0,P|485:142|394:155,1,126,2|0,3:2|2:0,2:0:0:0:
384,147,90934,2,0,P|370:117|374:94,1,42,2|0,3:2|3:0,2:0:0:0:
512,225,91172,2,0,P|511:252|504:277,1,42,10|0,1:2|2:0,2:0:0:0:
321,308,91410,2,0,P|272:315|237:334,1,61.25,2|0,3:2|2:0,2:0:0:0:
196,315,91648,6,0,P|181:281|176:190,1,126,6|0,1:2|3:0,2:0:0:0:
330,253,92124,2,0,P|328:287|317:313,1,56,10|0,1:2|2:0,2:0:0:0:
110,176,92362,2,0,P|127:146|148:128,1,56,2|0,3:2|2:0,2:0:0:0:
378,195,92600,2,0,P|396:220|403:258,1,62.9999999999999,2|0,1:2|2:0,2:0:0:0:
160,369,92839,2,0,P|138:347|125:310,1,62.9999999999999,2|0,3:2|3:0,2:0:0:0:
41,182,93077,6,0,P|42:119|74:66,1,126,10|0,1:2|2:0,2:0:0:0:
136,49,93553,1,0,1:0:0:0:
0,54,93791,5,2,3:2:0:0:
0,54,93910,1,2,3:2:0:0:
0,54,94029,2,0,P|3:83|20:107,1,42,10|0,1:2|2:0,2:0:0:0:
201,61,94267,2,0,P|202:31|189:5,1,42,2|0,3:2|2:0,2:0:0:0:
66,143,94505,6,0,P|37:173|33:214,1,84,2|0,1:2|3:0,2:0:0:0:
214,242,94981,2,0,P|221:203|172:127,1,126,10|0,1:2|2:0,2:0:0:0:
94,314,95458,2,0,P|136:358|290:348,1,210,6|0,1:2|3:0,2:0:0:0:
342,364,95934,6,0,P|348:341|345:321,1,42,10|0,1:2|2:0,2:0:0:0:
210,253,96172,2,0,P|198:285|201:307,1,42,2|0,3:2|2:0,2:0:0:0:
420,309,96410,6,0,P|421:273|403:242,1,52.5,2|0,1:2|2:0,2:0:0:0:
136,303,96648,2,0,P|147:346|174:377,1,62.9999999999999,2|0,3:2|3:0,2:0:0:0:
478,236,96886,6,0,P|465:198|319:149,1,210,10|0,1:2|2:0,2:0:0:0:
270,205,97362,6,0,L|221:195,1,35,0|0,1:0|2:0,2:0:0:0:
15,134,97600,1,0,3:0:0:0:
19,150,97719,1,0,3:0:0:0:
24,166,97839,2,0,L|63:159,1,35,8|0,1:2|2:0,2:0:0:0:
276,67,98077,2,0,L|223:59,1,52.5,0|0,3:0|2:0,2:0:0:0:
208,57,98315,5,8,1:2:0:0:
88,92,98434,2,0,P|123:89|149:77,1,52.5,8|2,2:0|2:0,2:0:0:0:
362,179,98672,2,0,P|324:145|236:137,1,126,8|0,2:0|2:0,2:0:0:0:
413,222,99029,2,0,P|372:245|334:238,1,80.5,10|0,2:0|2:0,2:0:0:0:
74,169,99267,5,0,1:0:0:0:
74,169,99743,5,0,1:0:0:0:
157,178,99981,1,2,2:0:0:0:
78,176,100219,1,0,1:0:0:0:
157,165,100458,1,2,2:0:0:0:
82,188,100696,1,0,1:0:0:0:
153,153,100934,1,0,2:0:0:0:
50,310,101172,5,0,1:0:0:0:
146,352,101648,5,0,1:0:0:0:
50,310,101886,1,2,2:0:0:0:
148,333,102124,1,0,1:0:0:0:
43,339,102362,1,2,2:0:0:0:
140,309,102600,1,8,1:2:0:0:
51,363,102839,1,0,2:0:0:0:
293,348,103077,6,0,P|287:326|285:307,1,42,0|0,1:0|2:0,2:0:0:0:
333,194,103315,2,0,P|339:213|342:234,1,42,0|0,1:0|2:0,2:0:0:0:
244,317,103553,6,0,P|251:279|264:260,1,42,2|0,1:2|2:0,2:0:0:0:
379,228,103791,2,0,P|368:265|353:282,1,42,2|0,1:2|2:0,2:0:0:0:
194,252,104029,6,0,P|209:228|235:218,1,42,0|0,1:0|2:0,2:0:0:0:
428,291,104267,2,0,P|413:315|387:325,1,42,2|2,1:2|2:0,2:0:0:0:
213,155,104505,6,0,P|233:155|254:165,1,42,2|2,1:2|2:0,2:0:0:0:
402,384,104743,2,0,P|381:384|361:374,1,42,2|2,1:2|2:0,2:0:0:0:
298,119,104981,5,6,1:2:0:0:
318,82,105100,1,2,2:0:0:0:
315,41,105219,1,2,1:2:0:0:
292,7,105339,1,2,2:0:0:0:
261,35,105458,5,6,1:2:0:0:
241,42,105577,1,2,2:0:0:0:
223,53,105696,1,2,1:2:0:0:
210,70,105815,1,2,2:0:0:0:
230,132,105934,5,0,2:0:0:0:
34,327,106410,5,8,2:0:0:0:
115,278,106529,1,8,2:0:0:0:
50,261,106648,1,8,2:0:0:0:
99,343,106767,1,8,2:0:0:0:
170,226,106886,6,2,B|157:173|157:173|144:163|144:163|125:92,1,136.5,6|0,1:2|3:0,2:1:0:0:
215,273,107362,6,0,B|220:268|220:268|307:289|307:289|314:285,1,105,10|0,1:2|2:0,2:0:0:0:
323,276,107600,2,0,L|255:259,1,59.5,2|0,3:2|2:0,2:0:0:0:
32,158,107839,1,2,1:2:0:0:
109,172,107958,1,0,2:0:0:0:
0,92,108077,1,0,3:0:0:0:
77,106,108196,2,0,L|204:79,1,119,2|0,3:2|2:0,2:0:0:0:
311,88,108553,2,0,L|234:106,1,59.5,2|0,3:2|2:0,2:0:0:0:
0,219,108791,6,0,B|23:238|23:238|55:232,1,59.5,2|0,1:2|2:0,2:0:0:0:
82,298,109029,2,0,B|111:302|111:302|136:281,1,59.5,2|0,3:2|3:0,2:0:0:0:
293,182,109267,2,0,B|234:169|234:169|211:188,1,89.25,10|0,1:2|2:0,2:0:0:0:
221,195,109505,2,0,B|280:209,1,59.5,2|0,3:2|2:0,2:0:0:0:
510,145,109743,6,0,B|475:133|475:133|467:114|467:114|384:88,1,136.5,2|2,1:2|3:2,2:0:0:0:
323,69,110219,2,2,B|299:50|299:50|300:42|300:42|472:8,1,210,10|0,1:2|2:0,2:1:0:0:
394,254,110696,6,2,B|380:319|380:319|363:326|363:326|349:382,1,136.5,2|0,1:2|3:0,2:1:0:0:
502,130,111172,6,0,B|460:116|460:116|418:142,1,89.25,10|0,1:2|2:0,2:0:0:0:
374,185,111410,2,0,B|349:202|349:202|318:198,1,59.5,2|0,3:2|2:0,2:0:0:0:
258,119,111648,1,2,1:2:0:0:
328,134,111767,1,0,2:0:0:0:
184,61,111886,2,0,P|222:60|255:33,1,68.25,2|0,3:2|2:0,2:0:0:0:
287,4,112124,2,0,P|283:25|270:44,1,45.5,10|0,1:2|2:0,2:0:0:0:
129,101,112362,6,0,P|116:50|129:0,1,105,2|0,3:2|2:0,2:0:0:0:
165,153,112839,2,0,P|165:184|145:216,1,59.5,2|0,3:2|3:0,2:0:0:0:
228,123,113077,1,10,1:2:0:0:
9,269,113196,2,0,P|58:231|95:236,1,98,2|0,2:0|2:0,2:0:0:0:
90,341,113553,2,0,P|61:338|41:326,1,49,2|0,1:2|2:0,2:0:0:0:
220,348,113791,5,0,3:0:0:0:
202,276,113910,1,2,3:2:0:0:
229,335,114029,5,8,1:2:0:0:
211,263,114148,1,0,2:0:0:0:
291,355,114267,2,0,P|325:369|362:364,1,59.5,2|0,3:2|2:0,2:0:0:0:
487,182,114505,6,2,B|469:102|469:102|453:88|453:88|440:35,1,136.5,2|0,1:2|3:0,2:1:0:0:
416,191,114981,6,0,B|420:196|420:196|398:286|398:286|403:290,1,105,10|0,1:2|2:0,2:0:0:0:
409,300,115219,2,0,L|424:241,1,59.5,2|0,3:2|2:0,2:0:0:0:
294,117,115458,1,2,1:2:0:0:
371,131,115577,1,0,2:0:0:0:
262,51,115696,1,0,3:0:0:0:
339,65,115815,2,0,L|466:38,1,119,2|0,3:2|2:0,2:0:0:0:
292,126,116172,2,0,L|211:145,1,59.5,2|0,3:2|2:0,2:0:0:0:
21,182,116410,6,0,B|-1:160|-1:160|6:113,1,62.9999999999999,2|0,1:2|2:0,2:0:0:0:
164,16,116648,2,0,B|186:37|186:37|178:84,1,62.9999999999999,2|0,3:2|3:0,2:0:0:0:
72,228,116886,6,0,B|32:251|32:251|18:317,1,105,10|0,1:2|2:0,2:0:0:0:
31,317,117124,2,0,B|61:320|61:320|83:296,1,62.9999999999999,2|0,3:2|2:0,2:0:0:0:
234,139,117362,6,0,B|145:112|145:112|138:86|138:86|90:71,1,147,2|2,1:2|3:2,2:0:0:0:
6,54,117839,2,2,B|12:81|12:81|224:153,1,231,10|0,1:2|2:0,2:1:0:0:
492,196,118315,6,2,B|480:153|480:153|455:135|455:135|431:47,1,147,2|0,1:2|3:0,2:1:0:0:
482,262,118791,6,0,B|491:312|491:312|456:367,1,105,10|0,1:2|2:0,2:0:0:0:
441,360,119029,2,0,B|415:343|415:343|410:305,1,59.5,2|0,3:2|2:0,2:0:0:0:
252,134,119267,5,2,1:2:0:0:
321,126,119386,1,0,2:0:0:0:
265,207,119505,6,0,P|236:210|208:219,1,59.5,2|2,3:2|3:2,2:0:0:0:
323,52,119743,6,0,P|352:49|381:41,1,59.5,10|0,1:2|2:0,2:0:0:0:
372,217,119981,6,0,P|372:248|362:286,1,70,2|0,3:2|2:0,2:0:0:0:
177,149,120219,5,4,1:2:0:0:
181,135,120339,1,0,2:0:0:0:
125,37,120458,2,0,P|118:90|122:127,1,70,2|0,3:2|3:0,2:0:0:0:
207,219,120696,5,14,1:2:0:0:
210,234,120815,1,2,2:0:0:0:
167,356,120934,2,0,P|160:298|166:265,1,70,2|0,3:2|2:0,2:0:0:0:
271,193,121172,5,6,1:2:0:0:
275,207,121291,1,0,2:0:0:0:
323,255,121410,2,0,P|358:255|391:242,1,70,0|2,3:0|3:2,2:0:0:0:
499,70,121648,5,14,1:2:0:0:
350,38,121767,1,0,2:0:0:0:
464,129,121886,2,0,P|423:129|377:150,1,87.5,2|0,1:2|2:0,2:0:0:0:
54,130,122124,6,2,P|32:82|44:11,1,105,6|2,1:2|3:2,2:1:0:0:
35,30,122481,1,0,3:0:0:0:
39,225,122600,2,2,P|82:289|86:367,1,157.5,10|0,1:2|2:0,2:1:0:0:
114,199,123077,2,0,P|145:127|217:87,1,157.5,2|2,1:2|3:2,2:0:0:0:
387,289,123553,6,2,P|274:227|159:234,1,231,10|2,1:2|2:0,2:1:0:0:
370,361,124029,2,2,P|441:364|524:314,1,154,2|2,1:2|3:2,2:1:0:0:
512,326,124386,1,0,3:0:0:0:
213,371,124505,6,2,P|146:329|69:316,1,157.5,10|0,1:2|2:0,2:1:0:0:
288,292,124981,2,0,P|298:214|340:149,1,157.5,2|2,1:2|3:2,2:1:0:0:
398,360,125458,2,2,P|454:357|495:330,1,105,10|2,1:2|3:2,2:1:0:0:
494,330,125815,1,0,2:0:0:0:
330,358,125934,2,0,P|296:360|273:369,1,52.5,2|0,1:2|2:0,2:0:0:0:
151,187,126172,6,0,P|156:142|160:91,1,91,2|8,3:2|1:2,2:0:0:0:
303,175,126529,2,0,P|296:218|292:270,1,91,2|0,2:0|2:0,2:0:0:0:
72,328,126886,2,0,P|70:306|67:283,1,45.5,2|0,1:2|2:0,2:0:0:0:
18,240,127124,1,2,3:2:0:0:
130,256,127243,2,0,P|159:276|221:281,1,91,2|0,3:2|2:0,2:0:0:0:
217,188,127600,2,0,P|190:177|168:175,1,45.5,2|0,3:2|2:0,2:0:0:0:
417,339,127839,6,0,P|452:337|483:320,1,70,0|2,1:0|3:2,2:0:0:0:
466,256,128196,1,0,3:0:0:0:
354,366,128315,2,0,P|336:363|319:359,1,35,10|2,1:2|2:0,2:0:0:0:
221,312,128553,2,0,P|245:316|269:321,1,43.75,2|0,3:2|2:0,2:0:0:0:
367,186,128791,6,0,L|374:141,1,35,2|0,1:2|2:0,2:0:0:0:
325,246,129029,1,0,3:0:0:0:
498,177,129148,2,0,L|490:246,1,70,2|0,3:2|2:0,2:0:0:0:
489,314,129505,2,0,P|462:311|438:298,1,52.5,2|0,3:2|2:0,2:0:0:0:
174,31,129743,6,2,P|101:59|23:48,1,157.5,2|0,1:2|3:0,2:1:0:0:
296,63,130219,2,2,P|347:66|392:92,1,105,10|0,1:2|3:0,2:1:0:0:
392,92,130577,1,0,2:0:0:0:
161,147,130696,2,0,P|152:183|182:313,1,157.5,2|2,1:2|3:2,2:0:0:0:
447,18,131172,6,2,P|360:73|256:85,1,210,10|0,1:2|2:0,2:1:0:0:
480,85,131648,2,2,P|484:129|515:196,1,105,2|2,1:2|3:2,2:1:0:0:
507,184,132005,1,0,3:0:0:0:
315,43,132124,2,2,P|239:9|146:6,1,157.5,10|0,1:2|2:0,2:1:0:0:
425,234,132600,2,0,P|426:278|376:387,1,157.5,2|2,1:2|3:2,2:0:0:0:
36,161,133077,6,2,P|102:113|189:102,1,168,10|2,1:2|3:2,2:1:0:0:
186,102,133434,1,2,2:0:0:0:
356,167,133553,2,0,P|378:180|407:184,1,52.5,0|0,1:0|2:0,2:0:0:0:
474,314,133791,6,0,L|490:203,1,105,2|8,3:2|1:2,2:0:0:0:
437,17,134148,2,0,L|421:128,1,105,2|0,2:0|2:0,2:0:0:0:
322,232,134505,1,2,1:2:0:0:
277,179,134624,1,0,2:0:0:0:
347,160,134743,2,0,P|348:195|338:221,1,52.5,2|2,3:2|3:2,2:0:0:0:
50,184,134981,6,0,P|40:158|37:118,1,62.9999999999999,10|0,1:2|2:0,2:0:0:0:
199,55,135219,2,0,P|209:81|212:121,1,62.9999999999999,2|0,3:2|2:0,2:0:0:0:
107,226,135458,6,0,P|105:277|90:335,1,98,0|2,1:0|3:2,2:0:0:0:
45,364,135815,1,0,3:0:0:0:
170,293,135934,2,0,P|206:304|242:306,1,70,10|2,1:2|2:0,2:0:0:0:
394,264,136172,2,0,P|310:280|294:289,1,98,2|2,3:2|1:2,2:0:0:0:
94,322,136529,1,0,2:0:0:0:
41,277,136648,2,0,L|34:229,1,49,0|2,3:0|3:2,2:0:0:0:
53,131,136886,1,8,1:2:0:0:
124,156,137005,1,0,2:0:0:0:
188,100,137124,2,0,L|199:150,1,49,2|0,1:2|2:0,2:0:0:0:
250,366,137362,5,4,1:2:0:0:
264,343,137481,1,0,2:0:0:0:
253,319,137600,1,0,3:0:0:0:
272,301,137719,1,0,3:0:0:0:
258,279,137839,2,0,L|254:235,1,26.2500000000001,8|0,1:2|2:0,2:0:0:0:
282,207,138077,2,0,L|270:245,1,26.2500000000001,0|0,3:0|2:0,2:0:0:0:
179,327,138315,5,0,1:0:0:0:
157,342,138434,1,0,2:0:0:0:
133,329,138553,1,0,3:0:0:0:
117,350,138672,1,0,3:0:0:0:
93,337,138791,2,0,L|82:304,1,26.2500000000001,8|0,1:2|2:0,2:0:0:0:
44,258,139029,2,0,L|51:211,1,26.2500000000001,0|0,3:0|2:0,2:0:0:0:
51,138,139267,5,0,1:0:0:0:
70,120,139386,1,0,2:0:0:0:
94,129,139505,1,0,3:0:0:0:
113,111,139624,1,0,3:0:0:0:
136,123,139743,2,0,L|127:162,1,26.2500000000001,8|0,1:2|2:0,2:0:0:0:
143,190,139981,2,0,L|137:158,1,26.2500000000001,0|0,3:0|2:0,2:0:0:0:
209,213,140219,1,0,1:0:0:0:
232,200,140339,1,0,2:0:0:0:
246,221,140458,1,0,3:0:0:0:
270,211,140577,1,0,3:0:0:0:
279,235,140696,2,0,L|284:274,1,26.2500000000001,8|0,1:2|2:0,2:0:0:0:
320,372,140934,5,0,1:0:0:0:
320,363,140993,1,0,1:0:0:0:
322,355,141053,1,0,1:0:0:0:
323,347,141112,1,0,1:0:0:0:
324,339,141172,6,0,P|334:318|342:307,1,26.2500000000001,0|0,1:0|2:0,2:0:0:0:
403,284,141410,1,0,3:0:0:0:
399,258,141529,1,0,3:0:0:0:
372,260,141648,2,0,L|362:230,1,26.2500000000001,8|0,1:2|2:0,2:0:0:0:
375,183,141886,2,0,L|371:209,1,26.2500000000001,0|0,3:0|2:0,2:0:0:0:
297,242,142124,5,0,1:0:0:0:
281,263,142243,1,0,2:0:0:0:
258,249,142362,1,2,3:2:0:0:
233,257,142481,1,0,3:0:0:0:
210,229,142600,6,0,P|201:204|196:184,1,35,10|0,1:2|2:0,2:0:0:0:
279,109,142839,2,0,P|287:140|287:157,1,35,2|0,3:2|2:0,2:0:0:0:
139,176,143077,6,0,P|102:163|71:160,1,70,0|2,1:0|3:2,2:0:0:0:
195,129,143434,1,0,3:0:0:0:
90,245,143553,2,0,P|115:242|133:232,1,35,10|0,1:2|2:0,2:0:0:0:
142,87,143791,2,0,P|116:89|98:99,1,35,2|0,3:2|2:0,2:0:0:0:
2,207,144029,5,0,1:0:0:0:
0,233,144148,1,0,2:0:0:0:
18,249,144267,1,0,3:0:0:0:
17,274,144386,1,0,3:0:0:0:
39,286,144505,2,0,L|47:320,1,26.2500000000001,10|2,1:2|2:0,2:0:0:0:
10,370,144743,1,2,3:2:0:0:
10,370,144862,1,2,2:0:0:0:
103,238,144981,6,0,B|131:247|131:247|170:242,1,59.5000000000002,0|0,1:0|3:0,2:0:0:0:
190,304,145339,1,2,3:2:0:0:
295,297,145458,2,0,L|364:290,1,59.5000000000002,8|0,1:2|3:0,2:0:0:0:
412,255,145815,1,0,2:0:0:0:
504,327,145934,6,0,L|498:364,1,29.7500000000001,0|2,1:0|2:0,2:0:0:0:
351,194,146172,2,0,L|356:223,1,29.7500000000001,2|0,3:2|3:0,2:0:0:0:
474,152,146410,1,10,1:2:0:0:
480,122,146529,1,2,2:0:0:0:
507,94,146648,1,2,3:2:0:0:
512,66,146767,1,0,2:0:0:0:
406,118,146886,6,0,B|378:131|378:131|350:126,1,59.5000000000002,0|0,1:0|3:0,2:0:0:0:
310,74,147243,1,2,3:2:0:0:
233,44,147362,2,0,B|205:30|205:30|177:35,1,59.5000000000002,8|0,1:2|3:0,2:0:0:0:
117,60,147719,1,2,2:0:0:0:
1,144,147839,6,0,L|53:132,1,44.6250000000002,0|0,1:0|2:0,2:0:0:0:
57,116,148077,2,0,L|18:125,1,29.7500000000001,0|2,3:0|3:2,2:0:0:0:
19,213,148315,5,10,1:2:0:0:
23,243,148434,1,2,2:0:0:0:
8,277,148553,1,2,3:2:0:0:
15,306,148672,1,0,2:0:0:0:
77,335,148791,6,0,B|110:341,3,29.7500000000001,2|2|2|0,1:2|2:0|3:2|3:0,2:0:0:0:
167,355,149267,5,10,1:2:0:0:
190,358,149386,5,2,2:0:0:0:
214,362,149505,5,2,3:2:0:0:
230,365,149624,5,0,2:0:0:0:
246,367,149743,5,2,1:2:0:0:
261,370,149862,5,2,2:0:0:0:
269,371,149981,5,2,3:2:0:0:
277,372,150100,5,0,3:0:0:0:
285,373,150219,6,0,L|297:296,1,59.5000000000002,10|2,1:2|3:2,2:0:0:0:
256,192,150696,12,0,152124,2:0:0:0:
