osu file format v14

[General]
AudioFilename: audio.mp3
AudioLeadIn: 0
PreviewTime: 124250
Countdown: 0
SampleSet: Normal
StackLeniency: 0.7
Mode: 1
LetterboxInBreaks: 0
WidescreenStoryboard: 0

[Editor]
DistanceSpacing: 0.9
BeatDivisor: 4
GridSize: 32
TimelineZoom: 4.099998

[Metadata]
Title:Orange Sapphire (you Remix)
TitleUnicode:Orange Sapphire (you Remix)
Artist:Tropical*Stars
ArtistUnicode:トロピカル☆スターズ
Creator:Eriha
Version:Tropical Oni
Source:アイドルマスター シンデレラガールズ
Tags:deremasu deremas デレマス deresute jewelries! 001 idolmaster master imas アイマス im@s the idolm@ster cinderella girls starlight stage デレステ スターライトステージ mobile rhythm video game electronic season 1 for ep 10 Insert japanese anime remix j-core bootleg hardcore passion dream a-remix a remix nation 11 for you sounds foryousounds Rika Jougasaki Jōgasaki 城ヶ崎莉嘉 Nozomi Yamamoto 山本希望 Mio Honda 本田未央 Sayuri Hara 原紗友里 Mika 城ヶ崎美嘉 Haruka Yoshimura 佳村はるか Kirari Moroboshi 諸星きらり Rei Matsuzaki 松嵜麗 Miria Akagi 赤城みりあ Tomoyo Kurosawa 黒沢ともよ
BeatmapID:4183209
BeatmapSetID:2010438

[Difficulty]
HPDrainRate:5
CircleSize:5
OverallDifficulty:6
ApproachRate:5
SliderMultiplier:1.4
SliderTickRate:1

[Events]
//Background and Video events
0,0,"bg.jpg",0,30
//Break Periods
2,242049,248877
//Storyboard Layer 0 (Background)
//Storyboard Layer 1 (Fail)
//Storyboard Layer 2 (Pass)
//Storyboard Layer 3 (Foreground)
//Storyboard Layer 4 (Overlay)
//Storyboard Sound Samples

[TimingPoints]
1850,342.857142857143,4,1,0,80,1,0
45692,-100,4,1,0,70,0,0
45864,-100,4,1,0,50,0,0
50835,-100,4,1,0,70,0,0
56664,-90.9090909090909,4,1,0,90,0,0
56707,-90.9090909090909,4,1,0,90,0,1
78607,-100,4,1,0,80,0,1
78650,-100,4,1,0,80,0,0
102971,-90.9090909090909,4,1,0,80,0,0
103657,-100,4,1,0,80,0,0
105714,-90.9090909090909,4,1,0,80,0,0
106400,-100,4,1,0,80,0,0
113942,-90.9090909090909,4,1,0,80,0,0
114628,-100,4,1,0,80,0,0
125235,-90.9090909090909,4,1,0,90,0,0
125278,342.857142857143,4,1,0,90,1,1
125278,-90.9090909090909,4,1,0,90,0,1
141692,-90.9090909090909,4,1,0,80,0,1
141735,-90.9090909090909,4,1,0,80,0,0
141906,-100,4,1,0,80,0,0
147178,-90.9090909090909,4,1,0,90,0,0
147220,-90.9090909090909,4,1,0,90,0,1
169120,-100,4,1,0,80,0,1
169163,-100,4,1,0,80,0,0
193485,-90.9090909090909,4,1,0,80,0,0
194170,-100,4,1,0,80,0,0
196228,-90.9090909090909,4,1,0,80,0,0
196913,-100,4,1,0,80,0,0
204456,-90.9090909090909,4,1,0,80,0,0
205142,-100,4,1,0,80,0,0
215749,-90.9090909090909,4,1,0,90,0,0
215792,342.857142857143,4,1,0,90,1,1
215792,-90.9090909090909,4,1,0,90,0,1
232206,-90.9090909090909,4,1,0,80,0,1
232249,-90.9090909090909,4,1,0,80,0,0
232420,-100,4,1,0,80,0,0
239063,-100,4,1,0,70,0,0
239106,342.857142857143,4,1,0,80,1,0
239234,-100,4,1,0,50,0,0
250034,-100,4,1,0,60,0,0
255520,-100,4,1,0,70,0,0
262377,-90.9090909090909,4,1,0,90,0,0
262420,342.857142857143,4,1,0,90,1,1
262420,-90.9090909090909,4,1,0,90,0,1
284320,-100,4,1,0,80,0,1
284362,-100,4,1,0,80,0,0

[HitObjects]
256,192,1849,5,4,0:0:0:0:
256,192,2107,1,8,0:0:0:0:
256,192,2192,1,0,0:0:0:0:
256,192,2278,1,8,0:0:0:0:
256,192,2364,1,8,0:0:0:0:
256,192,2535,1,0,0:0:0:0:
256,192,2621,1,0,0:0:0:0:
256,192,2707,1,8,0:0:0:0:
256,192,2878,1,8,0:0:0:0:
256,192,2964,1,8,0:0:0:0:
256,192,3050,1,0,0:0:0:0:
256,192,3135,1,8,0:0:0:0:
256,192,3221,1,0,0:0:0:0:
256,192,3392,1,8,0:0:0:0:
256,192,3564,1,8,0:0:0:0:
256,192,3735,1,0,0:0:0:0:
256,192,3821,1,0,0:0:0:0:
256,192,3907,1,8,0:0:0:0:
256,192,4078,1,0,0:0:0:0:
256,192,4250,1,8,0:0:0:0:
256,192,4421,1,0,0:0:0:0:
256,192,4592,1,8,0:0:0:0:
256,192,4678,1,8,0:0:0:0:
256,192,4764,1,0,0:0:0:0:
256,192,4850,1,8,0:0:0:0:
256,192,4935,1,0,0:0:0:0:
256,192,5107,1,8,0:0:0:0:
256,192,5192,1,8,0:0:0:0:
256,192,5278,1,0,0:0:0:0:
256,192,5450,1,0,0:0:0:0:
256,192,5535,1,0,0:0:0:0:
256,192,5621,1,8,0:0:0:0:
256,192,5707,1,8,0:0:0:0:
256,192,5878,1,8,0:0:0:0:
256,192,5964,1,0,0:0:0:0:
256,192,6135,1,8,0:0:0:0:
256,192,6221,1,0,0:0:0:0:
256,192,6307,1,8,0:0:0:0:
256,192,6478,1,0,0:0:0:0:
256,192,6564,1,0,0:0:0:0:
256,192,6650,1,8,0:0:0:0:
256,192,6735,1,8,0:0:0:0:
256,192,6821,1,0,0:0:0:0:
256,192,6992,1,8,0:0:0:0:
256,192,7035,1,8,0:0:0:0:
256,192,7164,1,8,0:0:0:0:
256,192,7207,1,8,0:0:0:0:
256,192,7335,1,4,0:0:0:0:
256,192,7592,1,8,0:0:0:0:
256,192,7678,1,0,0:0:0:0:
256,192,7764,1,8,0:0:0:0:
256,192,7850,1,8,0:0:0:0:
256,192,8021,1,0,0:0:0:0:
256,192,8107,1,0,0:0:0:0:
256,192,8192,1,8,0:0:0:0:
256,192,8364,1,8,0:0:0:0:
256,192,8450,1,8,0:0:0:0:
256,192,8535,1,0,0:0:0:0:
256,192,8621,1,8,0:0:0:0:
256,192,8707,1,0,0:0:0:0:
256,192,8878,1,8,0:0:0:0:
256,192,9050,1,8,0:0:0:0:
256,192,9221,1,0,0:0:0:0:
256,192,9307,1,0,0:0:0:0:
256,192,9392,1,8,0:0:0:0:
256,192,9564,1,0,0:0:0:0:
256,192,9735,1,8,0:0:0:0:
256,192,9907,1,0,0:0:0:0:
256,192,10078,1,8,0:0:0:0:
256,192,10164,1,8,0:0:0:0:
256,192,10250,1,0,0:0:0:0:
256,192,10335,1,8,0:0:0:0:
256,192,10421,1,0,0:0:0:0:
256,192,10592,1,8,0:0:0:0:
256,192,10678,1,8,0:0:0:0:
256,192,10764,1,0,0:0:0:0:
256,192,10935,1,0,0:0:0:0:
256,192,11021,1,0,0:0:0:0:
256,192,11107,1,8,0:0:0:0:
256,192,11192,1,8,0:0:0:0:
256,192,11364,1,8,0:0:0:0:
256,192,11450,1,0,0:0:0:0:
256,192,11792,1,0,0:0:0:0:
256,192,11964,1,8,0:0:0:0:
256,192,12135,1,0,0:0:0:0:
256,192,12221,1,8,0:0:0:0:
256,192,12307,1,8,0:0:0:0:
256,192,12392,1,8,0:0:0:0:
256,192,12478,1,0,0:0:0:0:
256,192,12564,1,8,0:0:0:0:
256,192,12650,1,0,0:0:0:0:
256,192,12821,1,4,0:0:0:0:
256,192,12992,1,8,0:0:0:0:
256,192,13078,1,8,0:0:0:0:
256,192,13164,1,0,0:0:0:0:
256,192,13250,1,8,0:0:0:0:
256,192,13335,1,8,0:0:0:0:
256,192,13507,1,0,0:0:0:0:
256,192,13592,1,0,0:0:0:0:
256,192,13678,1,8,0:0:0:0:
256,192,13850,1,8,0:0:0:0:
256,192,13935,1,8,0:0:0:0:
256,192,14021,1,0,0:0:0:0:
256,192,14107,1,8,0:0:0:0:
256,192,14192,1,0,0:0:0:0:
256,192,14364,1,8,0:0:0:0:
256,192,14535,1,8,0:0:0:0:
256,192,14707,1,0,0:0:0:0:
256,192,14792,1,0,0:0:0:0:
256,192,14878,1,8,0:0:0:0:
256,192,15050,1,0,0:0:0:0:
256,192,15221,1,8,0:0:0:0:
256,192,15392,1,0,0:0:0:0:
256,192,15564,1,8,0:0:0:0:
256,192,15650,1,8,0:0:0:0:
256,192,15735,1,0,0:0:0:0:
256,192,15821,1,8,0:0:0:0:
256,192,15907,1,0,0:0:0:0:
256,192,16078,1,8,0:0:0:0:
256,192,16164,1,8,0:0:0:0:
256,192,16250,1,0,0:0:0:0:
256,192,16421,1,0,0:0:0:0:
256,192,16507,1,0,0:0:0:0:
256,192,16592,1,8,0:0:0:0:
256,192,16678,1,8,0:0:0:0:
256,192,16850,1,8,0:0:0:0:
256,192,16935,1,0,0:0:0:0:
256,192,17278,1,8,0:0:0:0:
256,192,17450,1,0,0:0:0:0:
256,192,17535,1,0,0:0:0:0:
256,192,17621,1,8,0:0:0:0:
256,192,17792,1,0,0:0:0:0:
256,192,17964,1,8,0:0:0:0:
256,192,18050,1,8,0:0:0:0:
256,192,18135,1,8,0:0:0:0:
256,192,18307,1,4,0:0:0:0:
256,192,18650,1,0,0:0:0:0:
256,192,18821,1,8,0:0:0:0:
256,192,18992,1,0,0:0:0:0:
256,192,19078,1,0,0:0:0:0:
256,192,19164,1,0,0:0:0:0:
256,192,19335,1,8,0:0:0:0:
256,192,19507,1,0,0:0:0:0:
256,192,19678,1,8,0:0:0:0:
256,192,19850,1,8,0:0:0:0:
256,192,19935,1,8,0:0:0:0:
256,192,20021,1,0,0:0:0:0:
256,192,20107,1,0,0:0:0:0:
256,192,20192,1,8,0:0:0:0:
256,192,20278,1,0,0:0:0:0:
256,192,20364,1,8,0:0:0:0:
256,192,20535,1,0,0:0:0:0:
256,192,20707,1,0,0:0:0:0:
256,192,20792,1,0,0:0:0:0:
256,192,20878,1,8,0:0:0:0:
256,192,21050,1,8,0:0:0:0:
256,192,21135,1,8,0:0:0:0:
256,192,21221,1,0,0:0:0:0:
256,192,21392,1,0,0:0:0:0:
256,192,21564,1,8,0:0:0:0:
256,192,21650,1,8,0:0:0:0:
256,192,21735,1,0,0:0:0:0:
256,192,21907,1,0,0:0:0:0:
256,192,21992,1,0,0:0:0:0:
256,192,22078,1,8,0:0:0:0:
256,192,22164,1,8,0:0:0:0:
256,192,22250,1,0,0:0:0:0:
256,192,22421,1,4,0:0:0:0:
256,192,22764,1,0,0:0:0:0:
256,192,22935,1,8,0:0:0:0:
256,192,23107,1,0,0:0:0:0:
256,192,23278,1,8,0:0:0:0:
256,192,23364,1,8,0:0:0:0:
256,192,23450,1,0,0:0:0:0:
256,192,23535,1,8,0:0:0:0:
256,192,23621,1,8,0:0:0:0:
256,192,23792,1,4,0:0:0:0:
256,192,24050,1,8,0:0:0:0:
256,192,24135,1,0,0:0:0:0:
256,192,24307,1,8,0:0:0:0:
256,192,24478,1,0,0:0:0:0:
256,192,24564,1,0,0:0:0:0:
256,192,24650,1,8,0:0:0:0:
256,192,24735,1,8,0:0:0:0:
256,192,24821,1,0,0:0:0:0:
256,192,24992,1,8,0:0:0:0:
256,192,25164,1,0,0:0:0:0:
256,192,25335,1,8,0:0:0:0:
256,192,25421,1,8,0:0:0:0:
256,192,25507,1,0,0:0:0:0:
256,192,25678,1,8,0:0:0:0:
256,192,25850,1,0,0:0:0:0:
256,192,25935,1,8,0:0:0:0:
256,192,26021,1,8,0:0:0:0:
256,192,26107,1,8,0:0:0:0:
256,192,26192,1,0,0:0:0:0:
256,192,26364,1,8,0:0:0:0:
256,192,26535,1,0,0:0:0:0:
256,192,26792,1,8,0:0:0:0:
256,192,26878,1,0,0:0:0:0:
256,192,27050,1,8,0:0:0:0:
256,192,27221,1,0,0:0:0:0:
256,192,27307,1,0,0:0:0:0:
256,192,27392,1,8,0:0:0:0:
256,192,27478,1,8,0:0:0:0:
256,192,27564,1,0,0:0:0:0:
256,192,27735,1,8,0:0:0:0:
256,192,27907,1,0,0:0:0:0:
256,192,28078,1,0,0:0:0:0:
256,192,28164,1,0,0:0:0:0:
256,192,28250,1,8,0:0:0:0:
256,192,28421,1,0,0:0:0:0:
256,192,28592,1,8,0:0:0:0:
256,192,28678,1,8,0:0:0:0:
256,192,28764,1,0,0:0:0:0:
256,192,28935,1,0,0:0:0:0:
256,192,29107,1,8,0:0:0:0:
256,192,29278,1,0,0:0:0:0:
256,192,29535,1,8,0:0:0:0:
256,192,29621,1,0,0:0:0:0:
256,192,29792,1,8,0:0:0:0:
256,192,29964,1,0,0:0:0:0:
256,192,30050,1,0,0:0:0:0:
256,192,30135,1,8,0:0:0:0:
256,192,30307,1,0,0:0:0:0:
256,192,30478,1,8,0:0:0:0:
256,192,30564,1,8,0:0:0:0:
256,192,30650,1,0,0:0:0:0:
256,192,30821,1,8,0:0:0:0:
256,192,30907,1,8,0:0:0:0:
256,192,30992,1,0,0:0:0:0:
256,192,31078,1,0,0:0:0:0:
256,192,31164,1,8,0:0:0:0:
256,192,31250,1,0,0:0:0:0:
256,192,31335,1,8,0:0:0:0:
256,192,31678,1,0,0:0:0:0:
256,192,32021,1,12,0:0:0:0:
256,192,32707,1,12,0:0:0:0:
256,192,33392,1,0,0:0:0:0:
256,192,33735,1,0,0:0:0:0:
256,192,34078,1,0,0:0:0:0:
256,192,34421,1,12,0:0:0:0:
256,192,35107,1,4,0:0:0:0:
256,192,35278,1,8,0:0:0:0:
256,192,35450,1,0,0:0:0:0:
256,192,35535,1,0,0:0:0:0:
256,192,35621,1,8,0:0:0:0:
256,192,35707,1,8,0:0:0:0:
256,192,35792,1,0,0:0:0:0:
256,192,35964,1,8,0:0:0:0:
256,192,36135,1,0,0:0:0:0:
256,192,36307,1,8,0:0:0:0:
256,192,36392,1,8,0:0:0:0:
256,192,36478,1,0,0:0:0:0:
256,192,36650,1,8,0:0:0:0:
256,192,36821,1,0,0:0:0:0:
256,192,36907,1,8,0:0:0:0:
256,192,36992,1,8,0:0:0:0:
256,192,37078,1,8,0:0:0:0:
256,192,37164,1,0,0:0:0:0:
256,192,37335,1,8,0:0:0:0:
256,192,37507,1,0,0:0:0:0:
256,192,37764,1,8,0:0:0:0:
256,192,37850,1,0,0:0:0:0:
256,192,38021,1,8,0:0:0:0:
256,192,38192,1,0,0:0:0:0:
256,192,38278,1,0,0:0:0:0:
256,192,38364,1,8,0:0:0:0:
256,192,38450,1,8,0:0:0:0:
256,192,38535,1,0,0:0:0:0:
256,192,38707,1,8,0:0:0:0:
256,192,38878,1,0,0:0:0:0:
256,192,39050,1,0,0:0:0:0:
256,192,39135,1,0,0:0:0:0:
256,192,39221,1,8,0:0:0:0:
256,192,39392,1,0,0:0:0:0:
256,192,39564,1,8,0:0:0:0:
256,192,39650,1,8,0:0:0:0:
256,192,39735,1,0,0:0:0:0:
256,192,39907,1,8,0:0:0:0:
256,192,40078,1,8,0:0:0:0:
256,192,40250,1,4,0:0:0:0:
256,192,40592,1,8,0:0:0:0:
256,192,40935,1,8,0:0:0:0:
256,192,41278,1,8,0:0:0:0:
256,192,41621,1,4,0:0:0:0:
256,192,41792,1,0,0:0:0:0:
256,192,41964,1,0,0:0:0:0:
256,192,42135,1,0,0:0:0:0:
256,192,42307,1,0,0:0:0:0:
256,192,42478,1,0,0:0:0:0:
256,192,42821,1,0,0:0:0:0:
256,192,42992,1,8,0:0:0:0:
256,192,43078,1,8,0:0:0:0:
256,192,43164,1,0,0:0:0:0:
256,192,43250,1,8,0:0:0:0:
256,192,43335,1,0,0:0:0:0:
256,192,43421,1,0,0:0:0:0:
256,192,43507,1,8,0:0:0:0:
256,192,43592,1,8,0:0:0:0:
256,192,43678,1,0,0:0:0:0:
256,192,43764,1,0,0:0:0:0:
256,192,43850,1,8,0:0:0:0:
256,192,43935,1,0,0:0:0:0:
256,192,44021,1,8,0:0:0:0:
256,192,44107,1,8,0:0:0:0:
256,192,44192,1,0,0:0:0:0:
256,192,44364,1,4,0:0:0:0:
256,192,44535,12,0,45221,0:0:0:0:
256,192,45392,5,12,0:0:0:0:
256,192,45735,1,4,0:0:0:0:
256,192,45907,12,0,48478,0:0:0:0:
256,192,50878,5,8,0:0:0:0:
256,192,51050,1,8,0:0:0:0:
256,192,51221,1,4,0:0:0:0:
256,192,51564,1,8,0:0:0:0:
256,192,51907,1,8,0:0:0:0:
256,192,52250,1,8,0:0:0:0:
256,192,52421,1,4,0:0:0:0:
256,192,52764,1,4,0:0:0:0:
256,192,53107,1,4,0:0:0:0:
256,192,53450,1,4,0:0:0:0:
256,192,53621,1,12,0:0:0:0:
256,192,53792,1,12,0:0:0:0:
256,192,53964,1,0,0:0:0:0:
256,192,54135,1,0,0:0:0:0:
256,192,54307,1,8,0:0:0:0:
256,192,54478,1,0,0:0:0:0:
256,192,54650,1,0,0:0:0:0:
256,192,54821,1,8,0:0:0:0:
256,192,54992,1,0,0:0:0:0:
256,192,55164,1,0,0:0:0:0:
256,192,55507,1,0,0:0:0:0:
256,192,55678,1,0,0:0:0:0:
256,192,56364,1,12,0:0:0:0:
256,192,56707,1,4,0:0:0:0:
256,192,56878,1,8,0:0:0:0:
256,192,56964,1,8,0:0:0:0:
256,192,57050,1,0,0:0:0:0:
256,192,57135,1,8,0:0:0:0:
256,192,57307,1,8,0:0:0:0:
256,192,57392,1,0,0:0:0:0:
256,192,57564,1,0,0:0:0:0:
256,192,57735,1,8,0:0:0:0:
256,192,57907,1,0,0:0:0:0:
256,192,58078,1,0,0:0:0:0:
256,192,58164,1,0,0:0:0:0:
256,192,58250,1,8,0:0:0:0:
256,192,58421,1,8,0:0:0:0:
256,192,58592,1,0,0:0:0:0:
256,192,58764,1,8,0:0:0:0:
256,192,58850,1,8,0:0:0:0:
256,192,58935,1,0,0:0:0:0:
256,192,59021,1,0,0:0:0:0:
256,192,59107,1,8,0:0:0:0:
256,192,59278,1,0,0:0:0:0:
256,192,59450,1,8,0:0:0:0:
256,192,59621,1,0,0:0:0:0:
256,192,59707,1,8,0:0:0:0:
256,192,59792,1,8,0:0:0:0:
256,192,59878,1,0,0:0:0:0:
256,192,60050,1,8,0:0:0:0:
256,192,60135,1,0,0:0:0:0:
256,192,60307,1,0,0:0:0:0:
256,192,60478,1,0,0:0:0:0:
256,192,60650,1,8,0:0:0:0:
256,192,60821,1,0,0:0:0:0:
256,192,60907,1,0,0:0:0:0:
256,192,60992,1,8,0:0:0:0:
256,192,61164,1,8,0:0:0:0:
256,192,61335,1,8,0:0:0:0:
256,192,61421,1,0,0:0:0:0:
256,192,61507,1,0,0:0:0:0:
256,192,61592,1,8,0:0:0:0:
256,192,61678,1,8,0:0:0:0:
256,192,61764,1,0,0:0:0:0:
256,192,61850,1,8,0:0:0:0:
256,192,62021,1,0,0:0:0:0:
256,192,62107,1,8,0:0:0:0:
256,192,62192,1,0,0:0:0:0:
256,192,62364,1,8,0:0:0:0:
256,192,62450,1,8,0:0:0:0:
256,192,62535,1,0,0:0:0:0:
256,192,62621,1,8,0:0:0:0:
256,192,62792,1,8,0:0:0:0:
256,192,62878,1,0,0:0:0:0:
256,192,63050,1,0,0:0:0:0:
256,192,63221,1,8,0:0:0:0:
256,192,63392,1,0,0:0:0:0:
256,192,63564,1,0,0:0:0:0:
256,192,63650,1,0,0:0:0:0:
256,192,63735,1,8,0:0:0:0:
256,192,63907,1,8,0:0:0:0:
256,192,64078,1,0,0:0:0:0:
256,192,64164,1,0,0:0:0:0:
256,192,64335,1,8,0:0:0:0:
256,192,64421,1,0,0:0:0:0:
256,192,64507,1,0,0:0:0:0:
256,192,64592,1,8,0:0:0:0:
256,192,64678,1,8,0:0:0:0:
256,192,64764,1,0,0:0:0:0:
256,192,64850,1,0,0:0:0:0:
256,192,64935,1,8,0:0:0:0:
256,192,65107,1,0,0:0:0:0:
256,192,65192,1,8,0:0:0:0:
256,192,65278,1,8,0:0:0:0:
256,192,65364,1,0,0:0:0:0:
256,192,65535,1,8,0:0:0:0:
256,192,65621,1,0,0:0:0:0:
256,192,65792,1,0,0:0:0:0:
256,192,65964,1,8,0:0:0:0:
256,192,66135,1,8,0:0:0:0:
256,192,66307,1,0,0:0:0:0:
256,192,66392,1,8,0:0:0:0:
256,192,66478,1,8,0:0:0:0:
256,192,66650,1,8,0:0:0:0:
256,192,66821,1,8,0:0:0:0:
256,192,66907,1,0,0:0:0:0:
256,192,66992,1,0,0:0:0:0:
256,192,67078,1,8,0:0:0:0:
256,192,67164,1,8,0:0:0:0:
256,192,67250,1,0,0:0:0:0:
256,192,67335,1,8,0:0:0:0:
256,192,67507,1,8,0:0:0:0:
256,192,67678,1,4,0:0:0:0:
256,192,67850,1,8,0:0:0:0:
256,192,67935,1,8,0:0:0:0:
256,192,68021,1,0,0:0:0:0:
256,192,68107,1,8,0:0:0:0:
256,192,68278,1,8,0:0:0:0:
256,192,68364,1,0,0:0:0:0:
256,192,68535,1,0,0:0:0:0:
256,192,68707,1,8,0:0:0:0:
256,192,68878,1,0,0:0:0:0:
256,192,69050,1,0,0:0:0:0:
256,192,69135,1,0,0:0:0:0:
256,192,69221,1,8,0:0:0:0:
256,192,69392,1,8,0:0:0:0:
256,192,69564,1,0,0:0:0:0:
256,192,69735,1,8,0:0:0:0:
256,192,69821,1,8,0:0:0:0:
256,192,69907,1,0,0:0:0:0:
256,192,69992,1,0,0:0:0:0:
256,192,70078,1,8,0:0:0:0:
256,192,70250,1,0,0:0:0:0:
256,192,70421,1,12,0:0:0:0:
256,192,70592,1,0,0:0:0:0:
256,192,70678,1,8,0:0:0:0:
256,192,70764,1,8,0:0:0:0:
256,192,70850,1,0,0:0:0:0:
256,192,71021,1,8,0:0:0:0:
256,192,71107,1,0,0:0:0:0:
256,192,71278,1,0,0:0:0:0:
256,192,71450,1,8,0:0:0:0:
256,192,71621,1,8,0:0:0:0:
256,192,71792,1,0,0:0:0:0:
256,192,71878,1,0,0:0:0:0:
256,192,71964,1,8,0:0:0:0:
256,192,72135,1,8,0:0:0:0:
256,192,72307,1,8,0:0:0:0:
256,192,72392,1,0,0:0:0:0:
256,192,72478,1,0,0:0:0:0:
256,192,72564,1,8,0:0:0:0:
256,192,72650,1,8,0:0:0:0:
256,192,72735,1,0,0:0:0:0:
256,192,72821,1,8,0:0:0:0:
256,192,72907,1,8,0:0:0:0:
256,192,72992,1,0,0:0:0:0:
256,192,73164,1,4,0:0:0:0:
256,192,73335,1,8,0:0:0:0:
256,192,73421,1,8,0:0:0:0:
256,192,73507,1,0,0:0:0:0:
256,192,73592,1,8,0:0:0:0:
256,192,73764,1,8,0:0:0:0:
256,192,73850,1,0,0:0:0:0:
256,192,74021,1,0,0:0:0:0:
256,192,74192,1,8,0:0:0:0:
256,192,74364,1,0,0:0:0:0:
256,192,74535,1,0,0:0:0:0:
256,192,74621,1,0,0:0:0:0:
256,192,74707,1,8,0:0:0:0:
256,192,74878,1,8,0:0:0:0:
256,192,75050,1,0,0:0:0:0:
256,192,75135,1,0,0:0:0:0:
256,192,75221,1,8,0:0:0:0:
256,192,75307,1,8,0:0:0:0:
256,192,75392,1,0,0:0:0:0:
256,192,75478,1,0,0:0:0:0:
256,192,75564,1,8,0:0:0:0:
256,192,75735,1,0,0:0:0:0:
256,192,75907,1,8,0:0:0:0:
256,192,75992,1,8,0:0:0:0:
256,192,76078,1,0,0:0:0:0:
256,192,76164,1,8,0:0:0:0:
256,192,76250,1,0,0:0:0:0:
256,192,76335,1,0,0:0:0:0:
256,192,76421,1,8,0:0:0:0:
256,192,76507,1,8,0:0:0:0:
256,192,76592,1,0,0:0:0:0:
256,192,76678,1,0,0:0:0:0:
256,192,76764,1,8,0:0:0:0:
256,192,76850,1,0,0:0:0:0:
256,192,76935,1,8,0:0:0:0:
256,192,77107,1,4,0:0:0:0:
256,192,78307,1,12,0:0:0:0:
256,192,78650,1,0,0:0:0:0:
256,192,78821,1,0,0:0:0:0:
256,192,79164,1,8,0:0:0:0:
256,192,79335,1,8,0:0:0:0:
256,192,79507,1,8,0:0:0:0:
256,192,79678,1,0,0:0:0:0:
256,192,79850,1,8,0:0:0:0:
256,192,79935,1,8,0:0:0:0:
256,192,80021,1,8,0:0:0:0:
256,192,80192,1,0,0:0:0:0:
256,192,80364,1,8,0:0:0:0:
256,192,80535,1,8,0:0:0:0:
256,192,80707,1,0,0:0:0:0:
256,192,80878,1,0,0:0:0:0:
256,192,81050,1,8,0:0:0:0:
256,192,81221,1,8,0:0:0:0:
256,192,81392,1,0,0:0:0:0:
256,192,81564,1,0,0:0:0:0:
256,192,81735,1,0,0:0:0:0:
256,192,81907,1,8,0:0:0:0:
256,192,82078,1,8,0:0:0:0:
256,192,82250,1,8,0:0:0:0:
256,192,82421,1,0,0:0:0:0:
256,192,82592,1,8,0:0:0:0:
256,192,82678,1,8,0:0:0:0:
256,192,82764,1,8,0:0:0:0:
256,192,82935,1,0,0:0:0:0:
256,192,83107,1,8,0:0:0:0:
256,192,83278,1,0,0:0:0:0:
256,192,83450,1,8,0:0:0:0:
256,192,83535,1,8,0:0:0:0:
256,192,83621,1,0,0:0:0:0:
256,192,83707,1,0,0:0:0:0:
256,192,83792,1,8,0:0:0:0:
256,192,83964,1,0,0:0:0:0:
256,192,84135,1,4,0:0:0:0:
256,192,84392,1,8,0:0:0:0:
256,192,84478,1,0,0:0:0:0:
256,192,84650,1,8,0:0:0:0:
256,192,84821,1,0,0:0:0:0:
256,192,84907,1,0,0:0:0:0:
256,192,84992,1,8,0:0:0:0:
256,192,85078,1,8,0:0:0:0:
256,192,85164,1,0,0:0:0:0:
256,192,85335,1,8,0:0:0:0:
256,192,85507,1,0,0:0:0:0:
256,192,85678,1,8,0:0:0:0:
256,192,85764,1,8,0:0:0:0:
256,192,85850,1,0,0:0:0:0:
256,192,86021,1,0,0:0:0:0:
256,192,86192,1,8,0:0:0:0:
256,192,86535,1,8,0:0:0:0:
256,192,86707,1,8,0:0:0:0:
256,192,86878,1,0,0:0:0:0:
256,192,87050,1,0,0:0:0:0:
256,192,87135,1,0,0:0:0:0:
256,192,87221,1,8,0:0:0:0:
256,192,87392,1,0,0:0:0:0:
256,192,87564,1,8,0:0:0:0:
256,192,87650,1,8,0:0:0:0:
256,192,87735,1,0,0:0:0:0:
256,192,87907,1,8,0:0:0:0:
256,192,88078,1,4,0:0:0:0:
256,192,88421,1,4,0:0:0:0:
256,192,88592,1,12,0:0:0:0:
256,192,88764,1,12,0:0:0:0:
256,192,88935,1,4,0:0:0:0:
256,192,89278,1,8,0:0:0:0:
256,192,89321,1,8,0:0:0:0:
256,192,89450,1,8,0:0:0:0:
256,192,89492,1,8,0:0:0:0:
256,192,89621,1,4,0:0:0:0:
256,192,89878,1,8,0:0:0:0:
256,192,89964,1,0,0:0:0:0:
256,192,90135,1,8,0:0:0:0:
256,192,90307,1,0,0:0:0:0:
256,192,90392,1,0,0:0:0:0:
256,192,90478,1,8,0:0:0:0:
256,192,90564,1,8,0:0:0:0:
256,192,90650,1,0,0:0:0:0:
256,192,90821,1,8,0:0:0:0:
256,192,90992,1,0,0:0:0:0:
256,192,91164,1,8,0:0:0:0:
256,192,91250,1,8,0:0:0:0:
256,192,91335,1,8,0:0:0:0:
256,192,91507,1,0,0:0:0:0:
256,192,91678,1,8,0:0:0:0:
256,192,91764,1,8,0:0:0:0:
256,192,91850,1,0,0:0:0:0:
256,192,91935,1,0,0:0:0:0:
256,192,92021,1,8,0:0:0:0:
256,192,92192,1,0,0:0:0:0:
256,192,92364,1,8,0:0:0:0:
256,192,92450,1,8,0:0:0:0:
256,192,92535,1,0,0:0:0:0:
256,192,92707,1,0,0:0:0:0:
256,192,92878,1,8,0:0:0:0:
256,192,92964,1,8,0:0:0:0:
256,192,93050,1,0,0:0:0:0:
256,192,93135,1,0,0:0:0:0:
256,192,93221,1,0,0:0:0:0:
256,192,93392,1,8,0:0:0:0:
256,192,93478,1,8,0:0:0:0:
256,192,93564,1,0,0:0:0:0:
256,192,93735,1,8,0:0:0:0:
256,192,93821,1,8,0:0:0:0:
256,192,93907,1,0,0:0:0:0:
256,192,93992,1,0,0:0:0:0:
256,192,94078,1,8,0:0:0:0:
256,192,94164,1,0,0:0:0:0:
256,192,94250,1,8,0:0:0:0:
256,192,94335,1,8,0:0:0:0:
256,192,94421,1,0,0:0:0:0:
256,192,94764,1,8,0:0:0:0:
256,192,94935,1,8,0:0:0:0:
256,192,95107,1,4,0:0:0:0:
256,192,95364,1,0,0:0:0:0:
256,192,95450,1,8,0:0:0:0:
256,192,95621,1,0,0:0:0:0:
256,192,95792,1,8,0:0:0:0:
256,192,95878,1,8,0:0:0:0:
256,192,95964,1,0,0:0:0:0:
256,192,96135,1,8,0:0:0:0:
256,192,96307,1,0,0:0:0:0:
256,192,96392,1,0,0:0:0:0:
256,192,96478,1,8,0:0:0:0:
256,192,96650,1,0,0:0:0:0:
256,192,96821,1,8,0:0:0:0:
256,192,96992,1,0,0:0:0:0:
256,192,97164,1,8,0:0:0:0:
256,192,97250,1,8,0:0:0:0:
256,192,97335,1,0,0:0:0:0:
256,192,97421,1,0,0:0:0:0:
256,192,97507,1,8,0:0:0:0:
256,192,97678,1,0,0:0:0:0:
256,192,97850,1,8,0:0:0:0:
256,192,97935,1,8,0:0:0:0:
256,192,98021,1,0,0:0:0:0:
256,192,98107,1,0,0:0:0:0:
256,192,98192,1,8,0:0:0:0:
256,192,98278,1,0,0:0:0:0:
256,192,98364,1,8,0:0:0:0:
256,192,98450,1,8,0:0:0:0:
256,192,98535,1,0,0:0:0:0:
256,192,98621,1,0,0:0:0:0:
256,192,98707,1,8,0:0:0:0:
256,192,98792,1,0,0:0:0:0:
256,192,98878,1,8,0:0:0:0:
256,192,98964,1,8,0:0:0:0:
256,192,99050,1,0,0:0:0:0:
256,192,99221,1,12,0:0:0:0:
256,192,99564,1,12,0:0:0:0:
256,192,99907,1,12,0:0:0:0:
256,192,100592,1,4,0:0:0:0:
256,192,100935,1,8,0:0:0:0:
256,192,101278,1,0,0:0:0:0:
256,192,101621,1,8,0:0:0:0:
256,192,101792,1,0,0:0:0:0:
256,192,102135,1,0,0:0:0:0:
256,192,102307,1,8,0:0:0:0:
256,192,102478,1,0,0:0:0:0:
256,192,102650,1,0,0:0:0:0:
256,192,102992,1,12,0:0:0:0:
256,192,103164,1,12,0:0:0:0:
256,192,103335,1,12,0:0:0:0:
256,192,103678,1,8,0:0:0:0:
256,192,104021,1,0,0:0:0:0:
256,192,104364,1,8,0:0:0:0:
256,192,104535,1,0,0:0:0:0:
256,192,104878,1,0,0:0:0:0:
256,192,105050,1,8,0:0:0:0:
256,192,105221,1,0,0:0:0:0:
256,192,105392,1,0,0:0:0:0:
256,192,105735,1,12,0:0:0:0:
256,192,105907,1,12,0:0:0:0:
256,192,106078,1,12,0:0:0:0:
256,192,106421,1,8,0:0:0:0:
256,192,106592,1,0,0:0:0:0:
256,192,106678,1,0,0:0:0:0:
256,192,106764,1,8,0:0:0:0:
256,192,106935,1,8,0:0:0:0:
256,192,107107,1,0,0:0:0:0:
256,192,107278,1,8,0:0:0:0:
256,192,107450,1,8,0:0:0:0:
256,192,107621,1,0,0:0:0:0:
256,192,107707,1,0,0:0:0:0:
256,192,107792,1,8,0:0:0:0:
256,192,107878,1,8,0:0:0:0:
256,192,107964,1,0,0:0:0:0:
256,192,108135,1,8,0:0:0:0:
256,192,108478,1,8,0:0:0:0:
256,192,108650,1,0,0:0:0:0:
256,192,108821,1,0,0:0:0:0:
256,192,108992,1,0,0:0:0:0:
256,192,109078,1,0,0:0:0:0:
256,192,109164,1,8,0:0:0:0:
256,192,109335,1,0,0:0:0:0:
256,192,109507,1,8,0:0:0:0:
256,192,109592,1,8,0:0:0:0:
256,192,109678,1,8,0:0:0:0:
256,192,109850,1,0,0:0:0:0:
256,192,110021,1,8,0:0:0:0:
256,192,110364,1,0,0:0:0:0:
256,192,110450,1,0,0:0:0:0:
256,192,110535,1,8,0:0:0:0:
256,192,110707,1,8,0:0:0:0:
256,192,110878,1,0,0:0:0:0:
256,192,111221,1,8,0:0:0:0:
256,192,111307,1,8,0:0:0:0:
256,192,111392,1,8,0:0:0:0:
256,192,111564,1,4,0:0:0:0:
256,192,111907,1,8,0:0:0:0:
256,192,112250,1,0,0:0:0:0:
256,192,112592,1,8,0:0:0:0:
256,192,112764,1,0,0:0:0:0:
256,192,113107,1,0,0:0:0:0:
256,192,113278,1,8,0:0:0:0:
256,192,113450,1,8,0:0:0:0:
256,192,113621,1,0,0:0:0:0:
256,192,113964,1,12,0:0:0:0:
256,192,114135,1,12,0:0:0:0:
256,192,114307,1,12,0:0:0:0:
256,192,114650,1,8,0:0:0:0:
256,192,114821,1,8,0:0:0:0:
256,192,114992,1,0,0:0:0:0:
256,192,115335,1,8,0:0:0:0:
256,192,115507,1,0,0:0:0:0:
256,192,115850,1,0,0:0:0:0:
256,192,116021,1,8,0:0:0:0:
256,192,116192,1,8,0:0:0:0:
256,192,116364,1,0,0:0:0:0:
256,192,116707,1,8,0:0:0:0:
256,192,116878,1,8,0:0:0:0:
256,192,117050,1,4,0:0:0:0:
256,192,117392,1,0,0:0:0:0:
256,192,117564,1,8,0:0:0:0:
256,192,117735,1,0,0:0:0:0:
256,192,117907,1,8,0:0:0:0:
256,192,117992,1,8,0:0:0:0:
256,192,118078,1,0,0:0:0:0:
256,192,118250,1,8,0:0:0:0:
256,192,118421,1,0,0:0:0:0:
256,192,118592,1,0,0:0:0:0:
256,192,118678,1,0,0:0:0:0:
256,192,118764,1,8,0:0:0:0:
256,192,118935,1,0,0:0:0:0:
256,192,119107,1,8,0:0:0:0:
256,192,119278,1,0,0:0:0:0:
256,192,119364,1,0,0:0:0:0:
256,192,119450,1,8,0:0:0:0:
256,192,119621,1,0,0:0:0:0:
256,192,119792,1,8,0:0:0:0:
256,192,119878,1,8,0:0:0:0:
256,192,119964,1,0,0:0:0:0:
256,192,120050,1,0,0:0:0:0:
256,192,120135,1,8,0:0:0:0:
256,192,120307,1,8,0:0:0:0:
256,192,120478,1,0,0:0:0:0:
256,192,120650,1,8,0:0:0:0:
256,192,120735,1,8,0:0:0:0:
256,192,120821,1,0,0:0:0:0:
256,192,120992,1,8,0:0:0:0:
256,192,121164,1,0,0:0:0:0:
256,192,121335,1,0,0:0:0:0:
256,192,121421,1,0,0:0:0:0:
256,192,121507,1,8,0:0:0:0:
256,192,121592,1,0,0:0:0:0:
256,192,121678,1,8,0:0:0:0:
256,192,121764,1,8,0:0:0:0:
256,192,121850,1,0,0:0:0:0:
256,192,122021,1,0,0:0:0:0:
256,192,122192,1,8,0:0:0:0:
256,192,122364,1,8,0:0:0:0:
256,192,122535,1,0,0:0:0:0:
256,192,122707,1,0,0:0:0:0:
256,192,122878,1,8,0:0:0:0:
256,192,123050,1,0,0:0:0:0:
256,192,123221,1,8,0:0:0:0:
256,192,123307,1,8,0:0:0:0:
256,192,123392,1,0,0:0:0:0:
256,192,123478,1,8,0:0:0:0:
256,192,123564,1,0,0:0:0:0:
256,192,123650,1,0,0:0:0:0:
256,192,123735,1,8,0:0:0:0:
256,192,123821,1,8,0:0:0:0:
256,192,123907,1,0,0:0:0:0:
256,192,124078,12,0,124764,0:0:0:0:
256,192,124935,5,12,0:0:0:0:
256,192,125278,1,4,0:0:0:0:
256,192,125535,1,8,0:0:0:0:
256,192,125620,1,0,0:0:0:0:
256,192,125792,1,8,0:0:0:0:
256,192,125963,1,0,0:0:0:0:
256,192,126135,1,8,0:0:0:0:
256,192,126220,1,8,0:0:0:0:
256,192,126306,1,0,0:0:0:0:
256,192,126478,1,0,0:0:0:0:
256,192,126649,1,8,0:0:0:0:
256,192,126820,1,8,0:0:0:0:
256,192,126906,1,8,0:0:0:0:
256,192,126992,1,0,0:0:0:0:
256,192,127078,1,0,0:0:0:0:
256,192,127163,1,8,0:0:0:0:
256,192,127249,1,0,0:0:0:0:
256,192,127335,1,8,0:0:0:0:
256,192,127678,1,0,0:0:0:0:
256,192,128020,1,8,0:0:0:0:
256,192,128278,1,0,0:0:0:0:
256,192,128363,1,8,0:0:0:0:
256,192,128535,1,0,0:0:0:0:
256,192,128706,1,8,0:0:0:0:
256,192,128792,1,8,0:0:0:0:
256,192,128878,1,0,0:0:0:0:
256,192,129049,1,8,0:0:0:0:
256,192,129220,1,0,0:0:0:0:
256,192,129306,1,0,0:0:0:0:
256,192,129392,1,8,0:0:0:0:
256,192,129478,1,8,0:0:0:0:
256,192,129563,1,0,0:0:0:0:
256,192,129649,1,0,0:0:0:0:
256,192,129735,1,8,0:0:0:0:
256,192,129906,1,0,0:0:0:0:
256,192,130078,1,8,0:0:0:0:
256,192,130420,1,8,0:0:0:0:
256,192,130506,1,8,0:0:0:0:
256,192,130592,1,8,0:0:0:0:
256,192,130763,1,0,0:0:0:0:
256,192,131020,1,8,0:0:0:0:
256,192,131106,1,0,0:0:0:0:
256,192,131278,1,8,0:0:0:0:
256,192,131449,1,0,0:0:0:0:
256,192,131620,1,8,0:0:0:0:
256,192,131706,1,8,0:0:0:0:
256,192,131792,1,0,0:0:0:0:
256,192,131963,1,0,0:0:0:0:
256,192,132135,1,8,0:0:0:0:
256,192,132306,1,0,0:0:0:0:
256,192,132392,1,0,0:0:0:0:
256,192,132478,1,8,0:0:0:0:
256,192,132649,1,0,0:0:0:0:
256,192,132820,1,8,0:0:0:0:
256,192,132906,1,0,0:0:0:0:
256,192,132992,1,0,0:0:0:0:
256,192,133078,1,0,0:0:0:0:
256,192,133163,1,8,0:0:0:0:
256,192,133335,1,0,0:0:0:0:
256,192,133506,1,8,0:0:0:0:
256,192,133592,1,8,0:0:0:0:
256,192,133678,1,0,0:0:0:0:
256,192,133763,1,0,0:0:0:0:
256,192,133849,1,8,0:0:0:0:
256,192,134020,1,0,0:0:0:0:
256,192,134192,1,8,0:0:0:0:
256,192,134278,1,8,0:0:0:0:
256,192,134363,1,0,0:0:0:0:
256,192,134535,1,8,0:0:0:0:
256,192,134706,1,4,0:0:0:0:
256,192,135049,1,4,0:0:0:0:
256,192,135220,1,12,0:0:0:0:
256,192,135392,1,12,0:0:0:0:
256,192,135563,1,4,0:0:0:0:
256,192,135906,1,12,0:0:0:0:
256,192,136249,1,4,0:0:0:0:
256,192,136506,1,8,0:0:0:0:
256,192,136592,1,0,0:0:0:0:
256,192,136763,1,8,0:0:0:0:
256,192,136935,1,0,0:0:0:0:
256,192,137106,1,8,0:0:0:0:
256,192,137192,1,8,0:0:0:0:
256,192,137278,1,0,0:0:0:0:
256,192,137449,1,0,0:0:0:0:
256,192,137620,1,8,0:0:0:0:
256,192,137792,1,8,0:0:0:0:
256,192,137878,1,8,0:0:0:0:
256,192,137963,1,0,0:0:0:0:
256,192,138049,1,0,0:0:0:0:
256,192,138135,1,8,0:0:0:0:
256,192,138220,1,0,0:0:0:0:
256,192,138306,1,8,0:0:0:0:
256,192,138649,1,0,0:0:0:0:
256,192,138992,1,12,0:0:0:0:
256,192,139249,1,0,0:0:0:0:
256,192,139335,1,8,0:0:0:0:
256,192,139506,1,0,0:0:0:0:
256,192,139678,1,8,0:0:0:0:
256,192,139763,1,8,0:0:0:0:
256,192,139849,1,0,0:0:0:0:
256,192,140020,1,8,0:0:0:0:
256,192,140192,1,0,0:0:0:0:
256,192,140278,1,0,0:0:0:0:
256,192,140363,1,8,0:0:0:0:
256,192,140449,1,8,0:0:0:0:
256,192,140535,1,0,0:0:0:0:
256,192,140620,1,0,0:0:0:0:
256,192,140706,1,8,0:0:0:0:
256,192,140878,1,0,0:0:0:0:
256,192,141049,1,8,0:0:0:0:
256,192,141392,1,8,0:0:0:0:
256,192,141563,1,8,0:0:0:0:
256,192,141735,1,4,0:0:0:0:
256,192,142078,1,8,0:0:0:0:
256,192,142420,1,8,0:0:0:0:
256,192,142763,1,8,0:0:0:0:
256,192,142935,1,4,0:0:0:0:
256,192,143278,1,4,0:0:0:0:
256,192,143620,1,4,0:0:0:0:
256,192,143963,1,4,0:0:0:0:
256,192,144135,1,12,0:0:0:0:
256,192,144306,1,12,0:0:0:0:
256,192,144478,1,0,0:0:0:0:
256,192,144649,1,0,0:0:0:0:
256,192,144820,1,8,0:0:0:0:
256,192,144992,1,0,0:0:0:0:
256,192,145163,1,0,0:0:0:0:
256,192,145335,1,8,0:0:0:0:
256,192,145506,1,0,0:0:0:0:
256,192,145678,1,0,0:0:0:0:
256,192,146020,1,0,0:0:0:0:
256,192,146192,1,0,0:0:0:0:
256,192,146878,1,12,0:0:0:0:
256,192,147220,1,4,0:0:0:0:
256,192,147392,1,8,0:0:0:0:
256,192,147478,1,8,0:0:0:0:
256,192,147563,1,0,0:0:0:0:
256,192,147649,1,8,0:0:0:0:
256,192,147820,1,8,0:0:0:0:
256,192,147906,1,0,0:0:0:0:
256,192,148078,1,0,0:0:0:0:
256,192,148249,1,8,0:0:0:0:
256,192,148420,1,0,0:0:0:0:
256,192,148592,1,0,0:0:0:0:
256,192,148678,1,0,0:0:0:0:
256,192,148763,1,8,0:0:0:0:
256,192,148935,1,8,0:0:0:0:
256,192,149106,1,0,0:0:0:0:
256,192,149278,1,8,0:0:0:0:
256,192,149363,1,8,0:0:0:0:
256,192,149449,1,0,0:0:0:0:
256,192,149535,1,0,0:0:0:0:
256,192,149620,1,8,0:0:0:0:
256,192,149792,1,0,0:0:0:0:
256,192,149963,1,8,0:0:0:0:
256,192,150135,1,0,0:0:0:0:
256,192,150220,1,8,0:0:0:0:
256,192,150306,1,8,0:0:0:0:
256,192,150392,1,0,0:0:0:0:
256,192,150563,1,8,0:0:0:0:
256,192,150649,1,0,0:0:0:0:
256,192,150820,1,0,0:0:0:0:
256,192,150992,1,0,0:0:0:0:
256,192,151163,1,8,0:0:0:0:
256,192,151335,1,0,0:0:0:0:
256,192,151420,1,0,0:0:0:0:
256,192,151506,1,8,0:0:0:0:
256,192,151678,1,8,0:0:0:0:
256,192,151849,1,8,0:0:0:0:
256,192,151935,1,0,0:0:0:0:
256,192,152020,1,0,0:0:0:0:
256,192,152106,1,8,0:0:0:0:
256,192,152192,1,8,0:0:0:0:
256,192,152278,1,0,0:0:0:0:
256,192,152363,1,8,0:0:0:0:
256,192,152535,1,0,0:0:0:0:
256,192,152620,1,8,0:0:0:0:
256,192,152706,1,0,0:0:0:0:
256,192,152878,1,8,0:0:0:0:
256,192,152963,1,8,0:0:0:0:
256,192,153049,1,0,0:0:0:0:
256,192,153135,1,8,0:0:0:0:
256,192,153306,1,8,0:0:0:0:
256,192,153392,1,0,0:0:0:0:
256,192,153563,1,0,0:0:0:0:
256,192,153735,1,8,0:0:0:0:
256,192,153906,1,0,0:0:0:0:
256,192,154078,1,0,0:0:0:0:
256,192,154163,1,0,0:0:0:0:
256,192,154249,1,8,0:0:0:0:
256,192,154420,1,8,0:0:0:0:
256,192,154592,1,0,0:0:0:0:
256,192,154678,1,0,0:0:0:0:
256,192,154849,1,8,0:0:0:0:
256,192,154935,1,0,0:0:0:0:
256,192,155020,1,0,0:0:0:0:
256,192,155106,1,8,0:0:0:0:
256,192,155192,1,8,0:0:0:0:
256,192,155278,1,0,0:0:0:0:
256,192,155363,1,0,0:0:0:0:
256,192,155449,1,8,0:0:0:0:
256,192,155620,1,0,0:0:0:0:
256,192,155706,1,8,0:0:0:0:
256,192,155792,1,8,0:0:0:0:
256,192,155878,1,0,0:0:0:0:
256,192,156049,1,8,0:0:0:0:
256,192,156135,1,0,0:0:0:0:
256,192,156306,1,0,0:0:0:0:
256,192,156478,1,8,0:0:0:0:
256,192,156649,1,8,0:0:0:0:
256,192,156820,1,0,0:0:0:0:
256,192,156906,1,8,0:0:0:0:
256,192,156992,1,8,0:0:0:0:
256,192,157163,1,8,0:0:0:0:
256,192,157335,1,8,0:0:0:0:
256,192,157420,1,0,0:0:0:0:
256,192,157506,1,0,0:0:0:0:
256,192,157592,1,8,0:0:0:0:
256,192,157678,1,8,0:0:0:0:
256,192,157763,1,0,0:0:0:0:
256,192,157849,1,8,0:0:0:0:
256,192,158020,1,8,0:0:0:0:
256,192,158192,1,4,0:0:0:0:
256,192,158363,1,8,0:0:0:0:
256,192,158449,1,8,0:0:0:0:
256,192,158535,1,0,0:0:0:0:
256,192,158620,1,8,0:0:0:0:
256,192,158792,1,8,0:0:0:0:
256,192,158878,1,0,0:0:0:0:
256,192,159049,1,0,0:0:0:0:
256,192,159220,1,8,0:0:0:0:
256,192,159392,1,0,0:0:0:0:
256,192,159563,1,0,0:0:0:0:
256,192,159649,1,0,0:0:0:0:
256,192,159735,1,8,0:0:0:0:
256,192,159906,1,8,0:0:0:0:
256,192,160078,1,0,0:0:0:0:
256,192,160249,1,8,0:0:0:0:
256,192,160335,1,8,0:0:0:0:
256,192,160420,1,0,0:0:0:0:
256,192,160506,1,0,0:0:0:0:
256,192,160592,1,8,0:0:0:0:
256,192,160763,1,0,0:0:0:0:
256,192,160935,1,12,0:0:0:0:
256,192,161106,1,0,0:0:0:0:
256,192,161192,1,8,0:0:0:0:
256,192,161278,1,8,0:0:0:0:
256,192,161363,1,0,0:0:0:0:
256,192,161535,1,8,0:0:0:0:
256,192,161620,1,0,0:0:0:0:
256,192,161792,1,0,0:0:0:0:
256,192,161963,1,8,0:0:0:0:
256,192,162135,1,8,0:0:0:0:
256,192,162306,1,0,0:0:0:0:
256,192,162392,1,0,0:0:0:0:
256,192,162478,1,8,0:0:0:0:
256,192,162649,1,8,0:0:0:0:
256,192,162820,1,8,0:0:0:0:
256,192,162906,1,0,0:0:0:0:
256,192,162992,1,0,0:0:0:0:
256,192,163078,1,8,0:0:0:0:
256,192,163163,1,8,0:0:0:0:
256,192,163249,1,0,0:0:0:0:
256,192,163335,1,8,0:0:0:0:
256,192,163420,1,8,0:0:0:0:
256,192,163506,1,0,0:0:0:0:
256,192,163678,1,4,0:0:0:0:
256,192,163849,1,8,0:0:0:0:
256,192,163935,1,8,0:0:0:0:
256,192,164020,1,0,0:0:0:0:
256,192,164106,1,8,0:0:0:0:
256,192,164278,1,8,0:0:0:0:
256,192,164363,1,0,0:0:0:0:
256,192,164535,1,0,0:0:0:0:
256,192,164706,1,8,0:0:0:0:
256,192,164878,1,0,0:0:0:0:
256,192,165049,1,0,0:0:0:0:
256,192,165135,1,0,0:0:0:0:
256,192,165220,1,8,0:0:0:0:
256,192,165392,1,8,0:0:0:0:
256,192,165563,1,0,0:0:0:0:
256,192,165649,1,0,0:0:0:0:
256,192,165735,1,8,0:0:0:0:
256,192,165820,1,8,0:0:0:0:
256,192,165906,1,0,0:0:0:0:
256,192,165992,1,0,0:0:0:0:
256,192,166078,1,8,0:0:0:0:
256,192,166249,1,0,0:0:0:0:
256,192,166420,1,8,0:0:0:0:
256,192,166506,1,8,0:0:0:0:
256,192,166592,1,0,0:0:0:0:
256,192,166678,1,8,0:0:0:0:
256,192,166763,1,0,0:0:0:0:
256,192,166849,1,0,0:0:0:0:
256,192,166935,1,8,0:0:0:0:
256,192,167020,1,8,0:0:0:0:
256,192,167106,1,0,0:0:0:0:
256,192,167192,1,0,0:0:0:0:
256,192,167278,1,8,0:0:0:0:
256,192,167363,1,0,0:0:0:0:
256,192,167449,1,8,0:0:0:0:
256,192,167620,1,4,0:0:0:0:
256,192,168820,1,12,0:0:0:0:
256,192,169163,1,4,0:0:0:0:
256,192,169420,1,8,0:0:0:0:
256,192,169506,1,0,0:0:0:0:
256,192,169678,1,8,0:0:0:0:
256,192,169849,1,0,0:0:0:0:
256,192,170020,1,8,0:0:0:0:
256,192,170106,1,8,0:0:0:0:
256,192,170192,1,0,0:0:0:0:
256,192,170363,1,0,0:0:0:0:
256,192,170535,1,8,0:0:0:0:
256,192,170706,1,0,0:0:0:0:
256,192,170792,1,0,0:0:0:0:
256,192,170878,1,8,0:0:0:0:
256,192,171049,1,0,0:0:0:0:
256,192,171220,1,8,0:0:0:0:
256,192,171306,1,8,0:0:0:0:
256,192,171392,1,0,0:0:0:0:
256,192,171478,1,0,0:0:0:0:
256,192,171563,1,8,0:0:0:0:
256,192,171735,1,0,0:0:0:0:
256,192,171906,1,8,0:0:0:0:
256,192,171992,1,8,0:0:0:0:
256,192,172078,1,8,0:0:0:0:
256,192,172249,1,0,0:0:0:0:
256,192,172420,1,8,0:0:0:0:
256,192,172506,1,8,0:0:0:0:
256,192,172592,1,8,0:0:0:0:
256,192,172763,1,0,0:0:0:0:
256,192,172935,1,8,0:0:0:0:
256,192,173106,1,0,0:0:0:0:
256,192,173192,1,0,0:0:0:0:
256,192,173278,1,8,0:0:0:0:
256,192,173363,1,8,0:0:0:0:
256,192,173449,1,0,0:0:0:0:
256,192,173620,1,8,0:0:0:0:
256,192,173792,1,0,0:0:0:0:
256,192,173963,1,8,0:0:0:0:
256,192,174306,1,8,0:0:0:0:
256,192,174478,1,8,0:0:0:0:
256,192,174563,1,8,0:0:0:0:
256,192,174649,1,0,0:0:0:0:
256,192,174906,1,8,0:0:0:0:
256,192,174992,1,0,0:0:0:0:
256,192,175163,1,8,0:0:0:0:
256,192,175335,1,0,0:0:0:0:
256,192,175420,1,0,0:0:0:0:
256,192,175506,1,8,0:0:0:0:
256,192,175678,1,0,0:0:0:0:
256,192,175849,1,8,0:0:0:0:
256,192,175935,1,8,0:0:0:0:
256,192,176020,1,0,0:0:0:0:
256,192,176106,1,0,0:0:0:0:
256,192,176192,1,8,0:0:0:0:
256,192,176278,1,0,0:0:0:0:
256,192,176363,1,8,0:0:0:0:
256,192,176535,1,0,0:0:0:0:
256,192,176706,1,8,0:0:0:0:
256,192,177049,1,8,0:0:0:0:
256,192,177220,1,0,0:0:0:0:
256,192,177306,1,0,0:0:0:0:
256,192,177392,1,8,0:0:0:0:
256,192,177563,1,0,0:0:0:0:
256,192,177735,1,8,0:0:0:0:
256,192,177906,1,0,0:0:0:0:
256,192,177992,1,0,0:0:0:0:
256,192,178078,1,8,0:0:0:0:
256,192,178163,1,8,0:0:0:0:
256,192,178249,1,0,0:0:0:0:
256,192,178335,1,0,0:0:0:0:
256,192,178420,1,8,0:0:0:0:
256,192,178592,1,4,0:0:0:0:
256,192,178935,1,4,0:0:0:0:
256,192,179106,1,12,0:0:0:0:
256,192,179278,1,12,0:0:0:0:
256,192,179449,1,4,0:0:0:0:
256,192,179792,1,0,0:0:0:0:
256,192,179835,1,8,0:0:0:0:
256,192,180135,1,4,0:0:0:0:
256,192,180392,1,8,0:0:0:0:
256,192,180478,1,0,0:0:0:0:
256,192,180649,1,8,0:0:0:0:
256,192,180820,1,0,0:0:0:0:
256,192,180906,1,0,0:0:0:0:
256,192,180992,1,8,0:0:0:0:
256,192,181078,1,8,0:0:0:0:
256,192,181163,1,0,0:0:0:0:
256,192,181335,1,8,0:0:0:0:
256,192,181506,1,0,0:0:0:0:
256,192,181678,1,8,0:0:0:0:
256,192,181763,1,8,0:0:0:0:
256,192,181849,1,8,0:0:0:0:
256,192,182020,1,0,0:0:0:0:
256,192,182192,1,8,0:0:0:0:
256,192,182278,1,8,0:0:0:0:
256,192,182363,1,0,0:0:0:0:
256,192,182449,1,8,0:0:0:0:
256,192,182535,1,8,0:0:0:0:
256,192,182706,1,0,0:0:0:0:
256,192,182878,1,0,0:0:0:0:
256,192,182963,1,0,0:0:0:0:
256,192,183049,1,8,0:0:0:0:
256,192,183220,1,0,0:0:0:0:
256,192,183392,1,0,0:0:0:0:
256,192,183478,1,0,0:0:0:0:
256,192,183563,1,8,0:0:0:0:
256,192,183649,1,8,0:0:0:0:
256,192,183735,1,0,0:0:0:0:
256,192,183906,1,0,0:0:0:0:
256,192,183992,1,0,0:0:0:0:
256,192,184078,1,8,0:0:0:0:
256,192,184249,1,0,0:0:0:0:
256,192,184335,1,0,0:0:0:0:
256,192,184420,1,8,0:0:0:0:
256,192,184506,1,0,0:0:0:0:
256,192,184592,1,8,0:0:0:0:
256,192,184678,1,8,0:0:0:0:
256,192,184763,1,0,0:0:0:0:
256,192,184849,1,8,0:0:0:0:
256,192,184935,1,0,0:0:0:0:
256,192,185278,1,8,0:0:0:0:
256,192,185449,1,8,0:0:0:0:
256,192,185620,1,4,0:0:0:0:
256,192,185878,1,0,0:0:0:0:
256,192,185963,1,8,0:0:0:0:
256,192,186135,1,8,0:0:0:0:
256,192,186306,1,0,0:0:0:0:
256,192,186392,1,0,0:0:0:0:
256,192,186478,1,8,0:0:0:0:
256,192,186649,1,0,0:0:0:0:
256,192,186820,1,8,0:0:0:0:
256,192,186906,1,8,0:0:0:0:
256,192,186992,1,0,0:0:0:0:
256,192,187163,1,0,0:0:0:0:
256,192,187335,1,8,0:0:0:0:
256,192,187506,1,0,0:0:0:0:
256,192,187678,1,8,0:0:0:0:
256,192,187763,1,8,0:0:0:0:
256,192,187849,1,0,0:0:0:0:
256,192,187935,1,0,0:0:0:0:
256,192,188020,1,8,0:0:0:0:
256,192,188192,1,0,0:0:0:0:
256,192,188363,1,8,0:0:0:0:
256,192,188449,1,8,0:0:0:0:
256,192,188535,1,0,0:0:0:0:
256,192,188620,1,8,0:0:0:0:
256,192,188706,1,0,0:0:0:0:
256,192,188792,1,0,0:0:0:0:
256,192,188878,1,8,0:0:0:0:
256,192,188963,1,8,0:0:0:0:
256,192,189049,1,0,0:0:0:0:
256,192,189135,1,0,0:0:0:0:
256,192,189220,1,8,0:0:0:0:
256,192,189306,1,0,0:0:0:0:
256,192,189392,1,8,0:0:0:0:
256,192,189478,1,8,0:0:0:0:
256,192,189563,1,0,0:0:0:0:
256,192,189735,1,12,0:0:0:0:
256,192,190078,1,12,0:0:0:0:
256,192,190249,1,0,0:0:0:0:
256,192,190420,1,12,0:0:0:0:
256,192,191106,1,4,0:0:0:0:
256,192,191449,1,8,0:0:0:0:
256,192,191792,1,0,0:0:0:0:
256,192,192135,1,8,0:0:0:0:
256,192,192306,1,0,0:0:0:0:
256,192,192649,1,0,0:0:0:0:
256,192,192820,1,8,0:0:0:0:
256,192,192992,1,0,0:0:0:0:
256,192,193163,1,0,0:0:0:0:
256,192,193506,1,12,0:0:0:0:
256,192,193678,1,12,0:0:0:0:
256,192,193849,1,12,0:0:0:0:
256,192,194192,1,8,0:0:0:0:
256,192,194535,1,0,0:0:0:0:
256,192,194878,1,8,0:0:0:0:
256,192,195049,1,0,0:0:0:0:
256,192,195392,1,0,0:0:0:0:
256,192,195563,1,8,0:0:0:0:
256,192,195735,1,0,0:0:0:0:
256,192,195906,1,0,0:0:0:0:
256,192,196249,1,12,0:0:0:0:
256,192,196420,1,12,0:0:0:0:
256,192,196592,1,12,0:0:0:0:
256,192,196935,1,8,0:0:0:0:
256,192,197106,1,0,0:0:0:0:
256,192,197192,1,0,0:0:0:0:
256,192,197278,1,8,0:0:0:0:
256,192,197449,1,8,0:0:0:0:
256,192,197620,1,0,0:0:0:0:
256,192,197792,1,8,0:0:0:0:
256,192,197963,1,8,0:0:0:0:
256,192,198135,1,0,0:0:0:0:
256,192,198220,1,0,0:0:0:0:
256,192,198306,1,8,0:0:0:0:
256,192,198392,1,8,0:0:0:0:
256,192,198478,1,0,0:0:0:0:
256,192,198649,1,8,0:0:0:0:
256,192,198992,1,8,0:0:0:0:
256,192,199163,1,0,0:0:0:0:
256,192,199335,1,8,0:0:0:0:
256,192,199506,1,0,0:0:0:0:
256,192,199592,1,0,0:0:0:0:
256,192,199678,1,8,0:0:0:0:
256,192,199849,1,0,0:0:0:0:
256,192,200020,1,8,0:0:0:0:
256,192,200106,1,8,0:0:0:0:
256,192,200192,1,0,0:0:0:0:
256,192,200363,1,0,0:0:0:0:
256,192,200535,1,8,0:0:0:0:
256,192,200878,1,8,0:0:0:0:
256,192,200963,1,8,0:0:0:0:
256,192,201049,1,8,0:0:0:0:
256,192,201220,1,8,0:0:0:0:
256,192,201392,1,0,0:0:0:0:
256,192,201735,1,8,0:0:0:0:
256,192,201820,1,8,0:0:0:0:
256,192,201906,1,8,0:0:0:0:
256,192,202078,1,4,0:0:0:0:
256,192,202420,1,8,0:0:0:0:
256,192,202763,1,0,0:0:0:0:
256,192,203106,1,8,0:0:0:0:
256,192,203278,1,0,0:0:0:0:
256,192,203620,1,0,0:0:0:0:
256,192,203792,1,8,0:0:0:0:
256,192,203963,1,8,0:0:0:0:
256,192,204135,1,0,0:0:0:0:
256,192,204478,1,12,0:0:0:0:
256,192,204649,1,12,0:0:0:0:
256,192,204820,1,12,0:0:0:0:
256,192,205163,1,8,0:0:0:0:
256,192,205335,1,8,0:0:0:0:
256,192,205506,1,0,0:0:0:0:
256,192,205849,1,8,0:0:0:0:
256,192,206020,1,0,0:0:0:0:
256,192,206363,1,0,0:0:0:0:
256,192,206535,1,8,0:0:0:0:
256,192,206706,1,8,0:0:0:0:
256,192,206878,1,0,0:0:0:0:
256,192,207220,1,8,0:0:0:0:
256,192,207392,1,8,0:0:0:0:
256,192,207563,1,4,0:0:0:0:
256,192,207906,1,0,0:0:0:0:
256,192,208078,1,8,0:0:0:0:
256,192,208249,1,0,0:0:0:0:
256,192,208420,1,8,0:0:0:0:
256,192,208506,1,8,0:0:0:0:
256,192,208592,1,0,0:0:0:0:
256,192,208763,1,8,0:0:0:0:
256,192,208935,1,0,0:0:0:0:
256,192,209106,1,0,0:0:0:0:
256,192,209192,1,0,0:0:0:0:
256,192,209278,1,8,0:0:0:0:
256,192,209449,1,0,0:0:0:0:
256,192,209620,1,8,0:0:0:0:
256,192,209792,1,0,0:0:0:0:
256,192,209878,1,0,0:0:0:0:
256,192,209963,1,8,0:0:0:0:
256,192,210135,1,0,0:0:0:0:
256,192,210306,1,8,0:0:0:0:
256,192,210392,1,8,0:0:0:0:
256,192,210478,1,0,0:0:0:0:
256,192,210563,1,8,0:0:0:0:
256,192,210649,1,8,0:0:0:0:
256,192,210820,1,8,0:0:0:0:
256,192,210992,1,0,0:0:0:0:
256,192,211163,1,8,0:0:0:0:
256,192,211249,1,8,0:0:0:0:
256,192,211335,1,0,0:0:0:0:
256,192,211506,1,8,0:0:0:0:
256,192,211678,1,0,0:0:0:0:
256,192,211849,1,8,0:0:0:0:
256,192,211935,1,0,0:0:0:0:
256,192,212020,1,8,0:0:0:0:
256,192,212106,1,8,0:0:0:0:
256,192,212192,1,0,0:0:0:0:
256,192,212278,1,8,0:0:0:0:
256,192,212363,1,0,0:0:0:0:
256,192,212535,1,0,0:0:0:0:
256,192,212706,1,8,0:0:0:0:
256,192,212878,1,8,0:0:0:0:
256,192,213049,1,0,0:0:0:0:
256,192,213220,1,0,0:0:0:0:
256,192,213392,1,8,0:0:0:0:
256,192,213563,1,0,0:0:0:0:
256,192,213735,1,8,0:0:0:0:
256,192,213820,1,8,0:0:0:0:
256,192,213906,1,0,0:0:0:0:
256,192,213992,1,8,0:0:0:0:
256,192,214078,1,0,0:0:0:0:
256,192,214163,1,0,0:0:0:0:
256,192,214249,1,8,0:0:0:0:
256,192,214335,1,8,0:0:0:0:
256,192,214420,1,0,0:0:0:0:
256,192,214592,12,0,215278,0:0:0:0:
256,192,215449,5,12,0:0:0:0:
256,192,215792,1,4,0:0:0:0:
256,192,216049,1,8,0:0:0:0:
256,192,216134,1,0,0:0:0:0:
256,192,216306,1,8,0:0:0:0:
256,192,216477,1,0,0:0:0:0:
256,192,216649,1,8,0:0:0:0:
256,192,216734,1,8,0:0:0:0:
256,192,216820,1,0,0:0:0:0:
256,192,216992,1,0,0:0:0:0:
256,192,217163,1,8,0:0:0:0:
256,192,217334,1,8,0:0:0:0:
256,192,217420,1,8,0:0:0:0:
256,192,217506,1,0,0:0:0:0:
256,192,217592,1,0,0:0:0:0:
256,192,217677,1,8,0:0:0:0:
256,192,217763,1,0,0:0:0:0:
256,192,217849,1,8,0:0:0:0:
256,192,218192,1,0,0:0:0:0:
256,192,218534,1,8,0:0:0:0:
256,192,218792,1,0,0:0:0:0:
256,192,218877,1,8,0:0:0:0:
256,192,219049,1,0,0:0:0:0:
256,192,219220,1,8,0:0:0:0:
256,192,219306,1,8,0:0:0:0:
256,192,219392,1,0,0:0:0:0:
256,192,219563,1,8,0:0:0:0:
256,192,219734,1,0,0:0:0:0:
256,192,219820,1,8,0:0:0:0:
256,192,219906,1,0,0:0:0:0:
256,192,219992,1,0,0:0:0:0:
256,192,220077,1,8,0:0:0:0:
256,192,220163,1,0,0:0:0:0:
256,192,220249,1,8,0:0:0:0:
256,192,220420,1,0,0:0:0:0:
256,192,220592,1,8,0:0:0:0:
256,192,220934,1,0,0:0:0:0:
256,192,221020,1,0,0:0:0:0:
256,192,221106,1,8,0:0:0:0:
256,192,221277,1,0,0:0:0:0:
256,192,221534,1,8,0:0:0:0:
256,192,221620,1,0,0:0:0:0:
256,192,221792,1,8,0:0:0:0:
256,192,221963,1,0,0:0:0:0:
256,192,222134,1,8,0:0:0:0:
256,192,222220,1,8,0:0:0:0:
256,192,222306,1,0,0:0:0:0:
256,192,222477,1,0,0:0:0:0:
256,192,222649,1,8,0:0:0:0:
256,192,222820,1,0,0:0:0:0:
256,192,222906,1,0,0:0:0:0:
256,192,222992,1,8,0:0:0:0:
256,192,223163,1,0,0:0:0:0:
256,192,223334,1,8,0:0:0:0:
256,192,223420,1,0,0:0:0:0:
256,192,223506,1,0,0:0:0:0:
256,192,223592,1,0,0:0:0:0:
256,192,223677,1,8,0:0:0:0:
256,192,223849,1,0,0:0:0:0:
256,192,224020,1,8,0:0:0:0:
256,192,224106,1,8,0:0:0:0:
256,192,224192,1,0,0:0:0:0:
256,192,224277,1,0,0:0:0:0:
256,192,224363,1,8,0:0:0:0:
256,192,224534,1,0,0:0:0:0:
256,192,224706,1,8,0:0:0:0:
256,192,224792,1,8,0:0:0:0:
256,192,224877,1,0,0:0:0:0:
256,192,225049,1,8,0:0:0:0:
256,192,225220,1,4,0:0:0:0:
256,192,225563,1,4,0:0:0:0:
256,192,225734,1,12,0:0:0:0:
256,192,225906,1,12,0:0:0:0:
256,192,226077,1,4,0:0:0:0:
256,192,226420,1,12,0:0:0:0:
256,192,226763,1,4,0:0:0:0:
256,192,227020,1,8,0:0:0:0:
256,192,227106,1,0,0:0:0:0:
256,192,227277,1,8,0:0:0:0:
256,192,227449,1,0,0:0:0:0:
256,192,227620,1,8,0:0:0:0:
256,192,227706,1,8,0:0:0:0:
256,192,227792,1,0,0:0:0:0:
256,192,227963,1,0,0:0:0:0:
256,192,228134,1,8,0:0:0:0:
256,192,228306,1,8,0:0:0:0:
256,192,228392,1,8,0:0:0:0:
256,192,228477,1,0,0:0:0:0:
256,192,228563,1,0,0:0:0:0:
256,192,228649,1,8,0:0:0:0:
256,192,228734,1,0,0:0:0:0:
256,192,228820,1,8,0:0:0:0:
256,192,229163,1,0,0:0:0:0:
256,192,229506,1,12,0:0:0:0:
256,192,229763,1,0,0:0:0:0:
256,192,229849,1,8,0:0:0:0:
256,192,230020,1,0,0:0:0:0:
256,192,230192,1,8,0:0:0:0:
256,192,230277,1,8,0:0:0:0:
256,192,230363,1,0,0:0:0:0:
256,192,230534,1,8,0:0:0:0:
256,192,230706,1,0,0:0:0:0:
256,192,230792,1,8,0:0:0:0:
256,192,230877,1,0,0:0:0:0:
256,192,230963,1,0,0:0:0:0:
256,192,231049,1,8,0:0:0:0:
256,192,231134,1,0,0:0:0:0:
256,192,231220,1,8,0:0:0:0:
256,192,231392,1,0,0:0:0:0:
256,192,231563,1,8,0:0:0:0:
256,192,231906,1,8,0:0:0:0:
256,192,232077,1,8,0:0:0:0:
256,192,232249,1,4,0:0:0:0:
256,192,232592,1,8,0:0:0:0:
256,192,232934,1,8,0:0:0:0:
256,192,233277,1,8,0:0:0:0:
256,192,233449,1,4,0:0:0:0:
256,192,233792,1,4,0:0:0:0:
256,192,234134,1,4,0:0:0:0:
256,192,234477,1,4,0:0:0:0:
256,192,234649,1,12,0:0:0:0:
256,192,234820,1,12,0:0:0:0:
256,192,234992,1,0,0:0:0:0:
256,192,235163,1,0,0:0:0:0:
256,192,235334,1,8,0:0:0:0:
256,192,235506,1,0,0:0:0:0:
256,192,235677,1,0,0:0:0:0:
256,192,235849,1,8,0:0:0:0:
256,192,236020,1,0,0:0:0:0:
256,192,236192,1,0,0:0:0:0:
256,192,236534,1,0,0:0:0:0:
256,192,236706,1,0,0:0:0:0:
256,192,237734,1,4,0:0:0:0:
256,192,239106,1,4,0:0:0:0:
256,192,239277,12,0,241849,0:0:0:0:
256,192,250077,5,12,0:0:0:0:
256,192,250420,1,8,0:0:0:0:
256,192,250763,1,8,0:0:0:0:
256,192,251106,1,8,0:0:0:0:
256,192,251449,1,8,0:0:0:0:
256,192,251792,1,8,0:0:0:0:
256,192,252134,1,8,0:0:0:0:
256,192,252477,1,8,0:0:0:0:
256,192,252820,1,8,0:0:0:0:
256,192,253163,1,8,0:0:0:0:
256,192,253506,1,8,0:0:0:0:
256,192,253849,1,8,0:0:0:0:
256,192,254192,1,8,0:0:0:0:
256,192,254534,1,8,0:0:0:0:
256,192,254877,1,8,0:0:0:0:
256,192,255220,1,8,0:0:0:0:
256,192,255392,1,8,0:0:0:0:
256,192,255563,1,4,0:0:0:0:
256,192,255906,1,8,0:0:0:0:
256,192,256249,1,8,0:0:0:0:
256,192,256592,1,8,0:0:0:0:
256,192,256763,1,4,0:0:0:0:
256,192,257106,1,4,0:0:0:0:
256,192,257449,1,4,0:0:0:0:
256,192,257792,1,4,0:0:0:0:
256,192,257963,1,12,0:0:0:0:
256,192,258134,1,12,0:0:0:0:
256,192,258306,1,0,0:0:0:0:
256,192,258477,1,0,0:0:0:0:
256,192,258649,1,8,0:0:0:0:
256,192,258820,1,0,0:0:0:0:
256,192,258992,1,0,0:0:0:0:
256,192,259163,1,8,0:0:0:0:
256,192,259334,1,0,0:0:0:0:
256,192,259506,1,0,0:0:0:0:
256,192,259849,1,0,0:0:0:0:
256,192,260020,1,0,0:0:0:0:
256,192,261049,1,4,0:0:0:0:
256,192,261220,12,0,261906,0:0:0:0:
256,192,262077,5,12,0:0:0:0:
256,192,262420,5,4,0:0:0:0:
256,192,262591,1,8,0:0:0:0:
256,192,262677,1,8,0:0:0:0:
256,192,262762,1,0,0:0:0:0:
256,192,262848,1,8,0:0:0:0:
256,192,263020,1,8,0:0:0:0:
256,192,263105,1,0,0:0:0:0:
256,192,263277,1,0,0:0:0:0:
256,192,263448,1,8,0:0:0:0:
256,192,263620,1,0,0:0:0:0:
256,192,263791,1,0,0:0:0:0:
256,192,263877,1,0,0:0:0:0:
256,192,263962,1,8,0:0:0:0:
256,192,264134,1,8,0:0:0:0:
256,192,264305,1,0,0:0:0:0:
256,192,264477,1,8,0:0:0:0:
256,192,264562,1,8,0:0:0:0:
256,192,264648,1,0,0:0:0:0:
256,192,264734,1,0,0:0:0:0:
256,192,264820,1,8,0:0:0:0:
256,192,264991,1,0,0:0:0:0:
256,192,265162,1,8,0:0:0:0:
256,192,265334,1,0,0:0:0:0:
256,192,265420,1,8,0:0:0:0:
256,192,265505,1,8,0:0:0:0:
256,192,265591,1,0,0:0:0:0:
256,192,265762,1,8,0:0:0:0:
256,192,265848,1,0,0:0:0:0:
256,192,266020,1,0,0:0:0:0:
256,192,266191,1,0,0:0:0:0:
256,192,266362,1,8,0:0:0:0:
256,192,266534,1,0,0:0:0:0:
256,192,266620,1,0,0:0:0:0:
256,192,266705,1,8,0:0:0:0:
256,192,266877,1,8,0:0:0:0:
256,192,267048,1,8,0:0:0:0:
256,192,267134,1,0,0:0:0:0:
256,192,267220,1,0,0:0:0:0:
256,192,267305,1,8,0:0:0:0:
256,192,267391,1,8,0:0:0:0:
256,192,267477,1,0,0:0:0:0:
256,192,267562,1,8,0:0:0:0:
256,192,267734,1,0,0:0:0:0:
256,192,267820,1,8,0:0:0:0:
256,192,267905,1,0,0:0:0:0:
256,192,268077,1,8,0:0:0:0:
256,192,268162,1,8,0:0:0:0:
256,192,268248,1,0,0:0:0:0:
256,192,268334,1,8,0:0:0:0:
256,192,268505,1,8,0:0:0:0:
256,192,268591,1,0,0:0:0:0:
256,192,268762,1,0,0:0:0:0:
256,192,268934,1,8,0:0:0:0:
256,192,269105,1,0,0:0:0:0:
256,192,269277,1,0,0:0:0:0:
256,192,269362,1,0,0:0:0:0:
256,192,269448,1,8,0:0:0:0:
256,192,269620,1,8,0:0:0:0:
256,192,269791,1,0,0:0:0:0:
256,192,269877,1,0,0:0:0:0:
256,192,270048,1,8,0:0:0:0:
256,192,270134,1,0,0:0:0:0:
256,192,270220,1,0,0:0:0:0:
256,192,270305,1,8,0:0:0:0:
256,192,270391,1,8,0:0:0:0:
256,192,270477,1,0,0:0:0:0:
256,192,270562,1,0,0:0:0:0:
256,192,270648,1,8,0:0:0:0:
256,192,270820,1,0,0:0:0:0:
256,192,270905,1,8,0:0:0:0:
256,192,270991,1,8,0:0:0:0:
256,192,271077,1,0,0:0:0:0:
256,192,271248,1,8,0:0:0:0:
256,192,271334,1,0,0:0:0:0:
256,192,271505,1,0,0:0:0:0:
256,192,271677,1,8,0:0:0:0:
256,192,271848,1,8,0:0:0:0:
256,192,272020,1,0,0:0:0:0:
256,192,272105,1,8,0:0:0:0:
256,192,272191,1,8,0:0:0:0:
256,192,272362,1,8,0:0:0:0:
256,192,272534,1,8,0:0:0:0:
256,192,272620,1,0,0:0:0:0:
256,192,272705,1,0,0:0:0:0:
256,192,272791,1,8,0:0:0:0:
256,192,272877,1,8,0:0:0:0:
256,192,272962,1,0,0:0:0:0:
256,192,273048,1,8,0:0:0:0:
256,192,273220,1,8,0:0:0:0:
256,192,273391,1,4,0:0:0:0:
256,192,273562,1,8,0:0:0:0:
256,192,273648,1,8,0:0:0:0:
256,192,273734,1,0,0:0:0:0:
256,192,273820,1,8,0:0:0:0:
256,192,273991,1,8,0:0:0:0:
256,192,274077,1,0,0:0:0:0:
256,192,274248,1,0,0:0:0:0:
256,192,274420,1,8,0:0:0:0:
256,192,274591,1,0,0:0:0:0:
256,192,274762,1,0,0:0:0:0:
256,192,274848,1,0,0:0:0:0:
256,192,274934,1,8,0:0:0:0:
256,192,275105,1,8,0:0:0:0:
256,192,275277,1,0,0:0:0:0:
256,192,275448,1,8,0:0:0:0:
256,192,275534,1,8,0:0:0:0:
256,192,275620,1,0,0:0:0:0:
256,192,275705,1,0,0:0:0:0:
256,192,275791,1,8,0:0:0:0:
256,192,275962,1,0,0:0:0:0:
256,192,276134,1,12,0:0:0:0:
256,192,276305,1,0,0:0:0:0:
256,192,276391,1,8,0:0:0:0:
256,192,276477,1,8,0:0:0:0:
256,192,276562,1,0,0:0:0:0:
256,192,276734,1,8,0:0:0:0:
256,192,276820,1,0,0:0:0:0:
256,192,276991,1,0,0:0:0:0:
256,192,277162,1,8,0:0:0:0:
256,192,277334,1,8,0:0:0:0:
256,192,277505,1,0,0:0:0:0:
256,192,277591,1,0,0:0:0:0:
256,192,277677,1,8,0:0:0:0:
256,192,277848,1,8,0:0:0:0:
256,192,278020,1,8,0:0:0:0:
256,192,278105,1,0,0:0:0:0:
256,192,278191,1,0,0:0:0:0:
256,192,278277,1,8,0:0:0:0:
256,192,278362,1,8,0:0:0:0:
256,192,278448,1,0,0:0:0:0:
256,192,278534,1,8,0:0:0:0:
256,192,278620,1,8,0:0:0:0:
256,192,278705,1,0,0:0:0:0:
256,192,278877,1,4,0:0:0:0:
256,192,279048,1,8,0:0:0:0:
256,192,279134,1,8,0:0:0:0:
256,192,279220,1,0,0:0:0:0:
256,192,279305,1,8,0:0:0:0:
256,192,279477,1,8,0:0:0:0:
256,192,279562,1,0,0:0:0:0:
256,192,279734,1,0,0:0:0:0:
256,192,279905,1,8,0:0:0:0:
256,192,280077,1,0,0:0:0:0:
256,192,280248,1,0,0:0:0:0:
256,192,280334,1,0,0:0:0:0:
256,192,280420,1,8,0:0:0:0:
256,192,280591,1,8,0:0:0:0:
256,192,280762,1,0,0:0:0:0:
256,192,280848,1,0,0:0:0:0:
256,192,280934,1,8,0:0:0:0:
256,192,281020,1,8,0:0:0:0:
256,192,281105,1,0,0:0:0:0:
256,192,281191,1,0,0:0:0:0:
256,192,281277,1,8,0:0:0:0:
256,192,281448,1,0,0:0:0:0:
256,192,281620,1,8,0:0:0:0:
256,192,281705,1,8,0:0:0:0:
256,192,281791,1,0,0:0:0:0:
256,192,281877,1,8,0:0:0:0:
256,192,281962,1,0,0:0:0:0:
256,192,282048,1,0,0:0:0:0:
256,192,282134,1,8,0:0:0:0:
256,192,282220,1,8,0:0:0:0:
256,192,282305,1,0,0:0:0:0:
256,192,282391,1,0,0:0:0:0:
256,192,282477,1,8,0:0:0:0:
256,192,282562,1,0,0:0:0:0:
256,192,282648,1,8,0:0:0:0:
256,192,282820,1,4,0:0:0:0:
256,192,284020,1,12,0:0:0:0:
256,192,284362,1,8,0:0:0:0:
256,192,284705,1,8,0:0:0:0:
256,192,284877,1,0,0:0:0:0:
256,192,285048,1,8,0:0:0:0:
256,192,285220,1,0,0:0:0:0:
256,192,285305,1,8,0:0:0:0:
256,192,285477,1,0,0:0:0:0:
256,192,285562,1,8,0:0:0:0:
256,192,285734,1,0,0:0:0:0:
256,192,285905,1,8,0:0:0:0:
256,192,285991,1,0,0:0:0:0:
256,192,286077,1,8,0:0:0:0:
256,192,286248,1,0,0:0:0:0:
256,192,286420,1,8,0:0:0:0:
256,192,286505,1,8,0:0:0:0:
256,192,286591,1,0,0:0:0:0:
256,192,286762,1,8,0:0:0:0:
256,192,286934,1,8,0:0:0:0:
256,192,287105,1,0,0:0:0:0:
256,192,287448,1,0,0:0:0:0:
256,192,287620,1,8,0:0:0:0:
256,192,287791,1,0,0:0:0:0:
256,192,287962,1,8,0:0:0:0:
256,192,288048,1,0,0:0:0:0:
256,192,288220,1,8,0:0:0:0:
256,192,288305,1,0,0:0:0:0:
256,192,288477,1,8,0:0:0:0:
256,192,288648,1,0,0:0:0:0:
256,192,288734,1,0,0:0:0:0:
256,192,288820,1,8,0:0:0:0:
256,192,288991,1,0,0:0:0:0:
256,192,289162,1,8,0:0:0:0:
256,192,289248,1,8,0:0:0:0:
256,192,289334,1,0,0:0:0:0:
256,192,289505,1,8,0:0:0:0:
256,192,289677,1,0,0:0:0:0:
256,192,289848,1,8,0:0:0:0:
256,192,290191,1,8,0:0:0:0:
256,192,290362,1,0,0:0:0:0:
256,192,290534,1,8,0:0:0:0:
256,192,290705,1,0,0:0:0:0:
256,192,290791,1,8,0:0:0:0:
256,192,290962,1,8,0:0:0:0:
256,192,291048,1,0,0:0:0:0:
256,192,291220,1,0,0:0:0:0:
256,192,291391,1,8,0:0:0:0:
256,192,291477,1,0,0:0:0:0:
256,192,291562,1,8,0:0:0:0:
256,192,291734,1,0,0:0:0:0:
256,192,291905,1,8,0:0:0:0:
256,192,291991,1,8,0:0:0:0:
256,192,292077,1,0,0:0:0:0:
256,192,292248,1,8,0:0:0:0:
256,192,292420,1,8,0:0:0:0:
256,192,292591,1,0,0:0:0:0:
256,192,292934,1,0,0:0:0:0:
256,192,293105,1,8,0:0:0:0:
256,192,293277,1,0,0:0:0:0:
256,192,293448,1,8,0:0:0:0:
256,192,293534,1,0,0:0:0:0:
256,192,293705,1,0,0:0:0:0:
256,192,293791,1,8,0:0:0:0:
256,192,293962,1,8,0:0:0:0:
256,192,294134,1,0,0:0:0:0:
256,192,294220,1,0,0:0:0:0:
256,192,294305,1,8,0:0:0:0:
256,192,294477,1,0,0:0:0:0:
256,192,294648,1,8,0:0:0:0:
256,192,294734,1,8,0:0:0:0:
256,192,294820,1,0,0:0:0:0:
256,192,294991,1,8,0:0:0:0:
256,192,295162,1,0,0:0:0:0:
256,192,295334,1,12,0:0:0:0:
256,192,295677,1,8,0:0:0:0:
256,192,295848,1,0,0:0:0:0:
256,192,296020,1,8,0:0:0:0:
256,192,296191,1,0,0:0:0:0:
256,192,296277,1,8,0:0:0:0:
256,192,296448,1,0,0:0:0:0:
256,192,296534,1,8,0:0:0:0:
256,192,296705,1,0,0:0:0:0:
256,192,296877,1,8,0:0:0:0:
256,192,296962,1,0,0:0:0:0:
256,192,297048,1,8,0:0:0:0:
256,192,297220,1,0,0:0:0:0:
256,192,297391,1,8,0:0:0:0:
256,192,297477,1,8,0:0:0:0:
256,192,297562,1,0,0:0:0:0:
256,192,297648,1,0,0:0:0:0:
256,192,297734,1,8,0:0:0:0:
256,192,297905,1,8,0:0:0:0:
256,192,298077,1,4,0:0:0:0:
256,192,298420,1,0,0:0:0:0:
256,192,298591,1,8,0:0:0:0:
256,192,298762,1,0,0:0:0:0:
256,192,298934,1,8,0:0:0:0:
256,192,299020,1,0,0:0:0:0:
256,192,299191,1,8,0:0:0:0:
256,192,299277,1,0,0:0:0:0:
256,192,299448,1,8,0:0:0:0:
256,192,299620,1,0,0:0:0:0:
256,192,299705,1,0,0:0:0:0:
256,192,299791,1,8,0:0:0:0:
256,192,299962,1,0,0:0:0:0:
256,192,300048,1,0,0:0:0:0:
256,192,300134,1,8,0:0:0:0:
256,192,300220,1,8,0:0:0:0:
256,192,300305,1,0,0:0:0:0:
256,192,300477,1,8,0:0:0:0:
256,192,300648,1,0,0:0:0:0:
256,192,300820,1,12,0:0:0:0:
256,192,301162,1,0,0:0:0:0:
256,192,301334,1,0,0:0:0:0:
256,192,301505,1,8,0:0:0:0:
256,192,301677,1,0,0:0:0:0:
256,192,301848,1,8,0:0:0:0:
256,192,302020,1,8,0:0:0:0:
256,192,302191,1,0,0:0:0:0:
256,192,302362,1,0,0:0:0:0:
256,192,302534,1,8,0:0:0:0:
256,192,302705,1,0,0:0:0:0:
256,192,302877,1,8,0:0:0:0:
256,192,303048,1,8,0:0:0:0:
256,192,303220,1,0,0:0:0:0:
256,192,303391,1,0,0:0:0:0:
256,192,303562,1,8,0:0:0:0:
256,192,303648,1,8,0:0:0:0:
256,192,303734,1,0,0:0:0:0:
256,192,303820,1,0,0:0:0:0:
256,192,303905,1,8,0:0:0:0:
256,192,303991,1,0,0:0:0:0:
256,192,304077,1,8,0:0:0:0:
256,192,304162,1,8,0:0:0:0:
256,192,304248,1,0,0:0:0:0:
256,192,304334,1,0,0:0:0:0:
256,192,304420,1,8,0:0:0:0:
256,192,304505,1,0,0:0:0:0:
256,192,304591,1,8,0:0:0:0:
256,192,304677,1,8,0:0:0:0:
256,192,304762,1,0,0:0:0:0:
256,192,304934,12,0,305448,0:0:0:0:
256,192,305620,5,0,0:0:0:0:
256,192,305791,1,0,0:0:0:0:
256,192,305877,1,0,0:0:0:0:
256,192,305962,1,8,0:0:0:0:
256,192,306048,1,8,0:0:0:0:
256,192,306134,1,8,0:0:0:0:
256,192,306305,1,4,0:0:0:0:
256,192,306648,1,8,0:0:0:0:
256,192,306991,1,0,0:0:0:0:
256,192,307334,1,8,0:0:0:0:
256,192,307677,1,0,0:0:0:0:
256,192,308020,1,8,0:0:0:0:
256,192,308362,1,0,0:0:0:0:
256,192,308705,1,8,0:0:0:0:
256,192,309048,1,0,0:0:0:0:
256,192,309391,1,8,0:0:0:0:
256,192,309734,1,0,0:0:0:0:
256,192,310077,1,8,0:0:0:0:
256,192,310420,1,0,0:0:0:0:
256,192,310762,1,8,0:0:0:0:
256,192,311105,1,0,0:0:0:0:
256,192,311448,1,8,0:0:0:0:
256,192,311620,1,8,0:0:0:0:
256,192,311791,1,0,0:0:0:0:
256,192,312134,1,8,0:0:0:0:
256,192,312477,1,0,0:0:0:0:
256,192,312820,1,8,0:0:0:0:
256,192,313162,1,0,0:0:0:0:
256,192,313505,1,8,0:0:0:0:
256,192,313848,1,0,0:0:0:0:
256,192,314191,1,8,0:0:0:0:
256,192,314534,1,0,0:0:0:0:
256,192,314877,1,8,0:0:0:0:
256,192,315220,1,0,0:0:0:0:
256,192,315562,1,8,0:0:0:0:
256,192,315905,1,0,0:0:0:0:
256,192,316248,1,8,0:0:0:0:
256,192,316591,1,0,0:0:0:0:
256,192,316934,1,8,0:0:0:0:
256,192,317105,1,8,0:0:0:0:
256,192,317277,1,4,0:0:0:0:
256,192,317620,1,8,0:0:0:0:
256,192,317962,1,0,0:0:0:0:
256,192,318305,1,8,0:0:0:0:
256,192,318477,1,8,0:0:0:0:
256,192,318648,1,0,0:0:0:0:
256,192,318991,1,8,0:0:0:0:
256,192,319334,1,0,0:0:0:0:
256,192,319505,1,0,0:0:0:0:
256,192,319677,1,8,0:0:0:0:
256,192,320020,1,4,0:0:0:0:
256,192,320362,1,8,0:0:0:0:
256,192,320705,1,0,0:0:0:0:
256,192,321048,1,8,0:0:0:0:
256,192,321220,1,8,0:0:0:0:
256,192,321391,1,0,0:0:0:0:
256,192,321734,1,8,0:0:0:0:
256,192,322077,1,0,0:0:0:0:
256,192,322248,1,0,0:0:0:0:
256,192,322420,1,8,0:0:0:0:
256,192,322591,1,8,0:0:0:0:
256,192,322762,1,0,0:0:0:0:
256,192,322934,1,8,0:0:0:0:
256,192,323105,1,0,0:0:0:0:
256,192,323277,1,0,0:0:0:0:
256,192,323448,1,8,0:0:0:0:
256,192,323620,1,0,0:0:0:0:
256,192,323791,1,8,0:0:0:0:
256,192,323962,1,8,0:0:0:0:
256,192,324134,1,0,0:0:0:0:
256,192,324305,1,0,0:0:0:0:
256,192,324477,1,8,0:0:0:0:
256,192,324648,1,0,0:0:0:0:
256,192,324820,1,8,0:0:0:0:
256,192,324991,1,8,0:0:0:0:
256,192,325162,1,0,0:0:0:0:
256,192,325334,1,0,0:0:0:0:
256,192,325505,1,8,0:0:0:0:
256,192,325591,1,8,0:0:0:0:
256,192,325677,1,0,0:0:0:0:
256,192,325762,1,0,0:0:0:0:
256,192,325848,1,8,0:0:0:0:
256,192,325934,1,0,0:0:0:0:
256,192,326020,1,8,0:0:0:0:
256,192,326105,1,8,0:0:0:0:
256,192,326191,1,0,0:0:0:0:
256,192,326277,1,0,0:0:0:0:
256,192,326362,1,8,0:0:0:0:
256,192,326448,1,0,0:0:0:0:
256,192,326534,1,8,0:0:0:0:
256,192,326620,1,8,0:0:0:0:
256,192,326705,1,0,0:0:0:0:
256,192,326877,1,4,0:0:0:0:
256,192,328248,5,4,0:0:0:0:
