osu file format v14

[General]
AudioFilename: audio.mp3
AudioLeadIn: 0
PreviewTime: 36832
Countdown: 0
SampleSet: Soft
StackLeniency: 0.2
Mode: 0
LetterboxInBreaks: 0
WidescreenStoryboard: 0

[Editor]
Bookmarks: 13058,36832,71795,89976,123541
DistanceSpacing: 1.2
BeatDivisor: 4
GridSize: 4
TimelineZoom: 1.3

[Metadata]
Title:Be With You (Nightcore Mix)
TitleUnicode:Be With You (Nightcore Mix)
Artist:Tronix DJ
ArtistUnicode:Tronix DJ
Creator:Andrea
Version:Insane
Source:
Tags:osuplayer111 MkGuh Gero ReFaller Techno Trance Dance Rave Remix English
BeatmapID:1671022
BeatmapSetID:795690

[Difficulty]
HPDrainRate:7
CircleSize:5
OverallDifficulty:8
ApproachRate:9
SliderMultiplier:1.8
SliderTickRate:1

[Events]
//Background and Video events
0,0,"BG.jpg",0,0
//Break Periods
2,60607,71195
//Storyboard Layer 0 (Background)
//Storyboard Layer 1 (Fail)
//Storyboard Layer 2 (Pass)
//Storyboard Layer 3 (Foreground)
//Storyboard Sound Samples

[TimingPoints]
1870,349.629974943185,4,2,1,80,1,0
35784,-100,4,1,1,60,0,0
36832,-100,4,1,1,80,0,0
86480,-100,4,1,1,60,0,0
87878,-100,4,1,1,80,0,0
89976,-100,4,1,1,80,0,1
117947,-100,4,1,1,80,0,0
122230,-100,4,1,1,20,0,0
122492,-100,4,1,1,35,0,0
122841,-100,4,1,1,50,0,0
123191,-100,4,1,1,65,0,0
123541,-100,4,1,1,80,0,0

[Colours]
Combo1 : 85,255,170
Combo2 : 255,85,170
Combo3 : 198,142,142
Combo4 : 85,170,255

[HitObjects]
60,144,13058,6,0,B|108:100|108:100|164:88|164:88|208:48,1,180,4|2,0:0|0:0,0:0:0:0:
305,49,13582,1,0,0:0:0:0:
452,144,13757,2,0,B|404:100|404:100|348:88|348:88|304:48,1,180,0|2,0:0|0:0,0:0:0:0:
206,49,14281,1,0,0:0:0:0:
256,192,14456,6,0,L|256:376,1,180,0|2,0:0|0:0,0:0:0:0:
172,304,14981,2,0,B|256:272|256:272|340:304,1,180
376,192,15505,1,2,0:0:0:0:
256,104,15680,1,0,0:0:0:0:
136,192,15855,6,0,B|116:144|132:104|132:104|116:60|136:16,1,180,0|2,0:0|0:0,0:0:0:0:
256,104,16379,1,0,0:0:0:0:
376,16,16554,2,0,B|396:60|380:104|380:104|396:144|376:192,1,180,0|2,0:0|0:0,0:0:0:0:
256,104,17078,1,0,0:0:0:0:
337,304,17253,6,0,P|289:304|253:276,1,90
175,80,17603,2,0,P|223:80|259:108,1,90,2|0,0:0|0:0,0:0:0:0:
376,191,17952,2,0,L|466:191,1,90
136,191,18302,2,0,L|46:191,1,90,2|0,0:0|0:0,0:0:0:0:
256,192,18652,6,0,P|292:272|256:352,1,180,0|2,0:0|0:0,0:0:0:0:
88,272,19176,1,0,0:0:0:0:
88,272,19351,2,0,P|52:192|88:112,1,180,0|2,0:0|0:0,0:0:0:0:
256,192,19875,1,0,0:0:0:0:
256,33,20050,6,0,B|320:33|320:33|368:52|368:52|432:52,1,180,0|2,0:0|0:0,0:0:0:0:
432,211,20575,2,0,B|368:211|368:211|320:192|320:192|256:192,1,180
184,272,21099,2,0,B|152:308|152:308|148:308|148:308|152:312|152:312|148:312|148:312|128:336,1,90,2|0,0:0|0:0,0:0:0:0:
184,112,21449,2,0,B|152:76|152:76|148:76|148:76|152:72|152:72|148:72|148:72|128:48,1,90
60,268,21798,2,0,B|12:192|12:192|60:116,1,180,2|0,0:0|0:0,0:0:0:0:
256,192,22498,1,2,0:0:0:0:
256,192,22672,1,0,0:0:0:0:
344,84,22847,6,0,P|387:75|432:84,1,90
431,300,23197,2,0,P|387:309|344:300,1,90,2|0,0:0|0:0,0:0:0:0:
167,83,23547,2,0,P|124:74|80:83,1,90
80,300,23896,2,0,P|124:309|168:300,1,90,2|0,0:0|0:0,0:0:0:0:
256,192,24246,6,0,B|312:192|344:216|344:216|432:216,1,180,4|2,0:0|0:0,0:0:0:0:
256,192,24770,1,0,0:0:0:0:
256,192,24945,2,0,B|200:192|168:168|168:168|80:168,1,180,0|2,0:0|0:0,0:0:0:0:
32,80,25470,1,0,0:0:0:0:
32,80,25644,2,0,L|32:264,1,180,0|2,0:0|0:0,0:0:0:0:
256,372,26169,2,0,L|256:188,1,180
172,120,26693,6,0,B|162:76|162:76|172:32,1,90,2|0,0:0|0:0,0:0:0:0:
340,32,27043,2,0,B|350:76|350:76|340:120,1,90
324,228,27392,2,0,B|288:256|288:256|256:225|256:225|224:256|224:256|188:228,2,180,2|0|2,0:0|0:0|0:0,0:0:0:0:
340,119,28267,1,0,0:0:0:0:
172,119,28441,6,0,B|132:96|132:96|88:96,1,90
88,288,28791,2,0,B|132:288|132:288|172:265,1,90,2|0,0:0|0:0,0:0:0:0:
340,119,29141,2,0,B|380:96|380:96|424:96,1,90
424,288,29490,2,0,B|380:288|380:288|340:265,1,90,2|0,0:0|0:0,0:0:0:0:
256,192,29840,6,0,P|176:156|96:192,1,180,0|2,0:0|0:0,0:0:0:0:
256,192,30364,1,0,0:0:0:0:
256,192,30539,2,0,P|336:228|416:192,1,180,0|2,0:0|0:0,0:0:0:0:
336,120,31064,1,0,0:0:0:0:
336,120,31238,2,0,L|336:304,1,180,0|2,0:0|0:0,0:0:0:0:
176,300,31763,2,0,L|176:120,1,180
256,48,32287,1,2,0:0:0:0:
336,120,32462,1,0,0:0:0:0:
176,120,32637,6,0,B|128:120|96:85|96:85|64:120|16:120,1,180,0|2,0:0|0:0,0:0:0:0:
16,264,33161,2,0,B|64:264|96:299|96:299|128:264|176:264,1,180
256,336,33686,1,2,0:0:0:0:
337,264,33861,1,0,0:0:0:0:
208,176,34035,6,0,P|144:104|144:16,1,180,0|2,0:0|0:0,0:0:0:0:
370,24,34735,1,0,0:0:0:0:
370,24,34910,2,0,P|364:112|304:176,1,180,0|2,0:0|0:0,0:0:0:0:
256,80,35434,1,4,0:0:0:0:
256,304,35784,5,0,0:0:0:0:
172,236,35958,1,0,0:0:0:0:
340,236,36133,1,0,0:0:0:0:
340,236,36221,1,0,0:0:0:0:
340,236,36308,1,0,0:0:0:0:
256,80,36483,2,0,L|256:170,1,90
312,336,36832,6,0,P|404:336|468:280,1,180,4|2,0:0|0:0,0:0:0:0:
416,120,37357,1,0,0:0:0:0:
416,120,37532,2,0,P|324:120|260:176,1,180,2|2,0:0|0:0,0:0:0:0:
144,312,38056,1,0,0:0:0:0:
56,164,38231,1,2,0:0:0:0:
240,264,38406,1,0,0:0:0:0:
56,264,38581,1,2,0:0:0:0:
144,120,38755,2,0,P|236:120|304:68,1,180
404,76,39280,6,0,L|448:160,1,90,2|0,0:0|0:0,0:0:0:0:
420,252,39630,1,2,0:0:0:0:
256,366,39979,1,2,0:0:0:0:
92,252,40329,1,2,0:0:0:0:
256,140,40678,1,2,0:0:0:0:
256,366,40853,1,0,0:0:0:0:
172,192,41028,6,0,L|112:124,1,90,2|0,0:0|0:0,0:0:0:0:
256,276,41378,2,0,L|256:372,1,90,2|0,0:0|0:0,0:0:0:0:
340,192,41727,2,0,L|400:124,1,90,2|0,0:0|0:0,0:0:0:0:
319,27,42077,1,2,0:0:0:0:
193,27,42252,1,0,0:0:0:0:
112,124,42427,6,0,P|62:193|112:260,1,180,2|8,0:0|0:0,0:0:0:0:
256,316,42951,1,0,0:0:0:0:
400,260,43126,2,0,P|450:192|400:124,1,180,2|8,0:0|0:0,0:0:0:0:
256,44,43650,1,0,0:0:0:0:
204,160,43825,2,0,P|204:252|156:324,1,180,2|8,0:0|0:0,0:0:0:0:
355,324,44350,2,0,P|307:249|308:160,1,180,2|0,0:0|0:0,0:0:0:0:
356,72,44874,6,0,P|400:72|440:48,1,90,8|0,0:0|0:0,0:0:0:0:
156,72,45224,2,0,P|112:72|72:48,1,90,2|0,0:0|0:0,0:0:0:0:
256,44,45573,2,0,L|256:224,1,180,8|2,0:0|0:0,0:0:0:0:
156,224,46098,2,0,L|80:172,1,90,0|8,0:0|0:0,0:0:0:0:
4,112,46447,1,0,0:0:0:0:
72,300,46622,6,0,L|148:352,1,90,2|0,0:0|0:0,0:0:0:0:
256,314,46972,2,0,L|256:218,1,90,8|0,0:0|0:0,0:0:0:0:
440,300,47321,2,0,L|364:352,1,90,2|0,0:0|0:0,0:0:0:0:
256,224,47671,1,0,2:0:0:0:
256,384,47846,1,0,2:0:0:0:
256,224,48021,6,0,L|256:40,1,180,4|8,0:0|0:0,0:0:0:0:
440,120,48545,1,0,0:0:0:0:
440,120,48720,2,0,L|440:300,1,180,2|8,0:0|0:0,0:0:0:0:
248,360,49244,1,0,0:0:0:0:
248,360,49419,2,0,P|156:360|92:304,1,180,2|8,0:0|0:0,0:0:0:0:
57,165,49944,2,0,P|149:165|213:221,1,180,2|0,0:0|0:0,0:0:0:0:
300,172,50468,6,0,L|368:112,1,90,8|0,0:0|0:0,0:0:0:0:
388,288,50818,2,0,L|320:348,1,90,2|0,0:0|0:0,0:0:0:0:
220,348,51167,1,8,0:0:0:0:
40,264,51517,2,0,B|128:264|128:220|212:220,1,180,2|8,0:0|0:0,0:0:0:0:
256,8,52041,1,0,0:0:0:0:
300,172,52216,6,0,L|376:116,1,90,2|0,0:0|0:0,0:0:0:0:
256,8,52566,2,0,L|256:112,1,90,8|0,0:0|0:0,0:0:0:0:
212,172,52915,2,0,L|136:116,1,90,2|0,0:0|0:0,0:0:0:0:
168,256,53265,1,8,0:0:0:0:
344,256,53440,1,0,0:0:0:0:
512,316,53615,6,0,B|456:316|456:316|408:344|408:344|344:344,1,180,4|8,0:0|0:0,0:0:0:0:
256,256,54139,1,0,0:0:0:0:
168,344,54314,2,0,B|104:344|104:344|56:316|56:316|-4:316,1,180,2|8,0:0|0:0,0:0:0:0:
84,136,54838,1,0,0:0:0:0:
84,136,55013,2,0,B|148:136|148:136|196:164|196:164|260:164,1,180,2|8,0:0|0:0,0:0:0:0:
388,112,55538,2,0,B|324:112|324:112|276:84|276:84|212:84,1,180,2|0,0:0|0:0,0:0:0:0:
84,136,56062,1,8,0:0:0:0:
36,224,56237,1,0,0:0:0:0:
84,312,56412,6,0,P|180:312|240:364,1,180,2|8,0:0|0:0,0:0:0:0:
472,332,56936,2,0,P|383:335|315:280,1,180,2|0,0:0|0:0,0:0:0:0:
256,200,57461,1,8,0:0:0:0:
196,120,57635,1,0,0:0:0:0:
256,40,57810,6,0,B|324:40|360:80|360:80|428:80,1,180,2|8,0:0|0:0,0:0:0:0:
356,344,58510,1,2,0:0:0:0:
256,344,58684,2,0,B|188:344|152:304|152:304|84:304,1,180,0|0,0:0|2:0,0:0:0:0:
24,228,59209,1,4,2:0:0:0:
344,60,71795,5,2,0:0:0:0:
256,124,71970,1,0,0:0:0:0:
168,60,72145,1,2,0:0:0:0:
168,60,72233,2,0,P|124:60|84:84,1,90,0|2,0:0|0:0,0:0:0:0:
64,192,72582,1,0,0:0:0:0:
85,302,72757,2,0,L|117:334,1,45,2|0,0:0|0:0,0:0:0:0:
200,264,73019,1,0,0:0:0:0:
372,348,73194,5,2,0:0:0:0:
456,280,73369,1,0,0:0:0:0:
456,172,73544,1,2,0:0:0:0:
456,172,73631,2,0,P|412:172|372:148,1,90,0|2,0:0|0:0,0:0:0:0:
276,96,73981,1,0,0:0:0:0:
184,40,74155,1,2,0:0:0:0:
184,40,74243,2,0,L|136:40,2,45
56,184,74593,5,2,0:0:0:0:
140,252,74767,1,0,0:0:0:0:
232,312,74942,1,2,0:0:0:0:
232,312,75030,2,0,B|280:312|280:312|316:292,1,90,0|2,0:0|0:0,0:0:0:0:
400,224,75379,1,0,0:0:0:0:
316,156,75554,2,0,L|268:156,1,45,2|0,0:0|0:0,0:0:0:0:
164,156,75816,1,0,0:0:0:0:
316,32,75991,5,2,0:0:0:0:
408,92,76166,1,0,0:0:0:0:
452,192,76341,1,2,0:0:0:0:
408,292,76515,1,0,0:0:0:0:
408,292,76603,2,0,P|360:292|328:316,1,90,2|0,0:0|0:0,0:0:0:0:
220,316,76953,1,2,0:0:0:0:
220,316,77040,2,0,L|176:316,2,45
56,204,77390,5,4,0:0:0:0:
128,124,77564,1,0,0:0:0:0:
200,44,77739,1,2,0:0:0:0:
200,44,77827,2,0,B|244:44|244:44|284:68,1,90,0|2,0:0|0:0,0:0:0:0:
368,136,78176,1,0,0:0:0:0:
448,208,78351,2,0,L|483:243,1,45,2|0,0:0|0:0,0:0:0:0:
408,320,78613,1,0,0:0:0:0:
256,192,78788,5,2,0:0:0:0:
172,260,78963,1,0,0:0:0:0:
88,192,79138,1,2,0:0:0:0:
88,192,79225,2,0,P|111:154|111:110,1,90,0|2,0:0|0:0,0:0:0:0:
172,20,79575,1,0,0:0:0:0:
256,88,79750,1,2,0:0:0:0:
256,88,79837,2,0,L|304:88,2,45
452,88,80187,5,2,0:0:0:0:
484,192,80361,1,0,0:0:0:0:
452,296,80536,1,2,0:0:0:0:
452,296,80624,2,0,P|408:296|368:320,1,90,0|2,0:0|0:0,0:0:0:0:
256,360,80973,1,0,0:0:0:0:
143,318,81148,2,0,L|95:318,1,45,2|0,0:0|0:0,0:0:0:0:
24,240,81410,1,0,0:0:0:0:
100,64,81585,5,2,0:0:0:0:
200,104,81760,1,0,0:0:0:0:
312,104,81935,1,2,0:0:0:0:
412,64,82110,1,0,0:0:0:0:
412,64,82197,2,0,P|456:64|496:84,1,90,2|0,0:0|0:0,0:0:0:0:
460,188,82547,1,2,0:0:0:0:
460,188,82634,2,0,L|444:232,2,45
392,364,82984,5,4,0:0:0:0:
292,324,83158,1,0,0:0:0:0:
192,280,83333,1,2,0:0:0:0:
192,280,83421,2,0,P|148:280|112:252,1,90,0|2,0:0|0:0,0:0:0:0:
68,156,83770,1,0,0:0:0:0:
160,100,83945,1,2,0:0:0:0:
160,100,84033,2,0,P|204:100|240:128,1,90,0|2,0:0|0:0,0:0:0:0:
360,276,84382,5,2,0:0:0:0:
256,308,84557,1,0,0:0:0:0:
152,276,84732,1,2,0:0:0:0:
152,276,84819,2,0,P|104:276|68:256,1,90
68,256,85081,1,2,0:0:0:0:
112,156,85256,1,0,0:0:0:0:
220,156,85431,1,2,0:0:0:0:
220,156,85518,2,0,P|268:156|304:136,1,90
303,136,85781,5,4,0:0:0:0:
412,136,85956,1,0,0:0:0:0:
440,240,86130,1,2,0:0:0:0:
332,240,86305,1,0,0:0:0:0:
264,324,86480,6,0,L|288:340,14,22.5,2|0|0|0|0|0|0|0|2|0|0|0|0|0|0,0:0|0:0|0:0|0:0|0:0|0:0|0:0|0:0|0:0|0:0|0:0|0:0|0:0|0:0|0:0,0:0:0:0:
200,284,87179,2,0,L|176:268,14,22.5,2|0|0|0|0|0|0|0|2|0|0|0|0|0|0,0:0|0:0|0:0|0:0|0:0|0:0|0:0|0:0|0:0|0:0|0:0|0:0|0:0|0:0|0:0,0:0:0:0:
256,192,87878,5,2,0:0:0:0:
224,160,87966,1,0,0:0:0:0:
204,120,88053,1,0,0:0:0:0:
220,78,88141,1,0,0:0:0:0:
256,52,88228,1,2,0:0:0:0:
292,78,88316,1,0,0:0:0:0:
308,120,88403,1,0,0:0:0:0:
288,160,88490,1,0,0:0:0:0:
256,192,88578,1,6,0:0:0:0:
256,52,89277,5,0,0:0:0:0:
256,52,89364,1,0,0:0:0:0:
256,52,89452,1,0,0:0:0:0:
256,192,89627,1,0,0:0:0:0:
76,312,89976,5,4,0:0:0:0:
148,208,90151,1,0,0:0:0:0:
220,312,90326,1,8,0:0:0:0:
220,312,90413,2,0,P|264:312|304:288,1,90,0|2,0:0|0:0,0:0:0:0:
408,220,90763,1,0,0:0:0:0:
316,132,90938,2,0,L|280:100,1,45,2|8,0:0|0:0,0:0:0:0:
188,20,91200,1,0,0:0:0:0:
32,180,91375,5,2,0:0:0:0:
32,308,91550,1,0,0:0:0:0:
144,364,91724,1,8,0:0:0:0:
144,364,91812,2,0,P|188:364|228:340,1,90,0|2,0:0|0:0,0:0:0:0:
332,272,92161,1,0,0:0:0:0:
460,272,92336,1,2,0:0:0:0:
460,272,92424,2,0,L|508:272,2,45,8|0|0,0:0|0:0|0:0,0:0:0:0:
320,24,92773,5,2,0:0:0:0:
192,24,92948,1,0,0:0:0:0:
256,132,93123,1,8,0:0:0:0:
256,132,93210,2,0,P|256:176|238:217,1,90,0|2,0:0|0:0,0:0:0:0:
124,164,93560,1,0,0:0:0:0:
32,252,93735,2,0,L|72:284,1,45,2|8,0:0|0:0,0:0:0:0:
172,352,93997,1,0,0:0:0:0:
392,316,94172,5,2,0:0:0:0:
504,256,94347,1,0,0:0:0:0:
504,128,94521,1,8,0:0:0:0:
392,68,94696,1,0,0:0:0:0:
392,68,94784,2,0,P|344:68|312:44,1,90,2|0,0:0|0:0,0:0:0:0:
188,20,95133,1,2,0:0:0:0:
188,20,95221,2,0,L|140:20,2,45,8|0|0,0:0|0:0|0:0,0:0:0:0:
40,200,95570,5,2,0:0:0:0:
120,300,95745,1,0,0:0:0:0:
248,300,95920,1,8,0:0:0:0:
248,300,96007,2,0,B|292:300|292:300|332:276,1,90,0|2,0:0|0:0,0:0:0:0:
436,208,96357,1,0,0:0:0:0:
448,332,96532,2,0,L|472:369,1,45,2|8,0:0|0:0,0:0:0:0:
436,208,96794,1,0,0:0:0:0:
300,28,96969,5,2,0:0:0:0:
200,104,97144,1,0,0:0:0:0:
100,28,97318,1,8,0:0:0:0:
100,28,97406,2,0,P|56:28|16:52,1,90,0|2,0:0|0:0,0:0:0:0:
96,148,97756,1,0,0:0:0:0:
36,260,97930,1,2,0:0:0:0:
36,260,98018,2,0,L|16:300,2,45,8|0|0,0:0|0:0|0:0,0:0:0:0:
256,304,98367,5,2,0:0:0:0:
364,368,98542,1,0,0:0:0:0:
472,304,98717,1,8,0:0:0:0:
472,304,98804,2,0,P|496:267|496:222,1,90,0|2,0:0|0:0,0:0:0:0:
396,144,99154,1,0,0:0:0:0:
292,72,99329,2,0,L|256:44,1,45,2|8,0:0|0:0,0:0:0:0:
132,44,99591,1,0,0:0:0:0:
256,232,99766,5,2,0:0:0:0:
148,296,99941,1,0,0:0:0:0:
256,360,100116,1,8,0:0:0:0:
364,296,100290,1,0,0:0:0:0:
364,296,100378,2,0,B|412:296|412:296|448:316,1,90,2|0,0:0|0:0,0:0:0:0:
484,196,100727,1,2,0:0:0:0:
484,196,100815,2,0,L|496:153,2,45,8|0|0,0:0|0:0|0:0,0:0:0:0:
284,84,101164,5,4,0:0:0:0:
176,20,101339,1,0,0:0:0:0:
68,84,101514,1,8,0:0:0:0:
68,84,101601,2,0,B|68:132|68:132|88:172,1,90,0|2,0:0|0:0,0:0:0:0:
160,272,101951,1,0,0:0:0:0:
228,378,102126,1,2,0:0:0:0:
228,378,102213,2,0,P|272:378|312:354,1,90,8|0,0:0|0:0,0:0:0:0:
468,192,102563,5,2,0:0:0:0:
372,112,102738,1,0,0:0:0:0:
276,32,102913,1,8,0:0:0:0:
276,32,103000,2,0,P|241:59|196:59,1,90,0|2,0:0|0:0,0:0:0:0:
132,168,103350,1,0,0:0:0:0:
72,276,103524,1,2,0:0:0:0:
72,276,103612,2,0,L|48:320,2,45,8|0|0,0:0|0:0|0:0,0:0:0:0:
292,328,103961,5,2,0:0:0:0:
384,240,104136,1,0,0:0:0:0:
476,152,104311,1,8,0:0:0:0:
476,152,104398,2,0,P|432:152|392:128,1,90,0|2,0:0|0:0,0:0:0:0:
320,24,104748,1,0,0:0:0:0:
192,24,104923,1,2,0:0:0:0:
192,24,105010,2,0,L|154:118,1,90,8|0,0:0|0:0,0:0:0:0:
76,320,105360,5,2,0:0:0:0:
180,248,105535,1,0,0:0:0:0:
256,348,105710,1,8,0:0:0:0:
332,248,105884,1,0,0:0:0:0:
332,248,105972,2,0,P|380:248|412:272,1,90,2|0,0:0|0:0,0:0:0:0:
480,164,106321,1,2,0:0:0:0:
480,164,106409,2,0,L|504:120,2,45,8|0|0,0:0|0:0|0:0,0:0:0:0:
288,40,106758,5,2,0:0:0:0:
160,40,106933,1,0,0:0:0:0:
88,144,107108,1,8,0:0:0:0:
88,144,107196,2,0,B|44:144|44:144|4:168,1,90,0|2,0:0|0:0,0:0:0:0:
60,280,107545,1,0,0:0:0:0:
188,280,107720,2,0,L|215:319,1,45,2|8,0:0|0:0,0:0:0:0:
332,356,107982,1,0,0:0:0:0:
488,192,108157,5,2,0:0:0:0:
408,92,108332,1,0,0:0:0:0:
280,92,108507,1,8,0:0:0:0:
280,92,108594,2,0,P|236:92|196:116,1,90,0|2,0:0|0:0,0:0:0:0:
112,208,108944,1,0,0:0:0:0:
24,120,109118,1,2,0:0:0:0:
24,120,109206,2,0,L|-11:88,2,45,8|0|0,0:0|0:0|0:0,0:0:0:0:
197,270,109556,5,2,0:0:0:0:
300,340,109730,1,0,0:0:0:0:
428,340,109905,1,8,0:0:0:0:
428,340,109993,2,0,P|472:340|512:312,1,90,0|2,0:0|0:0,0:0:0:0:
440,208,110342,1,0,0:0:0:0:
372,104,110517,2,0,L|344:64,1,45,2|8,0:0|0:0,0:0:0:0:
224,28,110779,1,0,0:0:0:0:
48,192,110954,5,2,0:0:0:0:
132,288,111129,1,0,0:0:0:0:
256,316,111304,1,8,0:0:0:0:
380,288,111478,1,0,0:0:0:0:
380,288,111566,2,0,B|428:288|428:288|464:268,1,90,2|0,0:0|0:0,0:0:0:0:
408,152,111916,1,2,0:0:0:0:
408,152,112003,2,0,L|452:136,2,45,8|0|0,0:0|0:0|0:0,0:0:0:0:
212,32,112353,5,4,0:0:0:0:
108,100,112527,1,0,0:0:0:0:
4,172,112702,1,8,0:0:0:0:
4,172,112790,2,0,B|4:220|4:220|24:260,1,90,0|2,0:0|0:0,0:0:0:0:
120,340,113139,1,0,0:0:0:0:
248,340,113314,1,2,0:0:0:0:
248,340,113401,2,0,B|296:340|296:340|336:320,1,90,8|0,0:0|0:0,0:0:0:0:
452,128,113751,5,2,0:0:0:0:
356,48,113926,1,0,0:0:0:0:
256,128,114101,1,8,0:0:0:0:
256,128,114188,2,0,P|211:128|176:155,1,90,0|2,0:0|0:0,0:0:0:0:
100,256,114538,1,0,0:0:0:0:
176,356,114713,1,2,0:0:0:0:
176,356,114800,2,0,L|224:356,2,45,8|0|0,0:0|0:0|0:0,0:0:0:0:
400,356,115150,5,2,0:0:0:0:
476,256,115324,1,0,0:0:0:0:
476,128,115499,1,8,0:0:0:0:
476,128,115587,2,0,P|432:128|392:104,1,90,0|2,0:0|0:0,0:0:0:0:
256,68,115936,1,0,0:0:0:0:
119,105,116111,1,2,0:0:0:0:
119,104,116199,2,0,P|80:127|35:127,1,90,8|0,0:0|0:0,0:0:0:0:
36,320,116548,5,2,0:0:0:0:
120,228,116723,1,0,0:0:0:0:
204,320,116898,1,8,0:0:0:0:
332,320,117073,1,0,0:0:0:0:
332,320,117160,2,0,P|380:320|412:344,1,90,2|0,0:0|0:0,0:0:0:0:
204,320,117510,1,2,0:0:0:0:
204,320,117597,2,0,L|156:320,2,45,8|0|0,0:0|0:0|0:0,0:0:0:0:
476,212,117947,6,0,B|384:212|384:176|300:176,1,180,4|8,0:0|0:0,0:0:0:0:
256,76,118471,1,0,0:0:0:0:
210,176,118646,2,0,B|127:175|127:211|35:211,1,180,2|8,0:0|0:0,0:0:0:0:
24,104,119170,1,0,0:0:0:0:
24,104,119345,2,0,L|44:284,1,180,2|8,0:0|0:0,0:0:0:0:
229,354,119870,1,0,0:0:0:0:
229,354,120044,2,0,L|209:174,1,180,2|8,0:0|0:0,0:0:0:0:
364,32,120744,6,0,B|408:32|408:32|431:72|431:72|408:112|408:112|364:112,1,180,2|8,0:0|0:0,0:0:0:0:
148,112,121268,2,0,B|104:112|104:112|81:72|81:72|104:32|104:32|148:32,1,180,2|0,2:0|2:0,0:0:0:0:
256,76,121793,1,8,0:0:0:0:
256,308,121967,1,0,2:0:0:0:
256,192,122142,1,2,2:0:0:0:
256,192,122230,12,4,123541,0:0:0:0:
