osu file format v14

[General]
AudioFilename: pokenorsk.mp3
AudioLeadIn: 0
PreviewTime: 33084
Countdown: 0
SampleSet: Normal
StackLeniency: 0.7
Mode: 0
LetterboxInBreaks: 1
WidescreenStoryboard: 1

[Editor]
Bookmarks: 20877,33705,61843,81912,95360,123084,129705,147912,164877,177705
DistanceSpacing: 1.2
BeatDivisor: 4
GridSize: 4
TimelineZoom: 1.6

[Metadata]
Title:Pokemon Theme Song (Norwegian)
TitleUnicode:Pokémon Theme Song (Norwegian)
Artist:Trond Teigen
ArtistUnicode:Trond Teigen
Creator:CXu
Version:Bedre
Source:Pokémon
Tags:norsk MillhioreF john loeffler pocket monsters pikachu
BeatmapID:640397
BeatmapSetID:144347

[Difficulty]
HPDrainRate:5
CircleSize:3.5
OverallDifficulty:5
ApproachRate:6
SliderMultiplier:1.6
SliderTickRate:2

[Events]
//Background and Video events
0,0,"clip (2013-12-23 at 03.26.27).png",0,0
//Break Periods
2,62042,65345
2,123283,128655
//Storyboard Layer 0 (Background)
Sprite,Background,Centre,"sb/51a4f4570e6ef98032.png",320,240 M,0,46222,,320,240 F,0,46222,46326,0,1 S,0,46222,46429,0.1576774 F,0,46326,46843,1 S,0,46429,46533,0.1576774,0.2485162 S,0,46533,46636,0.2485162 S,0,46636,46739,0.2485162,0.5540646 F,0,46843,46946,1,0
//Storyboard Layer 1 (Fail)
//Storyboard Layer 2 (Pass)
//Storyboard Layer 3 (Foreground)
Sprite,Foreground,Centre,"sb/cxu.png",320,240 M,0,188,,500,384 F,0,188,602,0,1 F,0,602,20464,1 F,0,20464,20877,1,0 F,0,20877,33291,0 F,0,33291,33705,0,1 F,0,33705,61843,1 F,0,61843,62257,1,0 F,0,62257,81498,0 F,0,81498,81912,0,1 F,0,81912,94946,1 F,0,94946,95360,1,0 F,0,95360,,0 F,0,129291,,0 F,0,129291,129705,0,1 F,0,129705,147498,1 F,0,147498,147912,1,0 F,0,147912,164257,0 F,0,164257,164670,0,1 F,0,164670,177291,1 F,0,177291,177705,1,0
Sprite,Foreground,Centre,"sb/millhioref.png",320,240 M,0,20464,,195,380 F,0,20464,20877,0,1 F,0,20877,33291,1 F,0,33291,33705,1,0 F,0,33705,66188,0 F,0,66188,66602,0,1 F,0,66602,81498,1 F,0,81498,81912,1,0 F,0,81912,94946,0 F,0,94946,95360,0,1 F,0,95360,123084,1 F,0,123084,123498,1,0 F,0,123498,147498,0 F,0,147498,147912,0,1 F,0,147912,164257,1 F,0,164257,164670,1,0 F,0,164670,177291,0 F,0,177291,177705,0,1 F,0,177705,193429,1 F,0,193429,193843,1,0
//Storyboard Sound Samples

[TimingPoints]
602,413.793103448276,4,1,1,100,1,0
1015,-100,4,1,1,95,0,0
1429,-100,4,1,1,90,0,0
1843,-100,4,1,1,85,0,0
2257,-100,4,1,1,80,0,0
2670,-100,4,1,1,75,0,0
3084,-100,4,1,1,70,0,0
3498,-100,4,1,1,65,0,0
3912,-100,4,1,1,60,0,0
4326,-100,4,1,1,60,0,0
7222,-100,4,2,1,60,0,0
33705,-100,4,2,1,100,0,1
61843,-100,4,1,1,60,0,0
68464,-100,4,2,1,60,0,0
94946,-100,4,2,1,100,0,1
123084,-100,4,2,1,60,0,0
136326,-100,4,2,1,100,0,0
162808,-100,4,2,1,100,0,1
162912,-100,4,2,1,60,0,0
164257,-100,4,2,1,100,0,1
192602,-100,4,2,1,100,0,0
193429,-100,4,2,1,100,0,1
193533,-100,4,2,1,60,0,0

[Colours]
Combo1 : 255,0,0
Combo2 : 0,0,255
Combo3 : 255,255,0

[HitObjects]
256,192,602,12,0,3912,0:0:0:0:
236,104,4326,6,0,P|272:92|332:112,2,80,0|8|8,0:0|0:0|0:0,0:0:0:0:
168,172,4946,1,8,0:3:0:0:
88,116,5153,1,0,0:0:0:0:
76,212,5360,6,0,P|116:260|232:240,1,160,8|8,0:3|0:3,0:0:0:0:
304,260,5981,2,0,P|381:266|435:211,1,160,8|8,0:3|0:3,0:0:0:0:
444,116,6602,1,0,0:0:0:0:
380,44,6808,1,8,0:0:0:0:
283,44,7015,1,4,0:0:0:0:
90,44,7429,6,0,P|62:92|62:144,1,80,0|2,2:0|2:0,0:0:0:0:
56,212,7843,1,0,2:0:0:0:
92,300,8050,2,0,P|164:328|236:276,1,160,2|2,2:0|2:0,0:0:0:0:
256,196,8670,1,0,2:0:0:0:
282,104,8877,2,0,P|324:80|376:84,2,80,2|0|2,2:0|2:0|2:0,0:0:0:0:
408,252,9705,1,2,2:0:0:0:
436,160,9912,2,0,L|464:64,2,80,8|0|4,1:2|1:0|1:0,0:0:0:0:
344,184,10533,5,2,0:0:0:0:
316,276,10739,2,0,P|376:340|452:332,1,160,0|0,2:0|2:0,0:0:0:0:
476,244,11360,2,0,L|484:140,1,80,2|0,2:0|2:0,0:0:0:0:
408,104,11774,2,0,L|400:0,1,80,2|0,2:0|2:0,0:0:0:0:
496,12,12188,1,2,2:0:0:0:
304,24,12602,1,2,2:0:0:0:
220,68,12808,6,0,P|168:80|112:60,1,80,4|0,1:0|0:0,0:0:0:0:
64,132,13222,2,0,P|96:155|134:164,1,80,4|0,1:0|0:0,0:0:0:0:
232,164,13636,1,8,1:2:0:0:
232,164,13843,6,0,P|256:240|200:316,1,160,4|2,1:0|2:0,0:0:0:0:
120,308,14464,1,0,2:0:0:0:
64,232,14670,1,2,2:0:0:0:
160,224,14877,2,0,L|332:260,2,160,0|2|2,2:0|2:0|2:0,0:0:0:0:
316,112,16119,2,0,L|488:148,1,160,2|2,2:0|2:0,0:0:0:0:
500,236,16739,2,0,P|484:292|452:316,1,80,2|0,2:0|2:0,0:0:0:0:
388,356,17153,6,0,B|316:328|316:328|232:356,1,160,4|2,1:0|2:0,0:0:0:0:
252,260,17774,2,0,B|173:286|173:286|101:258,1,160,0|0,1:0|2:0,0:0:0:0:
20,312,18395,2,0,L|116:352,2,80,4|0|2,1:0|0:0|2:0,0:0:0:0:
20,216,19015,1,2,2:0:0:0:
108,176,19222,1,2,2:0:0:0:
44,104,19429,2,0,P|56:48|108:32,1,80,2|2,2:0|2:0,0:0:0:0:
164,64,19843,5,8,1:2:0:0:
256,92,20050,1,8,1:0:0:0:
348,64,20257,1,4,1:0:0:0:
408,248,20877,6,0,P|456:200|468:164,2,80,8|0|2,0:1|0:0|0:0,0:0:0:0:
320,288,21498,2,0,P|264:296|168:264,1,160,0|8,0:0|0:0,0:0:0:0:
96,200,22119,1,2,0:0:0:0:
184,32,22533,1,8,0:1:0:0:
184,32,22739,1,0,0:0:0:0:
296,184,23153,2,0,L|344:120,2,80,8|8|4,1:2|1:2|1:0,0:0:0:0:
232,256,23774,5,2,0:0:0:0:
272,344,23981,2,0,P|352:376|416:320,1,160,0|0,0:0|0:0,0:0:0:0:
416,240,24602,2,0,P|376:176|400:96,1,160,2|8,0:0|0:3,0:0:0:0:
480,48,25222,1,8,0:0:0:0:
194,40,25843,1,8,0:1:0:0:
112,88,26050,5,4,1:0:0:0:
272,192,26464,1,4,1:0:0:0:
112,296,26877,1,8,1:2:0:0:
112,296,27084,2,0,P|160:320|208:320,1,80,4|0,1:0|0:0,0:0:0:0:
280,296,27498,5,8,0:1:0:0:
344,224,27705,1,0,0:0:0:0:
384,136,27912,2,0,P|424:160|440:192,2,80,2|0|8,0:0|0:0|0:3,0:0:0:0:
288,152,28533,2,0,P|216:104|176:32,2,160,8|0|0,0:0|0:0|0:0,0:0:0:0:
448,40,29774,1,8,0:1:0:0:
486,129,29981,1,8,0:1:0:0:
432,208,30188,1,8,0:1:0:0:
432,208,30291,1,8,0:1:0:0:
432,208,30395,6,0,P|392:280|320:312,1,160,4|2,1:0|0:0,0:0:0:0:
188,311,31015,2,0,P|117:277|80:208,1,160,4|0,1:0|0:0,0:0:0:0:
152,83,31636,2,0,P|256:32|360:83,1,240,4|2,1:0|0:0,0:0:0:0:
334,175,32464,1,2,0:0:0:0:
256,120,32670,1,2,0:0:0:0:
178,175,32877,1,2,0:0:0:0:
144,264,33084,5,0,1:0:0:0:
256,224,33291,1,0,1:0:0:0:
368,264,33498,1,0,1:0:0:0:
451,177,33705,6,0,P|431:125|319:81,1,160,4|8,1:0|0:1,0:0:0:0:
256,120,34326,1,8,0:0:0:0:
191,52,34533,2,0,P|167:22|105:15,2,80,0|8|8,0:0|0:0|0:1,0:0:0:0:
168,144,35153,1,0,0:0:0:0:
156,240,35360,2,0,B|140:356|140:356|208:328,1,160,8|8,0:0|0:1,0:0:0:0:
268,304,35981,2,0,P|336:312|412:392,2,160,8|8|0,0:0|0:0|0:0,0:0:0:0:
223,219,37015,5,10,0:0:0:0:
376,104,37429,1,8,0:1:0:0:
308,40,37636,1,0,0:0:0:0:
236,104,37843,1,8,0:0:0:0:
164,40,38050,1,8,0:0:0:0:
96,108,38257,1,8,0:1:0:0:
168,172,38464,2,0,L|168:336,1,160,2|2,0:0|0:0,0:0:0:0:
312,176,39291,2,0,L|312:336,1,160,2|8,0:0|0:0,0:0:0:0:
404,368,39912,1,8,0:1:0:0:
480,308,40119,1,0,0:0:0:0:
500,216,40326,2,0,P|500:148|476:116,1,80,4|0,1:0|0:0,0:0:0:0:
444,56,40739,6,0,L|276:44,2,160,8|8|0,0:1|0:0|0:0,0:0:0:0:
396,140,41774,2,0,L|312:136,1,80,0|10,0:0|0:0,0:0:0:0:
236,188,42188,2,0,L|152:184,1,80,0|8,0:0|0:1,0:0:0:0:
68,220,42602,2,0,P|68:288|136:360,1,160,8|8,0:0|0:0,0:0:0:0:
220,360,43222,1,8,0:1:0:0:
316,344,43429,1,0,0:0:0:0:
384,276,43636,6,0,P|408:208|368:128,1,160,4|8,1:0|0:1,0:0:0:0:
316,212,44257,2,0,P|256:256|196:212,1,160,4|8,1:0|0:0,0:0:0:0:
139,131,44877,2,0,P|104:201|128:276,1,160,4|0,1:1|0:0,0:0:0:0:
204,332,45498,2,0,L|176:360,2,40,2|0|8,0:0|0:0|0:3,0:0:0:0:
256,252,45912,1,8,0:0:0:0:
308,332,46119,2,0,L|336:360,2,40,2|0|8,0:0|0:0|0:0,0:0:0:0:
256,252,46533,1,8,0:3:0:0:
256,252,46739,6,0,L|256:84,1,160,12|0,1:0|0:0,0:0:0:0:
176,40,47360,2,0,P|112:68|108:172,1,160,8|0,0:1|0:0,0:0:0:0:
160,220,47981,1,8,0:0:0:0:
232,160,48188,1,8,0:1:0:0:
232,160,48395,2,0,L|412:160,1,160,0|0,0:0|0:0,0:0:0:0:
432,348,49222,2,0,L|252:348,1,160,8|8,0:0|0:0,0:0:0:0:
220,268,49843,1,8,0:1:0:0:
56,168,50257,6,0,P|52:104|120:36,1,160,10|8,0:0|0:1,0:0:0:0:
196,88,50877,1,0,0:0:0:0:
256,164,51084,1,8,0:0:0:0:
312,88,51291,1,8,0:0:0:0:
397,37,51498,1,8,0:1:0:0:
456,112,51705,6,0,B|456:168|456:168|432:200|432:200|432:264,1,160,0|0,0:0|0:0,0:0:0:0:
276,376,52533,2,0,B|276:320|276:320|300:288|300:288|300:224,1,160,0|8,0:0|0:0,0:0:0:0:
216,176,53153,2,0,L|216:260,1,80,8|0,0:1|0:0,0:0:0:0:
160,336,53567,5,4,1:1:0:0:
72,300,53774,2,0,P|40:272|32:208,1,80,0|8,0:0|0:1,0:0:0:0:
120,220,54188,2,0,P|128:168|48:96,1,160,0|8,0:0|0:0,0:0:0:0:
236,28,55015,6,0,L|336:28,1,80,8|8,0:0|0:0,0:0:0:0:
412,28,55429,2,0,P|380:72|404:188,1,160,0|0,0:0|0:0,0:0:0:0:
476,220,56050,2,0,P|472:264|436:308,1,80,8|8,0:0|0:0,0:0:0:0:
360,320,56464,1,8,0:1:0:0:
196,220,56877,6,0,P|148:164|140:72,1,160,4|8,1:0|0:1,0:0:0:0:
200,8,57498,2,0,P|272:-5|356:33,1,160,4|8,1:0|0:1,0:0:0:0:
381,117,58119,2,0,P|356:186|280:239,1,160,4|0,1:1|0:0,0:0:0:0:
256,112,58739,5,0,0:0:0:0:
256,112,58946,2,0,L|228:204,1,80,8|8,0:3|0:0,0:0:0:0:
196,280,59360,2,0,P|167:308|130:320,1,80,8|8,0:3|0:0,0:0:0:0:
84,236,59774,2,0,P|112:207|149:195,1,80,8|8,0:0|0:0,0:0:0:0:
248,196,60188,6,0,P|256:144|184:48,1,160,4|8,1:0|0:1,0:0:0:0:
112,28,60808,2,0,L|284:16,1,160,4|0,1:0|0:0,0:0:0:0:
368,12,61429,2,0,L|440:8,4,40,8|0|0|0|4,0:3|0:0|0:0|0:0|1:0,0:0:0:0:
452,256,66395,5,8,2:2:0:0:
452,256,66602,2,0,P|404:328|308:328,1,160,8|8,0:3|0:3,0:0:0:0:
244,304,67222,2,0,P|208:280|200:236,1,80,8|0,0:3|0:0,0:0:0:0:
192,152,67636,2,0,P|200:108|228:76,1,80,0|0,0:0|0:0,0:0:0:0:
221,80,67946,1,0,0:0:0:0:
221,80,68050,1,8,0:0:0:0:
292,144,68257,6,0,P|348:200|424:196,1,160,4|2,0:0|0:0,0:0:0:0:
484,120,68877,1,8,0:1:0:0:
456,312,69291,2,0,P|424:360|328:352,1,160,2|8,0:0|0:1,0:0:0:0:
272,272,69912,1,10,0:0:0:0:
176,104,70326,1,2,0:0:0:0:
368,104,70739,1,0,0:0:0:0:
464,272,71153,2,0,L|512:336,2,80,10|8|12,0:0|0:1|1:0,0:0:0:0:
392,208,71774,5,2,0:0:0:0:
304,168,71981,2,0,P|264:152|224:160,1,80,0|8,0:0|0:1,0:0:0:0:
168,232,72395,2,0,P|88:272|56:224,1,160,2|8,0:0|0:0,0:0:0:0:
32,136,73015,2,0,B|32:103|56:96|56:96|63:93|161:66,2,160,8|8|8,0:1|0:0|0:1,0:0:0:0:
56,227,74050,1,4,1:0:0:0:
209,344,74464,1,4,1:0:0:0:
361,228,74877,1,0,1:0:0:0:
361,228,75084,2,0,L|400:152,1,80,4|0,1:0|0:0,0:0:0:0:
424,64,75498,5,8,0:1:0:0:
344,16,75705,1,2,0:0:0:0:
288,96,75912,2,0,P|264:136|232:152,1,80,0|8,0:0|0:0,0:0:0:0:
144,120,76326,1,8,0:1:0:0:
56,160,76533,5,2,0:0:0:0:
168,8,76946,1,2,0:0:0:0:
224,192,77360,1,2,0:0:0:0:
112,344,77774,1,8,0:0:0:0:
184,280,77981,1,8,0:1:0:0:
256,344,78188,1,8,0:0:0:0:
328,280,78395,6,0,L|367:211,1,80,4|0,1:0|0:0,0:0:0:0:
431,138,78808,1,8,0:1:0:0:
448,232,79015,2,0,L|409:301,1,80,4|0,1:0|0:0,0:0:0:0:
345,374,79428,1,0,0:0:0:0:
256,336,79636,6,0,L|176:320,1,80,4|0,1:0|0:0,0:0:0:0:
288,264,80050,2,0,L|216:224,1,80,2|2,0:0|0:0,0:0:0:0:
344,208,80464,2,0,L|280:144,1,80,0|2,0:0|0:0,0:0:0:0:
208,96,80877,1,8,0:1:0:0:
152,176,81084,1,8,0:3:0:0:
112,264,81291,1,8,0:0:0:0:
20,234,81498,1,4,1:0:0:0:
136,84,81912,6,0,P|184:72|256:160,1,160,2|0,0:0|0:0,0:0:0:0:
256,239,82533,2,0,P|299:301|376:297,1,160,2|8,0:0|0:3,0:0:0:0:
432,220,83153,2,0,L|440:112,1,80,8|8,0:0|0:0,0:0:0:0:
392,56,83567,1,2,0:0:0:0:
392,56,83774,2,0,P|336:68|220:16,1,160,8|2,0:1|0:0,0:0:0:0:
144,35,84395,1,8,0:0:0:0:
64,88,84602,1,8,0:1:0:0:
28,176,84808,1,4,1:0:0:0:
60,268,85015,6,0,P|120:316|204:312,1,160,2|8,0:0|0:1,0:0:0:0:
332,172,85843,1,2,0:0:0:0:
340,268,86050,1,10,0:0:0:0:
432,236,86257,1,8,0:1:0:0:
448,332,86464,1,8,0:0:0:0:
360,372,86670,2,0,P|308:368|240:292,1,160,8|8,0:0|0:1,0:0:0:0:
236,196,87291,5,4,1:0:0:0:
88,316,87705,1,4,1:0:0:0:
64,124,88119,1,4,1:0:0:0:
128,52,88326,6,0,P|176:40|236:56,1,80,4|0,1:0|0:0,0:0:0:0:
276,108,88739,1,8,0:1:0:0:
364,64,88946,1,0,0:0:0:0:
404,152,89153,2,0,L|444:244,2,80,2|8|8,0:0|0:0|0:1,0:0:0:0:
320,204,89774,2,0,L|316:372,1,160,8|2,0:0|0:0,0:0:0:0:
160,252,90602,2,0,P|80:256|40:324,1,160,2|0,0:0|0:0,0:0:0:0:
136,340,91222,1,8,0:1:0:0:
136,340,91429,1,10,0:0:0:0:
228,316,91636,6,0,P|252:248|204:172,1,160,4|0,1:0|0:0,0:0:0:0:
184,83,92257,2,0,P|256:54|328:84,1,160,4|0,1:0|0:0,0:0:0:0:
301,176,92877,2,0,P|260:242|284:316,1,160,4|0,1:0|0:0,0:0:0:0:
368,364,93498,2,0,L|456:368,2,80,0|2|2,0:0|0:0|0:0,0:0:0:0:
404,272,94119,2,0,L|492:276,1,80,2|2,0:0|0:0,0:0:0:0:
504,180,94533,1,0,1:3:0:0:
456,72,94739,1,0,1:3:0:0:
340,96,94946,1,4,1:0:0:0:
178,200,95360,5,8,0:1:0:0:
178,200,95567,2,0,P|104:151|90:80,1,160,0|8,0:0|0:0,0:0:0:0:
194,96,96188,1,8,0:1:0:0:
274,152,96395,1,0,0:0:0:0:
362,184,96602,2,0,P|418:160|426:128,1,80,8|0,0:0|0:0,0:0:0:0:
465,59,97015,1,8,0:1:0:0:
504,147,97222,2,0,P|470:220|404:260,1,160,8|8,0:0|0:0,0:0:0:0:
308,260,97843,1,8,1:0:0:0:
248,80,98257,1,10,0:0:0:0:
64,32,98670,5,8,0:1:0:0:
26,121,98877,1,0,0:0:0:0:
120,144,99084,1,8,0:0:0:0:
120,240,99291,1,8,0:0:0:0:
26,263,99498,1,8,0:1:0:0:
64,352,99705,2,0,P|160:336|216:304,1,160,2|2,0:0|0:0,0:0:0:0:
448,352,100533,2,0,P|352:336|296:304,1,160,2|8,0:0|0:0,0:0:0:0:
256,220,101153,5,8,0:1:0:0:
256,124,101360,1,8,0:1:0:0:
256,124,101464,1,8,0:1:0:0:
256,124,101567,1,4,1:0:0:0:
424,32,101981,2,0,B|480:88|480:88|480:168,1,160,8|0,0:1|0:0,0:0:0:0:
480,265,102602,1,8,0:0:0:0:
392,304,102808,1,8,0:1:0:0:
392,207,103015,2,0,B|392:127|392:127|336:71,2,160,2|2|2,0:0|0:0|0:0,0:0:0:0:
280,328,104257,5,0,0:0:0:0:
187,360,104464,1,8,0:1:0:0:
96,328,104670,1,0,0:0:0:0:
24,264,104877,2,0,B|72:207|-25:174|24:117,1,160,4|8,1:0|0:1,0:0:0:0:
120,104,105498,2,0,B|71:160|168:193|120:250,1,160,4|8,1:0|0:0,0:0:0:0:
80,336,106119,2,0,B|137:363|239:319|229:224|223:173,1,240,4|8,1:0|0:3,0:0:0:0:
216,104,106946,2,0,L|160:40,2,80,8|8|8,0:3|0:0|0:3,0:0:0:0:
296,160,107567,5,0,1:0:0:0:
368,256,107774,1,8,1:2:0:0:
296,352,107981,1,4,1:0:0:0:
328,72,108602,5,8,0:1:0:0:
246,24,108808,1,0,0:0:0:0:
80,120,109222,1,8,0:0:0:0:
144,192,109429,1,8,0:1:0:0:
80,264,109636,2,0,P|104:296|144:304,1,80,2|0,0:0|0:0,0:0:0:0:
238,304,110050,2,0,L|318:304,1,80,2|0,0:0|0:0,0:0:0:0:
414,304,110464,2,0,P|452:295|475:263,1,80,2|8,0:0|0:0,0:0:0:0:
488,168,110877,5,8,0:0:0:0:
448,80,111084,1,0,0:0:0:0:
256,32,111498,2,0,P|208:85|160:32,1,160,10|8,0:0|0:1,0:0:0:0:
72,72,112119,5,0,0:0:0:0:
128,152,112326,1,8,0:0:0:0:
216,192,112533,1,8,0:0:0:0:
128,232,112739,1,8,0:1:0:0:
72,312,112946,1,2,0:0:0:0:
256,360,113360,1,2,0:0:0:0:
440,312,113774,1,2,0:0:0:0:
380,132,114188,1,8,0:0:0:0:
444,60,114395,1,8,0:1:0:0:
256,32,114808,5,4,1:0:0:0:
256,32,115015,2,0,P|252:130|200:172,1,160,0|8,0:0|0:0,0:0:0:0:
41,77,115843,2,0,P|105:37|170:78,1,160,8|8,0:0|0:0,0:0:0:0:
24,176,116670,2,0,P|32:272|88:304,1,160,0|8,0:0|0:0,0:0:0:0:
173,280,117291,1,0,0:0:0:0:
256,328,117498,1,8,0:0:0:0:
256,232,117705,1,8,0:1:0:0:
312,24,118119,6,0,B|408:104|408:104|388:132,1,160,4|8,1:0|0:1,0:0:0:0:
320,200,118739,2,0,P|256:159|192:200,1,160,4|8,1:0|0:1,0:0:0:0:
124,132,119360,2,0,B|104:104|104:104|200:24,1,160,4|0,1:0|0:0,0:0:0:0:
256,104,119981,1,8,0:3:0:0:
216,192,120188,2,0,L|163:252,1,80,8|8,0:3|0:0,0:0:0:0:
216,333,120602,2,0,L|296:333,1,80,8|8,0:3|0:0,0:0:0:0:
349,252,121015,2,0,L|296:192,1,80,8|8,0:0|0:0,0:0:0:0:
256,104,121429,6,0,L|256:24,2,80,4|0|8,1:0|0:0|0:1,0:0:0:0:
179,160,122050,1,4,1:0:0:0:
208,252,122257,1,2,0:0:0:0:
304,252,122464,1,0,0:0:0:0:
333,160,122670,2,0,L|368:142,4,40,8|0|8|8|4,0:3|0:0|0:3|0:0|1:0,0:0:0:0:
380,48,129705,6,0,P|432:104|432:184,1,160,8|10,0:0|0:0,0:0:0:0:
336,312,130533,2,0,L|176:312,1,160,10|8,0:0|0:0,0:0:0:0:
79,183,131360,2,0,P|79:105|132:48,1,160,10|8,0:0|0:0,0:0:0:0:
216,68,131981,2,0,L|216:168,1,80,2|8,0:0|0:0,0:0:0:0:
296,148,132395,2,0,L|296:68,2,80,2|0|0,0:0|0:0|0:0,0:0:0:0:
364,192,133015,6,0,P|412:268|384:336,1,160,8|10,0:0|0:0,0:0:0:0:
256,244,133843,2,0,L|256:64,1,160,10|8,0:0|0:0,0:0:0:0:
147,192,134670,2,0,P|101:253|121:328,1,160,10|8,0:0|0:0,0:0:0:0:
196,360,135291,2,0,L|288:360,1,80,2|0,0:0|0:0,0:0:0:0:
352,332,135705,1,2,0:0:0:0:
392,264,135912,1,0,0:0:0:0:
380,184,136119,1,0,0:0:0:0:
340,116,136326,6,0,P|276:72|176:88,1,160,12|8,0:0|0:1,0:0:0:0:
132,124,136946,1,0,0:0:0:0:
100,196,137153,2,0,P|88:264|140:344,1,160,10|8,0:0|0:0,0:0:0:0:
208,368,137774,1,0,0:0:0:0:
288,380,137981,2,0,P|364:332|388:244,1,160,10|8,0:0|0:1,0:0:0:0:
380,188,138602,2,0,L|208:188,1,160,2|2,0:0|0:0,0:0:0:0:
140,188,139222,1,0,0:0:0:0:
60,188,139429,1,0,0:0:0:0:
36,112,139636,6,0,B|88:64|88:64|184:64,1,160,8|8,0:0|0:1,0:0:0:0:
256,88,140257,1,0,0:0:0:0:
334,64,140464,2,0,B|424:64|424:64|476:112,1,160,10|8,0:0|0:0,0:0:0:0:
476,192,141084,1,0,0:0:0:0:
476,272,141291,2,0,B|424:320|424:320|328:320,1,160,10|8,0:0|0:1,0:0:0:0:
256,296,141912,2,0,B|166:296|166:296|114:344,1,160,2|2,0:0|0:0,0:0:0:0:
44,304,142533,2,0,L|108:240,1,80,8|2,0:0|0:0,0:0:0:0:
160,196,142946,6,0,P|172:148|120:56,1,160,8|8,0:0|0:1,0:0:0:0:
44,76,143567,1,0,0:0:0:0:
88,144,143774,2,0,L|244:92,1,160,10|8,0:0|0:0,0:0:0:0:
316,68,144395,1,8,0:0:0:0:
256,16,144602,2,0,P|240:88|304:148,1,160,10|8,0:0|0:0,0:0:0:0:
375,145,145222,2,0,P|429:199|414:274,1,160,2|10,0:0|0:0,0:0:0:0:
372,344,145843,1,8,0:0:0:0:
308,296,146050,1,2,0:0:0:0:
256,356,146257,6,0,P|200:360|160:336,1,80,4|2,0:1|0:0,0:0:0:0:
112,312,146670,1,8,0:1:0:0:
68,244,146877,2,0,L|56:148,1,80,4|0,1:0|0:0,0:0:0:0:
52,68,147291,1,8,0:1:0:0:
136,112,147498,1,8,0:1:0:0:
208,48,147705,1,8,0:3:0:0:
292,96,147912,6,0,B|280:96|240:128|280:160|292:160|292:160|320:160|368:160,1,160,4|8,1:0|0:1,0:0:0:0:
459,175,148533,2,0,B|471:175|511:207|471:239|459:239|459:239|431:239|383:239,1,160,0|8,0:0|0:0,0:0:0:0:
296,272,149153,2,0,L|216:296,1,80,8|0,0:1|0:0,0:0:0:0:
136,344,149567,5,10,0:0:0:0:
56,296,149774,1,2,0:0:0:0:
16,208,149981,1,8,0:1:0:0:
56,120,150188,1,0,0:0:0:0:
136,72,150395,2,0,P|224:56|288:80,1,160,2|8,0:0|0:1,0:0:0:0:
352,152,151015,2,0,P|264:168|200:144,1,160,4|0,1:0|0:0,0:0:0:0:
136,72,151636,2,0,P|112:160|72:216,1,160,8|0,0:1|0:0,0:0:0:0:
8,288,152257,6,0,B|2:329|31:334|31:334|43:370|78:358,2,120,10|2|10,0:0|0:0|0:0,0:0:0:0:
80,108,153291,1,8,0:1:0:0:
136,188,153498,2,0,P|208:252|280:244,1,160,4|4,1:0|1:0,0:0:0:0:
328,176,154119,2,0,L|344:140,4,40,8|2|2|2|4,0:1|0:0|0:0|0:0|1:0,0:0:0:0:
456,320,154946,5,8,0:1:0:0:
368,280,155153,2,0,P|288:256|208:288,1,160,0|10,0:0|0:0,0:0:0:0:
152,352,155774,1,8,0:1:0:0:
80,288,155981,2,0,P|32:216|56:152,1,160,10|2,0:0|0:0,0:0:0:0:
213,43,156808,2,0,P|261:115|237:179,1,160,2|8,0:0|0:0,0:0:0:0:
161,235,157429,1,8,0:1:0:0:
64,64,157843,5,4,1:0:0:0:
132,144,158050,1,0,0:0:0:0:
236,144,158257,1,8,0:1:0:0:
304,64,158464,2,0,P|337:137|310:211,1,160,4|4,1:0|1:0,0:0:0:0:
64,320,159498,5,4,1:0:0:0:
132,240,159705,1,0,0:0:0:0:
236,240,159912,1,8,0:1:0:0:
304,320,160119,2,0,P|383:302|424:240,2,160,4|4|4,1:0|1:0|1:0,0:0:0:0:
132,240,161360,5,2,0:0:0:0:
172,152,161567,1,2,0:0:0:0:
253,87,161774,1,2,0:0:0:0:
360,56,161981,1,2,0:0:0:0:
480,40,162188,2,0,B|488:72|512:88|512:88|488:104|480:136,2,120,0|0|4,1:0|0:0|1:0,0:0:0:0:
256,192,162912,12,4,164257,1:0:0:0:
256,120,164877,5,8,0:1:0:0:
336,296,165291,2,0,L|360:200,2,80,0|8|8,0:0|0:0|0:1,0:0:0:0:
256,244,165911,1,0,0:0:0:0:
176,296,166119,2,0,L|136:136,1,160,8|8,0:0|0:1,0:0:0:0:
108,48,166739,2,0,B|28:100|28:100|48:180,2,160,8|8|0,0:0|0:0|0:0,0:0:0:0:
200,16,167773,5,10,0:0:0:0:
356,128,168188,1,8,0:1:0:0:
299,206,168395,1,0,0:0:0:0:
355,283,168602,1,8,0:0:0:0:
447,254,168808,1,8,0:0:0:0:
447,158,169015,1,8,0:1:0:0:
356,128,169222,2,0,P|280:112|212:160,1,160,2|2,0:0|0:0,0:0:0:0:
112,320,170050,2,0,P|188:336|256:288,1,160,2|8,0:0|0:0,0:0:0:0:
304,212,170670,1,8,0:1:0:0:
356,292,170877,1,8,0:0:0:0:
404,208,171084,2,0,P|448:190|496:200,1,80,4|0,1:0|0:0,0:0:0:0:
460,288,171497,6,0,L|424:112,2,160,8|8|8,0:1|0:0|0:1,0:0:0:0:
412,372,172532,2,0,P|369:370|328:352,1,80,0|8,0:0|0:0,0:0:0:0:
256,300,172946,2,0,P|213:301|172:320,1,80,0|8,0:0|0:1,0:0:0:0:
96,368,173360,2,0,P|42:310|38:232,1,160,0|8,0:0|0:0,0:0:0:0:
88,148,173980,1,8,0:1:0:0:
176,112,174187,1,0,0:0:0:0:
256,60,174395,6,0,B|332:60|332:112|408:112,1,160,4|8,1:0|0:1,0:0:0:0:
500,128,175015,2,0,B|424:128|424:180|348:180,1,160,4|8,1:0|0:0,0:0:0:0:
256,196,175636,2,0,B|332:196|332:248|408:248,1,160,4|0,1:0|0:0,0:0:0:0:
468,320,176256,2,0,L|468:364,2,40,2|0|8,0:0|0:0|0:3,0:0:0:0:
504,232,176670,1,8,0:0:0:0:
468,144,176877,2,0,L|468:100,2,40,8|0|0,0:3|0:0|1:0,0:0:0:0:
396,208,177291,1,0,1:0:0:0:
320,148,177498,1,4,1:0:0:0:
244,208,177705,6,0,P|196:288|132:296,1,160,0|8,0:0|0:1,0:0:0:0:
40,280,178326,1,0,0:0:0:0:
56,88,178739,1,8,0:0:0:0:
134,144,178946,1,8,0:1:0:0:
212,88,179153,2,0,L|292:120,1,80,0|0,0:0|0:0,0:0:0:0:
336,200,179567,2,0,L|416:232,1,80,0|8,0:0|0:1,0:0:0:0:
456,316,179981,2,0,L|376:348,2,80,8|0|8,0:0|0:0|0:0,0:0:0:0:
504,232,180602,1,8,0:1:0:0:
328,152,181015,6,0,P|256:123|184:152,1,160,10|8,0:0|0:1,0:0:0:0:
88,136,181636,1,0,0:0:0:0:
160,64,181843,1,8,0:0:0:0:
256,32,182050,1,8,0:0:0:0:
352,64,182257,1,8,0:1:0:0:
424,136,182464,1,2,0:0:0:0:
352,312,182877,1,2,0:0:0:0:
160,312,183291,1,2,0:0:0:0:
88,136,183705,1,8,0:0:0:0:
88,136,183912,1,8,0:1:0:0:
256,144,184326,6,0,P|224:176|224:208,2,80,4|0|8,1:0|0:0|0:1,0:0:0:0:
346,111,184946,2,0,P|384:113|410:142,1,80,0|8,0:0|0:0,0:0:0:0:
448,232,185360,2,0,P|445:270|416:296,1,80,8|8,0:0|0:1,0:0:0:0:
328,256,185774,2,0,B|296:232|296:232|264:256,1,80,8|8,0:0|0:0,0:0:0:0:
200,328,186188,2,0,B|168:352|168:352|136:328,1,80,0|8,0:0|0:1,0:0:0:0:
72,256,186602,1,0,0:0:0:0:
124,176,186808,1,8,0:0:0:0:
72,96,187015,1,8,0:0:0:0:
124,16,187222,1,8,0:1:0:0:
312,44,187636,6,0,P|392:68|424:132,1,160,4|8,1:0|0:1,0:0:0:0:
424,251,188257,2,0,P|387:319|311:339,1,160,4|8,1:0|0:1,0:0:0:0:
192,340,188877,2,0,P|105:296|192:256,1,240,4|8,1:0|0:3,0:0:0:0:
288,264,189705,2,0,P|332:248|345:220,1,80,8|8,0:3|0:0,0:0:0:0:
344,124,190119,2,0,P|324:90|286:79,1,80,8|8,0:3|0:0,0:0:0:0:
200,120,190533,1,8,0:0:0:0:
160,208,190739,1,8,0:0:0:0:
144,304,190946,6,0,P|225:343|297:339,1,160,4|8,1:0|0:1,0:0:0:0:
352,224,191567,2,0,P|282:269|208:262,1,160,4|0,1:0|0:0,0:0:0:0:
136,200,192188,2,0,L|99:169,4,40,8|8|8|8|8,0:3|0:3|0:0|0:0|0:0,0:0:0:0:
176,32,193015,5,0,1:0:0:0:
256,120,193222,1,0,1:0:0:0:
336,32,193429,1,4,1:0:0:0:
