osu file format v14

[General]
AudioFilename: audio.mp3
AudioLeadIn: 0
PreviewTime: 102396
Countdown: 0
SampleSet: Soft
StackLeniency: 0.4
Mode: 0
LetterboxInBreaks: 0
WidescreenStoryboard: 1

[Editor]
Bookmarks: 3615,29473,42402,45610,48662,51661,57308,68602,79896,91190,102484,119425,125072,136366,147660,158955,181543,187190,198484,209778,232366,243660,254955,294484,302955,311727,316626,321612
DistanceSpacing: 0.5
BeatDivisor: 8
GridSize: 4
TimelineZoom: 2.7

[Metadata]
Title:Labyrinth (feat. Miyoki)
TitleUnicode:Labyrinth (feat. Miyoki)
Artist:Trivecta
ArtistUnicode:Trivecta
Creator:Mir
Version:Desperation
Source:
Tags:trivectamusic female vocals dubstep melodic powerful bass wubs
BeatmapID:1092357
BeatmapSetID:514179

[Difficulty]
HPDrainRate:5
CircleSize:4.2
OverallDifficulty:8.7
ApproachRate:9.2
SliderMultiplier:3.59999990463257
SliderTickRate:1

[Events]
//Background and Video events
0,0,"dark church.jpg",0,0
//Break Periods
//Storyboard Layer 0 (Background)
//Storyboard Layer 1 (Fail)
//Storyboard Layer 2 (Pass)
//Storyboard Layer 3 (Foreground)
//Storyboard Sound Samples

[TimingPoints]
3615,808.080808080808,4,2,2,40,1,0
3615,-200,4,2,2,40,0,0
12099,-200,4,2,2,15,0,0
12503,-200,4,2,2,40,0,0
12907,-200,4,2,2,30,0,0
13311,-200,4,2,2,40,0,0
29473,-200,4,2,2,50,0,0
42402,800,4,2,2,40,1,0
42402,-181.818181818182,4,2,2,40,0,0
45610,763.116057233704,4,2,2,40,1,0
45610,-166.666666666667,4,2,2,40,0,0
48662,749.91,4,2,2,40,1,0
48662,-142.857142857143,4,2,2,40,0,0
51661,705.882352941176,4,2,2,40,1,0
51661,-142.857142857143,4,2,2,40,0,0
54484,-142.857142857143,4,2,2,20,0,0
57308,-142.857142857143,4,2,1,70,0,0
78484,-142.857142857143,4,2,1,40,0,0
79366,-142.857142857143,4,2,1,70,0,0
79896,-200,4,2,1,40,0,0
91190,-181.818181818182,4,2,1,40,0,0
101955,-100,4,2,1,40,0,0
102484,-100,4,2,1,80,0,1
125072,-166.666666666667,4,2,1,60,0,0
180131,-100,4,2,1,40,0,0
181719,-100,4,2,1,5,0,0
187190,-200,4,2,2,20,0,0
197778,-200,4,2,1,20,0,0
197955,-200,4,2,2,20,0,0
198484,-181.818181818182,4,2,2,40,0,0
209072,-181.818181818182,4,2,1,40,0,0
209249,-181.818181818182,4,2,2,40,0,0
226719,-181.818181818182,4,2,2,50,0,0
229543,-181.818181818182,4,2,2,60,0,0
230955,-181.818181818182,4,2,2,70,0,0
231660,-181.818181818182,4,2,2,80,0,0
232013,-181.818181818182,4,2,2,90,0,0
232366,-181.818181818182,4,2,1,40,0,0
243660,-181.818181818182,4,2,1,50,0,0
247896,-153.846153846154,4,2,1,40,0,0
249308,-153.846153846154,4,2,1,60,0,0
249660,-153.846153846154,4,2,1,60,0,0
249925,-153.846153846154,4,2,1,5,0,0
250013,-153.846153846154,4,2,1,60,0,0
250278,-153.846153846154,4,2,1,5,0,0
250366,-153.846153846154,4,2,1,60,0,0
250631,-153.846153846154,4,2,1,5,0,0
250719,-153.846153846154,4,2,1,60,0,0
250984,-153.846153846154,4,2,1,5,0,0
251072,-153.846153846154,4,2,1,60,0,0
251337,-153.846153846154,4,2,1,5,0,0
251425,-153.846153846154,4,2,1,60,0,0
251690,-153.846153846154,4,2,1,5,0,0
251778,-153.846153846154,4,2,1,60,0,0
252043,-153.846153846154,4,2,1,5,0,0
252131,-153.846153846154,4,2,1,60,0,0
254955,-100,4,2,1,80,0,1
255660,-200,4,2,1,80,0,1
257778,-100,4,2,1,80,0,1
258484,-200,4,2,1,80,0,1
260072,-133.333333333333,4,2,1,80,0,1
260602,-100,4,2,1,80,0,1
266072,-100,4,2,1,80,0,0
266249,-100,4,2,1,80,0,1
266955,-200,4,2,1,80,0,1
269072,-100,4,2,1,80,0,1
269778,-200,4,2,1,80,0,1
271896,-100,4,2,1,80,0,1
278955,-200,4,2,1,80,0,1
279660,-133.333333333333,4,2,1,80,0,1
280366,-133.333333333333,4,2,1,80,0,1
283190,-66.6666666666667,4,2,1,80,0,1
286719,-100,4,2,1,80,0,1
287072,-66.6666666666667,4,2,1,80,0,1
287425,-100,4,2,1,80,0,1
293072,-66.6666666666667,4,2,1,80,0,1
293778,-100,4,2,1,80,0,1
294484,-100,4,2,2,10,0,0
299249,-200,4,2,2,30,0,0
300131,-200,4,2,2,10,0,0
302955,727.272727272727,4,2,2,10,1,0
302955,-200,4,2,2,10,0,0
309500,736.196319018405,4,2,2,10,1,0
309500,-200,4,2,2,10,0,0
309868,754.716981132075,4,2,2,10,1,0
311377,-100,4,2,2,20,0,0
311573,740.740740740741,4,2,2,20,1,0
311758,765.794511805999,4,2,2,10,1,0
311758,-200,4,2,2,10,0,0
314823,800,4,2,2,20,1,0
314823,-200,4,2,2,20,0,0
315623,-200,4,2,2,10,0,0
316423,813.559322033898,4,2,2,10,1,0
316423,-200,4,2,2,10,0,0
318050,857.142857142857,4,2,2,10,1,0
318050,-200,4,2,2,10,0,0
319764,921.658986175115,4,2,2,10,1,0
319764,-142.857142857143,4,2,2,10,0,0
320455,975.609756097561,4,2,2,10,1,0
320455,-166.666666666667,4,2,2,10,0,0
321186,1038.96103896104,4,2,2,10,1,0
321186,-200,4,2,2,10,0,0
321705,1463.41463414634,4,2,2,10,1,0
322802,1224.48979591837,4,2,2,10,1,0

[Colours]
Combo1 : 255,43,43
Combo2 : 140,140,140
Combo3 : 216,216,216
Combo4 : 91,91,91
Combo5 : 255,108,108

[HitObjects]
114,110,3615,6,0,L|220:117,1,89.9999976158142,2|0,0:2|0:2,0:2:0:0:
293,206,4423,2,0,L|187:213,1,89.9999976158142,0|0,0:2|0:2,0:2:0:0:
298,123,5231,2,0,L|404:130,1,89.9999976158142,2|0,0:2|0:2,0:2:0:0:
485,214,6039,2,0,L|379:221,1,89.9999976158142,0|0,0:2|0:2,0:2:0:0:
388,129,6645,1,0,0:2:0:0:
473,24,6847,6,0,L|466:123,1,89.9999976158142,2|0,0:2|0:2,0:2:0:0:
395,219,7655,2,0,L|388:129,1,89.9999976158142,0|0,0:2|0:2,0:2:0:0:
316,20,8463,2,0,L|309:119,1,89.9999976158142,2|0,0:2|0:2,0:2:0:0:
236,229,9271,2,0,L|229:139,1,89.9999976158142,0|0,0:2|0:2,0:2:0:0:
159,72,9877,1,0,0:2:0:0:
45,167,10079,6,0,P|112:175|164:153,1,89.9999976158142,2|0,0:2|0:2,0:2:0:0:
246,74,10887,2,0,P|179:66|127:88,1,89.9999976158142,0|0,0:2|0:2,0:2:0:0:
283,167,11695,2,0,P|327:173|370:164,1,89.9999976158142,2|8,0:2|0:2,0:2:0:0:
480,74,12503,2,0,P|436:64|392:71,1,89.9999976158142,0|8,0:2|0:2,0:2:0:0:
377,247,13311,37,2,0:2:0:0:
454,288,13716,2,0,P|453:213|357:165,1,179.999995231628,8|8,0:2|0:2,0:2:0:0:
377,247,14928,1,2,0:2:0:0:
362,256,16342,1,0,0:2:0:0:
338,274,16544,6,0,L|212:268,1,89.9999976158142,2|8,0:2|0:2,0:2:0:0:
132,197,17352,2,0,L|258:191,1,89.9999976158142,0|8,0:2|0:2,0:2:0:0:
335,116,18160,2,0,L|209:110,1,89.9999976158142,2|8,0:2|0:2,0:2:0:0:
114,43,18968,2,0,L|240:37,1,89.9999976158142,0|8,0:2|0:2,0:2:0:0:
483,35,19776,5,2,0:2:0:0:
392,26,19978,1,0,0:2:0:0:
317,72,20180,1,8,0:2:0:0:
368,271,20584,2,0,L|363:159,1,89.9999976158142,0|8,0:2|0:2,0:2:0:0:
282,69,21392,2,0,L|277:158,1,89.9999976158142,2|8,0:2|0:2,0:2:0:0:
199,271,22200,2,0,L|194:181,1,89.9999976158142,0|8,0:2|0:2,0:2:0:0:
18,157,23008,54,0,L|138:158,1,89.9999976158142,2|8,0:2|0:2,0:2:0:0:
238,232,23817,2,0,L|118:233,1,89.9999976158142,0|8,0:2|0:2,0:2:0:0:
16,314,24625,2,0,L|136:315,1,89.9999976158142,2|8,0:2|0:2,0:2:0:0:
272,379,25433,1,0,0:0:0:0:
187,316,25837,1,8,0:0:0:0:
319,300,26039,1,0,0:2:0:0:
326,316,26140,1,0,0:2:0:0:
339,327,26241,6,0,P|382:338|442:323,1,89.9999976158142,2|8,0:2|0:2,0:2:0:0:
474,257,27049,2,0,P|429:249|386:260,1,89.9999976158142,0|8,0:2|0:2,0:2:0:0:
386,259,27857,1,2,0:2:0:0:
376,235,29069,1,0,0:2:0:0:
362,156,29271,1,0,0:2:0:0:
403,81,29473,38,0,L|292:75,1,89.9999976158142,2|8,0:2|0:2,0:2:0:0:
262,131,30079,1,0,0:2:0:0:
164,72,30281,2,0,L|74:76,1,89.9999976158142,0|8,0:2|0:2,0:2:0:0:
29,141,30887,1,0,0:2:0:0:
106,249,31089,2,0,P|127:194|121:156,1,89.9999976158142,2|8,0:2|0:2,0:2:0:0:
29,141,31695,1,0,0:2:0:0:
106,249,31897,2,0,L|217:251,1,89.9999976158142,0|8,0:2|0:2,0:2:0:0:
263,192,32503,1,0,0:2:0:0:
268,313,32705,6,0,P|329:314|361:295,1,89.9999976158142,2|8,0:2|0:2,0:2:0:0:
434,298,33311,1,0,0:2:0:0:
355,208,33513,2,0,P|350:163|366:122,1,89.9999976158142,0|8,0:2|0:2,0:2:0:0:
445,180,34120,1,0,0:2:0:0:
359,42,34322,2,0,L|257:36,1,89.9999976158142,2|8,0:2|0:2,0:2:0:0:
213,94,34928,1,0,0:2:0:0:
94,39,35130,2,0,P|134:32|153:33,1,44.9999988079071,0|0,0:2|0:2,0:2:0:0:
122,137,35534,2,0,P|99:135|77:129,1,44.9999988079071,8|0,0:2|0:2,0:2:0:0:
185,218,35938,6,0,L|285:220,1,89.9999976158142,2|8,0:2|0:2,0:2:0:0:
326,145,36544,1,0,0:2:0:0:
178,259,36746,2,0,L|275:235,1,89.9999976158142,2|8,0:2|0:2,0:2:0:0:
295,151,37352,1,0,0:2:0:0:
188,312,37554,2,0,L|275:263,1,89.9999976158142,2|8,0:2|0:2,0:2:0:0:
273,178,38160,1,0,0:2:0:0:
212,355,38362,2,0,L|284:285,1,89.9999976158142,2|8,0:2|0:2,0:2:0:0:
260,203,38968,1,0,0:2:0:0:
379,336,39170,38,0,P|429:346|484:334,2,89.9999976158142,2|8|0,0:2|0:2|0:2,0:2:0:0:
319,279,40382,1,8,0:2:0:0:
419,116,40786,1,2,0:2:0:0:
398,129,42200,1,0,0:2:0:0:
379,138,42402,6,0,L|267:131,1,99.0000003986359,2|8,0:2|0:2,0:2:0:0:
169,115,43202,1,0,0:2:0:0:
247,255,43602,1,8,0:2:0:0:
281,176,43802,1,0,0:2:0:0:
163,261,44002,2,0,L|157:327,1,49.5000001993179,2|0,0:2|0:2,0:2:0:0:
225,361,44402,1,8,0:2:0:0:
301,322,44602,1,0,0:2:0:0:
453,373,44802,5,2,0:0:0:0:
385,324,45002,1,0,0:0:0:0:
387,254,45202,1,8,0:0:0:0:
390,184,45402,1,0,0:0:0:0:
251,159,45610,38,0,L|143:162,1,107.999993843079,2|8,0:2|0:2,0:2:0:0:
55,170,46373,1,0,0:2:0:0:
189,249,46754,1,8,0:2:0:0:
195,118,46945,1,0,0:2:0:0:
299,248,47136,6,0,L|373:251,1,53.9999969215394,2|0,0:2|0:2,0:2:0:0:
464,232,47517,1,8,0:2:0:0:
394,172,47708,1,0,0:0:0:0:
396,101,47899,1,2,0:0:0:0:
398,31,48090,1,0,0:0:0:0:
264,108,48280,2,0,L|190:106,1,53.9999969215394,8|0,0:2|0:2,0:2:0:0:
122,261,48662,6,0,P|126:193|117:172,1,62.9999964084626,2|0,0:2|0:2,0:2:0:0:
73,124,49036,1,8,0:2:0:0:
37,204,49224,1,0,0:2:0:0:
144,293,49411,2,0,P|130:226|116:208,1,62.9999964084626,2|0,0:2|0:2,0:2:0:0:
61,173,49785,1,8,0:2:0:0:
47,260,49973,1,0,0:2:0:0:
174,318,50161,38,0,P|143:257|125:244,1,62.9999964084626,2|0,0:2|0:2,0:2:0:0:
63,224,50535,1,8,0:2:0:0:
72,311,50723,1,0,0:2:0:0:
210,335,50911,2,0,P|164:284|143:276,1,62.9999964084626,2|0,0:2|0:2,0:2:0:0:
78,273,51285,1,8,0:2:0:0:
232,211,51474,1,0,0:2:0:0:
247,211,51567,1,0,0:2:0:0:
263,211,51661,6,0,L|399:207,1,125.999992816925,2|8,0:2|0:2,0:2:0:0:
313,133,52366,2,0,L|177:129,1,125.999992816925,0|8,0:2|0:2,0:2:0:0:
110,125,53072,5,2,0:2:0:0:
256,192,54484,12,0,55896,0:2:0:0:
148,29,57308,38,0,P|124:72|138:166,1,125.999992816925,6|0,3:2|0:2,0:2:0:0:
196,242,57837,1,0,0:2:0:0:
70,241,58013,2,0,L|216:242,1,125.999992816925,8|0,0:2|0:2,0:2:0:0:
192,336,58543,1,0,0:2:0:0:
285,218,58719,2,0,P|249:166|175:151,1,125.999992816925,2|0,3:2|0:2,0:2:0:0:
195,241,59249,1,2,0:2:0:0:
101,310,59425,2,0,P|135:258|194:240,1,125.999992816925,8|2,0:2|0:2,0:2:0:0:
192,336,59955,1,0,0:2:0:0:
405,287,60131,6,0,P|411:226|353:171,1,125.999992816925,0|2,3:2|0:2,0:2:0:0:
323,104,60660,1,0,0:2:0:0:
291,213,60837,2,0,P|285:152|343:97,1,125.999992816925,8|2,0:2|0:2,0:2:0:0:
373,179,61366,1,0,0:2:0:0:
490,263,61543,2,0,L|349:269,1,125.999992816925,2|0,3:2|0:2,0:2:0:0:
286,302,62072,1,2,3:2:0:0:
292,316,62160,1,0,3:2:0:0:
297,330,62249,1,8,0:2:0:0:
372,178,62425,2,0,L|375:103,2,62.9999964084626,0|2|0,3:2|0:2|0:2,0:2:0:0:
81,126,62955,6,0,P|122:73|201:68,1,125.999992816925,0|2,3:2|0:2,0:2:0:0:
172,150,63484,1,0,0:2:0:0:
161,298,63660,2,0,L|169:215,1,62.9999964084626,8|0,0:2|0:2,0:2:0:0:
228,152,64013,37,2,0:2:0:0:
284,154,64190,1,0,0:2:0:0:
340,156,64366,1,2,0:2:0:0:
200,153,64543,5,0,0:2:0:0:
256,155,64720,1,0,0:2:0:0:
312,157,64896,1,2,0:2:0:0:
153,66,65072,6,0,P|79:90|53:147,1,125.999992816925,8|2,0:2|0:2,0:2:0:0:
145,153,65602,1,0,0:2:0:0:
142,331,65778,38,0,B|146:153|146:153|133:200|101:204,1,220.499987429619,0|0,3:2|0:2,0:2:0:0:
0,230,66484,2,0,L|62:230,1,62.9999964084626,8|0,0:2|0:2,0:2:0:0:
279,341,66837,5,0,0:2:0:0:
310,341,67013,1,0,0:2:0:0:
222,343,67190,5,2,3:2:0:0:
253,343,67366,1,0,0:2:0:0:
284,343,67543,1,0,0:2:0:0:
127,190,67719,5,0,3:2:0:0:
127,257,67808,1,0,3:2:0:0:
127,325,67896,1,8,0:2:0:0:
253,343,68072,53,0,3:2:0:0:
284,343,68249,1,0,0:2:0:0:
315,343,68425,1,0,0:2:0:0:
194,237,68602,54,0,L|339:230,1,125.999992816925,6|0,3:2|0:2,0:2:0:0:
216,141,69131,1,0,0:2:0:0:
156,41,69308,2,0,P|168:102|230:144,1,125.999992816925,8|0,0:2|0:2,0:2:0:0:
247,53,69837,1,0,0:2:0:0:
259,45,69925,1,0,0:2:0:0:
273,38,70013,2,0,L|353:36,2,62.9999964084627,2|0|0,3:2|0:2|0:2,0:2:0:0:
215,140,70543,1,2,0:2:0:0:
99,156,70719,2,0,P|159:168|214:140,1,125.999992816925,8|2,0:2|0:2,0:2:0:0:
273,38,71249,1,0,0:2:0:0:
422,144,71425,6,0,L|419:284,1,125.999992816925,0|2,3:2|0:2,0:2:0:0:
326,329,71955,1,0,0:2:0:0:
214,298,72131,2,0,P|277:293|330:336,1,125.999992816925,8|2,0:2|0:2,0:2:0:0:
251,379,72660,1,0,0:2:0:0:
102,328,72837,2,0,P|165:333|218:290,1,125.999992816925,2|0,3:2|0:2,0:2:0:0:
68,242,73366,1,2,3:2:0:0:
54,249,73455,1,0,3:2:0:0:
42,259,73543,1,8,0:2:0:0:
212,202,73719,2,0,L|214:128,2,62.9999964084627,0|2|0,3:2|0:2|0:2,0:2:0:0:
2,141,74249,54,0,L|87:137,1,62.9999964084627,0|0,3:2|0:2,0:2:0:0:
212,202,74602,2,0,L|127:198,1,62.9999964084627,2|0,0:2|0:2,0:2:0:0:
327,212,74955,1,8,0:2:0:0:
262,286,75131,1,0,0:2:0:0:
422,218,75308,2,0,P|407:164|382:145,1,62.9999964084627,2|0,0:2|0:2,0:2:0:0:
262,286,75660,2,0,P|325:309|402:274,1,125.999992816925,2|0,3:2|0:2,0:2:0:0:
262,286,76190,2,0,P|233:278|199:283,2,62.9999964084627,2|8|0,0:2|0:2|0:2,0:2:0:0:
145,347,76719,2,0,P|123:326|111:278,1,62.9999964084627,2|0,0:2|0:2,0:2:0:0:
26,122,77072,6,0,B|50:187|32:264|32:264|38:246|80:221,1,188.999989225388,2|0,3:2|0:2,0:2:0:0:
182,180,77778,2,0,L|119:180,1,62.9999964084627,8|0,0:2|0:2,0:2:0:0:
111,296,78131,1,0,0:2:0:0:
296,35,78484,1,0,3:2:0:0:
305,124,78660,1,0,3:2:0:0:
380,72,78837,1,0,3:2:0:0:
301,142,79013,1,0,3:2:0:0:
294,50,79190,1,0,3:2:0:0:
377,255,79543,1,2,0:2:0:0:
291,45,79896,54,0,B|319:90|314:153|289:131|277:181|293:237|293:237|304:196|336:174,1,269.999992847443,2|0,0:2|0:2,0:2:0:0:
473,262,81308,2,0,L|381:249,1,89.9999976158143,2|0,0:2|0:2,0:2:0:0:
479,292,81837,2,0,L|393:255,1,89.9999976158143,2|0,0:2|0:2,0:2:0:0:
486,338,82366,2,0,L|437:300,1,44.9999988079071,2|0,0:2|0:2,0:2:0:0:
361,341,82719,54,0,B|318:326|271:348|271:348|231:321|174:330,1,179.999995231629,2|0,0:2|0:2,0:2:0:0:
141,67,84131,2,0,L|129:162,1,89.9999976158143,2|0,0:2|0:2,0:2:0:0:
179,57,84660,2,0,L|142:145,1,89.9999976158143,2|0,0:2|0:2,0:2:0:0:
215,57,85190,2,0,L|176:107,1,44.9999988079071,2|0,0:2|0:2,0:2:0:0:
298,147,85543,6,0,L|358:147,1,44.9999988079071,2|0,0:2|0:2,0:2:0:0:
422,230,85896,2,0,L|362:230,1,44.9999988079071,0|0,0:2|0:2,0:2:0:0:
280,295,86249,2,0,L|340:295,1,44.9999988079071,0|0,0:2|0:2,0:2:0:0:
399,353,86602,1,0,0:2:0:0:
270,283,86778,2,0,L|330:283,1,44.9999988079071,2|0,0:2|0:2,0:2:0:0:
389,341,87131,1,0,0:2:0:0:
261,269,87308,2,0,L|321:269,1,44.9999988079071,2|0,0:2|0:2,0:2:0:0:
379,328,87660,1,0,0:2:0:0:
389,341,88013,1,0,0:2:0:0:
149,253,88366,6,0,L|150:195,1,44.9999988079071,2|0,0:2|0:2,0:2:0:0:
229,139,88719,2,0,L|229:183,1,44.9999988079071,0|0,0:2|0:2,0:2:0:0:
318,263,89072,2,0,L|317:218,1,44.9999988079071,0|0,0:2|0:2,0:2:0:0:
382,161,89425,1,0,0:2:0:0:
309,274,89602,2,0,L|308:229,1,44.9999988079071,2|0,0:2|0:2,0:2:0:0:
372,175,89955,1,0,0:2:0:0:
299,290,90131,2,0,L|298:245,1,44.9999988079071,2|0,0:2|0:2,0:2:0:0:
362,191,90484,1,0,0:2:0:0:
281,309,90660,1,0,3:2:0:0:
281,297,90749,1,0,3:2:0:0:
281,285,90837,1,0,3:2:0:0:
353,207,91013,1,0,3:2:0:0:
256,199,91190,54,0,L|196:196,1,49.500000199318,2|0,3:2|0:2,0:2:0:0:
199,196,91455,1,0,0:2:0:0:
191,194,91543,1,0,3:2:0:0:
148,110,91719,1,0,0:2:0:0:
92,173,91896,2,0,L|96:221,1,24.750000099659,0|0,3:2|0:2,0:2:0:0:
68,145,92072,2,0,L|72:193,1,24.750000099659,0|0,0:2|0:2,0:2:0:0:
41,118,92249,1,0,3:2:0:0:
15,90,92425,1,0,0:2:0:0:
141,32,92602,6,0,L|211:33,1,49.500000199318,0|0,3:2|0:2,0:2:0:0:
197,34,92866,1,0,0:2:0:0:
204,35,92955,1,0,3:2:0:0:
254,147,93131,1,0,0:2:0:0:
273,183,93308,2,0,L|272:137,1,24.750000099659,0|0,3:2|0:2,0:2:0:0:
292,212,93484,2,0,L|291:166,1,24.750000099659,0|0,0:2|0:2,0:2:0:0:
316,245,93660,1,0,3:2:0:0:
337,278,93837,1,0,0:2:0:0:
273,361,94013,38,0,L|219:360,1,49.500000199318,0|0,3:2|0:0,0:2:0:0:
64,324,94366,2,0,L|118:323,1,49.500000199318,0|0,3:2|0:0,0:2:0:0:
149,176,94719,1,0,3:2:0:0:
201,291,94896,1,0,0:2:0:0:
136,155,95072,1,0,3:2:0:0:
59,291,95248,1,0,0:2:0:0:
58,182,95425,6,0,L|58:117,1,49.500000199318,0|0,3:2|0:2,0:2:0:0:
65,35,95778,1,0,3:2:0:0:
79,209,95955,2,0,L|79:144,1,49.500000199318,0|0,0:2|3:2,0:2:0:0:
86,62,96308,1,0,0:2:0:0:
105,233,96484,2,0,L|105:168,1,49.500000199318,0|0,3:2|0:2,0:2:0:0:
257,57,96837,5,0,3:2:0:0:
231,139,97013,1,0,3:2:0:0:
205,221,97190,1,0,3:2:0:0:
179,303,97366,1,0,3:2:0:0:
335,303,97543,53,0,3:2:0:0:
309,221,97719,1,0,3:2:0:0:
283,139,97896,1,0,3:2:0:0:
257,57,98072,1,0,3:2:0:0:
119,87,98249,5,0,3:2:0:0:
201,113,98425,1,0,3:2:0:0:
283,139,98602,1,0,3:2:0:0:
391,195,98778,37,0,3:2:0:0:
309,221,98954,1,0,3:2:0:0:
227,247,99131,1,0,3:2:0:0:
63,195,99308,5,0,3:2:0:0:
145,221,99484,1,0,3:2:0:0:
218,27,99660,5,8,0:2:0:0:
218,27,99837,1,8,0:2:0:0:
218,115,100013,1,0,3:2:0:0:
272,53,100190,53,8,0:2:0:0:
272,53,100367,1,8,0:2:0:0:
249,138,100543,1,0,3:2:0:0:
314,92,100719,5,8,0:2:0:0:
314,92,100896,1,8,0:2:0:0:
270,169,101072,1,0,3:2:0:0:
344,133,101249,37,8,0:2:0:0:
344,133,101426,1,8,0:2:0:0:
277,206,101602,1,0,3:0:0:0:
131,128,101778,5,8,0:2:0:0:
168,132,101866,1,0,0:2:0:0:
204,138,101955,54,0,L|286:137,1,44.9999988079071,2|0,3:2|0:2,0:2:0:0:
369,276,102131,6,0,L|451:275,1,44.9999988079071,2|0,0:2|0:2,0:2:0:0:
443,125,102308,54,0,L|361:124,1,44.9999988079071,2|0,0:2|0:2,0:2:0:0:
225,241,102484,6,0,B|273:226|331:269|427:246|427:246|368:276,1,269.999992847443,4|0,3:2|0:2,0:2:0:0:
404,171,103190,2,0,P|456:164|510:266,1,179.999995231629,8|0,0:2|0:2,0:2:0:0:
435,244,103719,1,0,0:2:0:0:
213,259,103896,54,0,B|259:245|321:270|321:270|380:251|435:265|435:265|369:297,1,269.999992847443,0|0,3:2|0:2,0:2:0:0:
208,352,104602,5,10,0:2:0:0:
248,356,104690,1,2,0:2:0:0:
288,360,104778,1,2,0:2:0:0:
185,349,104955,53,2,0:2:0:0:
225,353,105043,1,2,0:2:0:0:
265,357,105131,1,2,0:2:0:0:
68,317,105308,6,0,B|84:232|60:125|60:125|90:199|137:193,1,269.999992847443,0|0,3:2|0:2,0:2:0:0:
147,85,106013,2,0,P|111:46|44:46,1,89.9999976158143,8|0,0:2|0:2,0:2:0:0:
227,147,106366,2,0,P|269:134|297:100,1,89.9999976158143,0|0,0:2|0:2,0:2:0:0:
82,314,106719,54,0,B|59:230|59:230|74:122|74:122|104:196|151:190,1,269.999992847443,0|0,3:2|0:2,0:2:0:0:
167,59,107425,2,0,B|142:31|142:31|83:30,1,89.9999976158143,0|0,0:2|0:2,0:2:0:0:
254,141,107778,2,0,B|290:141|290:141|326:102,1,89.9999976158143,0|0,0:2|0:2,0:2:0:0:
417,131,108131,37,2,3:2:0:0:
421,216,108219,1,2,0:2:0:0:
426,302,108308,1,2,0:2:0:0:
415,110,108660,5,2,3:2:0:0:
419,195,108748,1,2,0:2:0:0:
424,281,108837,1,10,0:2:0:0:
364,195,109013,37,0,3:2:0:0:
419,195,109190,2,0,L|508:194,1,89.9999976158143,0|0,0:2|0:2,0:2:0:0:
235,197,109543,5,2,3:2:0:0:
321,197,109632,1,2,2:2:0:0:
406,196,109720,1,2,2:2:0:0:
202,197,110072,5,2,3:2:0:0:
288,197,110161,1,2,2:2:0:0:
374,196,110249,1,10,2:2:0:0:
288,142,110425,5,0,3:2:0:0:
288,197,110601,1,0,3:2:0:0:
288,252,110778,1,0,3:2:0:0:
286,68,110955,37,2,3:2:0:0:
286,153,111044,1,2,0:2:0:0:
287,239,111132,1,2,0:2:0:0:
286,41,111484,5,2,3:2:0:0:
286,127,111572,1,2,0:2:0:0:
286,213,111661,1,10,0:2:0:0:
231,127,111837,21,0,3:2:0:0:
286,127,112013,1,0,0:2:0:0:
341,127,112190,1,0,3:2:0:0:
114,205,112366,54,0,P|76:159|134:51,1,179.999995231629,0|0,3:2|0:2,0:2:0:0:
286,127,112896,1,0,3:2:0:0:
70,133,113072,1,10,3:2:0:0:
187,198,113248,1,2,3:2:0:0:
286,127,113424,1,2,3:2:0:0:
409,195,113602,1,2,3:2:0:0:
110,232,113778,6,0,B|109:172|79:147|79:147|71:65|139:50|139:50|107:78|130:132,1,269.999992847443,0|0,3:2|0:2,0:2:0:0:
291,113,114484,2,0,L|170:108,1,89.9999976158143,8|0,0:2|0:2,0:2:0:0:
296,214,114837,2,0,L|417:209,1,89.9999976158143,0|0,0:2|0:2,0:2:0:0:
110,232,115190,54,0,B|109:172|127:148|127:148|82:62|142:38|142:38|153:87|90:136,1,269.999992847443,0|0,3:2|0:2,0:2:0:0:
217,231,115896,5,10,0:2:0:0:
214,279,115984,1,2,0:2:0:0:
212,328,116072,1,2,0:2:0:0:
217,216,116249,5,2,0:2:0:0:
214,266,116337,1,2,0:2:0:0:
212,315,116425,1,2,0:2:0:0:
349,92,116602,54,0,B|234:55|144:92|144:92|194:93|216:124,1,269.999992847443,0|0,3:2|0:2,0:2:0:0:
200,225,117308,1,8,0:2:0:0:
123,250,117484,1,0,0:2:0:0:
145,170,117660,1,0,0:2:0:0:
209,235,117837,1,0,0:2:0:0:
356,87,118013,6,0,B|286:79|249:96|249:96|215:76|150:88|150:88|167:106|234:106,1,269.999992847443,0|0,3:2|0:2,0:2:0:0:
353,194,118719,2,0,L|233:194,1,89.9999976158143,8|0,0:2|0:2,0:2:0:0:
487,267,119072,2,0,B|443:275|443:275|369:262,1,89.9999976158143,0|0,0:2|0:2,0:2:0:0:
336,61,119425,21,2,3:2:0:0:
246,60,119513,1,2,0:2:0:0:
158,59,119602,1,2,0:2:0:0:
360,60,119955,53,2,3:2:0:0:
271,59,120043,1,2,0:2:0:0:
183,58,120132,1,10,0:2:0:0:
270,98,120308,53,0,3:2:0:0:
270,145,120484,2,0,L|269:254,1,89.9999976158143,0|0,0:2|0:2,0:2:0:0:
271,28,120837,21,2,3:2:0:0:
270,116,120925,1,2,0:2:0:0:
269,204,121014,1,2,0:2:0:0:
270,10,121366,53,2,3:2:0:0:
269,98,121454,1,2,0:2:0:0:
268,186,121543,1,10,0:2:0:0:
194,99,121719,53,0,3:2:0:0:
269,98,121896,1,0,3:2:0:0:
348,97,122072,1,0,3:2:0:0:
415,57,122249,54,0,B|365:64|365:64|349:42|320:42|320:42|288:42|268:66|268:66|248:42|220:42|220:42|192:42|172:62|172:62|103:52,1,314.99999165535,0|0,3:2|0:2,0:2:0:0:
36,37,122955,6,0,B|44:93|44:93|31:156|31:156|52:232,1,179.999995231629,8|0,0:2|0:2,0:2:0:0:
336,265,123484,1,0,3:2:0:0:
295,264,123572,1,0,3:2:0:0:
253,264,123660,1,0,3:2:0:0:
427,266,123837,53,0,3:2:0:0:
355,265,124013,1,0,3:2:0:0:
293,305,124190,1,2,3:2:0:0:
229,263,124366,1,0,3:2:0:0:
158,262,124543,1,0,3:2:0:0:
99,211,124719,1,2,3:2:0:0:
38,261,124896,1,0,3:0:0:0:
154,61,125072,6,0,P|156:129|196:162,1,107.999993843079,6|0,3:2|0:2,0:2:0:0:
232,93,125602,1,0,0:2:0:0:
339,91,125778,2,0,L|216:93,1,107.999993843079,8|0,0:2|0:2,0:2:0:0:
429,260,126484,2,0,P|464:207|459:149,1,107.999993843079,2|0,3:2|0:2,0:2:0:0:
370,186,127013,1,2,0:2:0:0:
262,185,127190,2,0,L|389:186,1,107.999993843079,8|2,0:2|0:2,0:2:0:0:
120,307,127896,54,0,L|123:174,1,107.999993843079,0|0,3:2|0:2,0:2:0:0:
208,248,128425,1,0,0:0:0:0:
304,275,128602,2,0,P|251:279|208:248,1,107.999993843079,8|0,0:2|0:2,0:2:0:0:
368,331,129131,1,0,0:2:0:0:
374,171,129308,2,0,P|321:167|278:198,1,107.999993843079,2|0,3:2|0:2,0:2:0:0:
412,250,129837,1,2,3:2:0:0:
433,238,129925,1,0,3:2:0:0:
449,220,130013,1,8,0:2:0:0:
368,331,130190,2,0,L|361:400,2,53.9999969215394,0|2|0,3:2|0:2|0:2,0:2:0:0:
388,108,130719,6,0,L|273:95,1,107.999993843079,0|0,3:2|0:2,0:2:0:0:
222,165,131249,1,0,0:2:0:0:
195,65,131425,2,0,P|194:118|221:164,1,107.999993843079,8|0,0:2|0:2,0:2:0:0:
385,229,132131,2,0,L|270:242,1,107.999993843079,2|0,3:2|0:2,0:2:0:0:
367,317,132660,1,2,0:2:0:0:
474,329,132837,2,0,L|359:316,1,107.999993843079,8|2,0:2|0:2,0:2:0:0:
385,229,133366,1,0,0:2:0:0:
210,332,133543,54,0,B|131:362|66:330|66:330|126:309,1,188.999989225388,2|0,3:2|0:2,0:2:0:0:
156,226,134249,54,0,P|215:193|124:154,1,215.999987686158,8|2,0:2|0:2,0:2:0:0:
156,226,135131,2,0,P|155:238|152:244,3,17.9999989738465,0|0|0|0,3:2|0:2|0:2|0:2,0:2:0:0:
64,198,135484,1,0,3:2:0:0:
50,177,135572,1,0,3:2:0:0:
50,152,135660,1,8,0:2:0:0:
284,126,135837,2,0,P|254:82|206:60,1,107.999993843079,0|0,3:2|0:2,0:2:0:0:
298,236,136366,6,0,L|423:248,1,107.999993843079,2|0,3:2|0:2,0:2:0:0:
497,251,136896,1,0,0:2:0:0:
502,144,137072,2,0,L|497:265,1,107.999993843079,10|0,0:2|0:2,0:2:0:0:
407,140,137602,1,0,0:2:0:0:
259,161,137778,2,0,P|211:146|178:82,1,107.999993843079,2|0,3:2|0:2,0:2:0:0:
263,77,138308,1,0,0:2:0:0:
353,36,138484,2,0,P|303:38|257:92,1,107.999993843079,10|2,0:2|0:2,0:2:0:0:
337,116,139013,1,0,0:2:0:0:
189,242,139190,54,0,L|308:242,1,107.999993843079,2|0,3:2|0:2,0:2:0:0:
300,327,139719,1,0,0:2:0:0:
375,264,139896,2,0,P|364:294|292:326,1,107.999993843079,10|2,0:2|0:2,0:2:0:0:
189,242,140425,1,0,0:2:0:0:
374,182,140602,2,0,P|425:198|450:244,1,107.999993843079,2|0,3:2|0:2,0:2:0:0:
297,242,141131,1,0,3:2:0:0:
284,221,141219,1,0,3:2:0:0:
280,195,141308,1,10,0:2:0:0:
394,318,141484,2,0,L|397:386,2,53.9999969215394,0|2|0,3:2|0:2|0:2,0:2:0:0:
291,106,142013,6,0,L|171:113,1,107.999993843079,2|0,3:2|0:2,0:2:0:0:
99,203,142543,1,0,0:2:0:0:
312,117,142719,2,0,L|194:93,1,107.999993843079,10|0,0:2|0:2,0:2:0:0:
101,161,143249,1,0,0:2:0:0:
329,134,143425,2,0,L|221:81,1,107.999993843079,2|0,3:2|0:2,0:2:0:0:
114,123,143955,1,0,0:2:0:0:
341,155,144131,2,0,L|251:76,1,107.999993843079,10|0,0:2|0:2,0:2:0:0:
137,88,144661,1,0,0:2:0:0:
341,155,144837,6,0,P|290:132|325:206,1,188.999989225388,2|0,3:2|0:2,0:2:0:0:
396,215,145543,1,8,0:2:0:0:
328,306,145719,1,2,0:2:0:0:
328,306,145808,2,0,L|259:301,1,53.9999969215394,2|0,0:2|0:2,0:2:0:0:
258,281,146073,1,2,0:2:0:0:
153,329,146249,37,2,0:2:0:0:
102,232,146425,1,0,3:2:0:0:
111,209,146513,1,0,3:2:0:0:
128,191,146602,1,0,3:2:0:0:
207,261,146778,1,0,3:2:0:0:
78,317,146955,2,0,L|149:313,1,53.9999969215394,8|0,0:2|3:2,0:2:0:0:
285,298,147308,1,2,0:2:0:0:
232,362,147484,1,0,3:2:0:0:
325,241,147660,6,0,L|326:350,1,107.999993843079,2|0,3:2|0:2,0:2:0:0:
167,69,148366,2,0,P|211:55|288:78,1,107.999993843079,8|2,0:2|0:2,0:2:0:0:
222,146,148896,1,0,0:2:0:0:
361,70,149072,2,0,L|423:71,1,53.9999969215394,2|0,3:2|0:2,0:2:0:0:
416,154,149425,1,0,0:2:0:0:
504,53,149602,1,0,0:2:0:0:
512,238,149778,1,10,0:2:0:0:
502,80,149955,1,0,0:2:0:0:
416,154,150131,2,0,L|486:156,1,53.9999969215394,0|0,0:2|0:2,0:2:0:0:
299,218,150484,6,0,P|239:219|196:317,1,161.999990764618,2|0,3:2|0:2,0:2:0:0:
383,303,151190,2,0,L|274:295,1,107.999993843079,8|2,0:2|0:2,0:2:0:0:
232,374,151719,1,0,0:2:0:0:
470,302,151896,2,0,P|460:260|440:237,1,53.9999969215394,2|0,3:2|0:2,0:2:0:0:
344,179,152249,1,0,0:2:0:0:
437,62,152425,1,0,3:2:0:0:
436,86,152513,1,0,3:2:0:0:
436,110,152602,1,10,0:2:0:0:
331,37,152778,2,0,L|255:40,2,53.9999969215394,0|2|0,3:2|0:2|0:2,0:2:0:0:
258,224,153308,38,0,L|257:106,1,107.999993843079,2|0,3:2|0:2,0:2:0:0:
277,39,153837,1,0,0:2:0:0:
269,239,154013,2,0,L|298:124,1,107.999993843079,10|0,0:2|0:2,0:2:0:0:
335,65,154542,1,0,0:2:0:0:
283,256,154719,2,0,L|341:153,1,107.999993843079,2|0,3:2|0:2,0:2:0:0:
385,102,155248,1,0,0:2:0:0:
295,273,155425,2,0,L|377:188,1,107.999993843079,10|2,0:2|0:2,0:2:0:0:
426,143,155954,1,0,0:2:0:0:
295,273,156131,6,0,P|358:269|297:314,1,188.999989225388,2|0,3:2|0:2,0:2:0:0:
391,345,156837,6,0,P|403:268|349:212,1,161.999990764618,8|0,0:2|0:2,0:2:0:0:
140,226,157543,1,0,3:2:0:0:
138,221,157719,1,0,3:2:0:0:
136,215,157896,1,0,3:2:0:0:
304,212,158072,2,0,L|245:209,1,53.9999969215394,10|0,0:2|0:2,0:2:0:0:
155,310,158425,1,0,3:2:0:0:
233,119,158602,1,10,0:2:0:0:
313,300,158778,1,0,3:2:0:0:
136,215,158955,38,0,B|118:186|118:186|118:171|118:171|147:139|148:84|117:65,1,161.999990764618,6|0,3:2|0:2,0:2:0:0:
340,90,159660,2,0,L|213:87,1,107.999993843079,10|0,0:2|0:2,0:2:0:0:
288,0,160190,1,0,0:2:0:0:
431,103,160366,2,0,P|410:151|363:177,1,107.999993843079,2|0,3:2|0:2,0:2:0:0:
340,90,160896,1,2,0:2:0:0:
407,16,161072,2,0,P|361:41|340:90,1,107.999993843079,8|2,0:2|0:2,0:2:0:0:
431,103,161602,1,0,0:2:0:0:
384,283,161778,6,0,L|270:275,1,107.999993843079,2|0,3:2|0:2,0:2:0:0:
205,214,162308,1,0,0:2:0:0:
195,315,162484,2,0,P|185:263|205:214,1,107.999993843079,10|0,0:2|0:2,0:2:0:0:
276,275,163013,1,0,0:2:0:0:
192,119,163190,2,0,P|142:139|112:183,1,107.999993843079,2|0,3:2|0:2,0:2:0:0:
204,213,163719,1,2,0:2:0:0:
282,147,163896,2,0,P|253:192|204:212,1,107.999993843079,8|2,0:2|0:2,0:2:0:0:
192,119,164425,1,0,0:2:0:0:
325,61,164602,6,0,L|387:66,1,53.9999969215394,2|0,3:2|0:2,0:2:0:0:
455,152,164955,2,0,L|401:147,1,53.9999969215394,0|0,0:2|0:2,0:2:0:0:
498,276,165308,1,10,0:2:0:0:
495,296,165660,1,0,0:2:0:0:
283,268,165837,2,0,L|405:270,1,107.999993843079,2|0,0:2|0:2,0:2:0:0:
239,340,166366,2,0,P|212:320|197:293,1,53.9999969215394,2|0,0:2|0:2,0:2:0:0:
324,345,166719,1,8,0:2:0:0:
166,119,167072,1,2,0:2:0:0:
161,122,167249,1,0,0:2:0:0:
156,124,167425,38,0,L|269:124,1,107.999993843079,2|0,3:2|0:2,0:2:0:0:
214,40,167955,1,0,0:2:0:0:
322,40,168131,2,8,L|209:40,1,107.999993843079,10|0,0:2|0:2,0:2:0:0:
410,16,168660,2,0,P|409:69|377:111,1,107.999993843079,2|0,0:2|0:2,0:2:0:0:
322,40,169190,1,2,3:2:0:0:
316,38,169366,1,0,3:2:0:0:
424,217,169543,1,8,0:2:0:0:
311,35,169719,2,0,L|190:34,1,107.999993843079,2|0,3:2|0:2,0:2:0:0:
282,277,170249,6,0,P|287:212|245:171,1,107.999993843079,2|0,3:2|0:2,0:2:0:0:
211,238,170778,1,0,0:2:0:0:
103,235,170955,2,0,L|211:238,1,107.999993843079,10|0,0:2|0:2,0:2:0:0:
166,145,171484,1,2,0:2:0:0:
13,224,171660,2,0,P|39:173|97:152,1,107.999993843079,0|2,0:2|0:2,0:2:0:0:
103,235,172190,1,0,3:2:0:0:
96,342,172366,2,0,L|103:235,1,107.999993843079,10|2,0:2|0:2,0:2:0:0:
188,306,172896,1,0,0:2:0:0:
215,100,173072,6,0,P|272:85|349:151,1,161.999990764618,2|0,3:2|0:2,0:2:0:0:
260,196,173778,38,0,L|268:150,1,26.9999984607697,8|0,0:2|0:2,0:2:0:0:
248,215,173955,2,0,L|243:168,1,26.9999984607697,0|0,0:2|0:2,0:2:0:0:
243,235,174131,2,0,L|226:191,1,26.9999984607697,0|0,0:2|0:2,0:2:0:0:
241,254,174308,2,0,L|214:215,1,26.9999984607697,0|0,0:2|0:2,0:2:0:0:
198,261,174484,6,0,L|218:278,1,26.9999984607697,2|0,0:2|0:2,0:2:0:0:
203,287,174660,2,0,L|227:298,1,26.9999984607697,0|0,0:2|0:2,0:2:0:0:
219,319,174837,2,0,L|245:323,1,26.9999984607697,0|0,0:2|0:2,0:2:0:0:
178,344,175013,1,2,3:2:0:0:
285,354,175190,6,0,L|178:344,1,107.999993843079,8|2,0:2|0:2,0:2:0:0:
108,294,175719,1,0,0:2:0:0:
348,293,175896,38,0,P|391:250|390:185,1,107.999993843079,2|0,3:2|0:2,0:2:0:0:
308,215,176425,1,0,0:2:0:0:
200,216,176602,2,0,L|308:215,1,107.999993843079,10|0,0:2|0:2,0:2:0:0:
234,132,177131,1,0,0:2:0:0:
134,277,177308,2,0,P|110:233|128:161,1,107.999993843079,2|0,3:2|0:2,0:2:0:0:
154,100,177837,1,2,0:2:0:0:
54,116,178013,2,0,P|101:92|154:100,1,107.999993843079,8|2,0:2|0:2,0:2:0:0:
117,177,178543,1,0,0:2:0:0:
275,89,178719,6,0,P|364:85|397:106,1,107.999993843079,2|0,3:2|0:2,0:2:0:0:
318,283,179425,2,0,L|326:164,1,107.999993843079,8|0,0:2|0:2,0:2:0:0:
378,92,179955,1,0,0:2:0:0:
205,218,180131,6,0,B|171:200|98:210|123:237|35:252|-5:216|-5:216|24:221|72:192,1,269.999992847443,2|0,3:2|0:2,0:2:0:0:
182,127,180837,1,8,0:2:0:0:
206,118,181543,37,2,3:2:0:0:
256,192,181719,12,0,183660,0:2:0:0:
256,192,184013,12,0,186484,0:2:0:0:
251,140,187190,6,0,L|258:31,1,89.9999976158143,2|0,0:2|0:2,0:2:0:0:
173,134,187719,1,0,0:2:0:0:
207,206,187896,2,0,P|227:218|249:223,1,44.9999988079071,8|0,0:2|0:2,0:2:0:0:
147,253,188249,6,0,L|57:255,1,89.9999976158143,0|0,0:2|0:2,0:2:0:0:
134,332,188778,2,0,L|178:333,2,44.9999988079071,0|0|0,0:2|0:2|0:2,0:2:0:0:
57,254,189308,2,0,L|55:299,1,44.9999988079071,8|0,0:2|0:2,0:2:0:0:
114,154,189660,2,0,L|116:198,1,44.9999988079071,0|0,0:2|0:2,0:2:0:0:
37,115,190013,38,0,P|83:75|129:74,1,89.9999976158143,2|0,0:2|0:2,0:2:0:0:
182,111,190543,1,0,0:2:0:0:
267,43,190719,2,0,L|212:42,1,44.9999988079071,8|0,0:2|0:2,0:2:0:0:
330,119,191072,2,0,L|286:120,1,44.9999988079071,0|0,0:2|0:2,0:2:0:0:
392,61,191425,2,0,P|398:33|396:11,2,44.9999988079071,0|0|0,0:2|0:2|0:2,0:2:0:0:
419,144,191955,1,0,0:2:0:0:
323,200,192131,2,0,L|381:204,1,44.9999988079071,8|0,0:2|0:2,0:2:0:0:
207,243,192484,2,0,L|252:240,1,44.9999988079071,0|0,0:2|0:2,0:2:0:0:
115,212,192837,6,0,P|127:242|106:306,1,89.9999976158143,2|0,0:2|0:2,0:2:0:0:
51,254,193366,1,0,0:2:0:0:
46,131,193543,2,0,L|44:186,1,44.9999988079071,8|0,0:2|0:2,0:2:0:0:
122,86,193896,2,0,L|124:131,1,44.9999988079071,0|0,0:2|0:2,0:2:0:0:
206,109,194249,6,0,L|311:117,1,89.9999976158143,2|0,0:2|0:2,0:2:0:0:
326,38,194778,1,0,0:2:0:0:
193,22,194955,2,0,L|247:18,1,44.9999988079071,8|0,0:2|0:2,0:2:0:0:
161,105,195308,2,0,L|205:108,1,44.9999988079071,0|0,0:2|0:2,0:2:0:0:
66,108,195660,38,0,L|71:213,1,89.9999976158143,2|0,0:2|0:2,0:2:0:0:
112,268,196190,1,0,0:2:0:0:
209,203,196366,2,0,P|177:203|147:212,1,44.9999988079071,10|0,0:2|0:2,0:2:0:0:
246,296,196719,2,0,P|214:296|184:287,1,44.9999988079071,2|0,0:2|0:2,0:2:0:0:
344,232,197072,1,0,3:2:0:0:
403,292,197249,1,0,3:2:0:0:
230,123,197602,1,0,3:2:0:0:
235,108,197690,1,0,3:2:0:0:
240,93,197778,1,8,0:2:0:0:
329,35,197955,1,0,3:2:0:0:
333,36,198131,1,0,3:2:0:0:
333,40,198308,1,0,3:2:0:0:
329,42,198484,6,0,L|328:147,1,99.0000003986359,6|0,3:2|0:2,0:2:0:0:
339,231,199013,1,0,3:2:0:0:
456,292,199190,2,0,L|399:290,1,49.500000199318,8|0,0:2|0:2,0:2:0:0:
263,314,199543,2,0,L|263:248,1,49.500000199318,0|0,3:2|0:2,0:2:0:0:
179,369,199896,2,0,L|179:319,1,49.500000199318
89,338,200249,2,0,B|88:296|88:296|83:282|83:282|84:237,1,99.0000003986359,2|10,3:2|0:2,0:2:0:0:
163,205,200778,1,0,0:0:0:0:
215,95,200955,2,0,L|217:144,1,49.500000199318,0|0,0:2|0:2,0:2:0:0:
27,28,201308,6,0,L|147:36,1,99.0000003986359,2|0,3:2|0:2,0:2:0:0:
96,130,201837,1,0,3:2:0:0:
258,100,202013,2,0,L|208:103,1,49.500000199318,8|0,0:2|0:2,0:2:0:0:
373,171,202366,2,0,L|323:167,1,49.500000199318,2|0,3:2|0:2,0:2:0:0:
412,80,202719,1,0,0:2:0:0:
432,94,202896,1,0,0:2:0:0:
445,114,203072,1,0,3:2:0:0:
453,137,203249,1,0,0:2:0:0:
324,86,203425,2,0,P|328:42|353:16,2,49.500000199318,8|0|0,0:2|3:2|0:2,0:2:0:0:
412,80,203955,1,0,0:2:0:0:
413,178,204131,38,0,L|411:71,1,99.0000003986359,2|0,3:2|0:2,0:2:0:0:
324,86,204660,1,0,3:2:0:0:
323,232,204837,2,0,L|325:169,1,49.500000199318,10|0,0:2|0:2,0:2:0:0:
397,322,205190,2,0,L|399:259,1,49.500000199318,2|0,3:2|0:2,0:2:0:0:
251,329,205543,1,0,0:2:0:0:
233,311,205719,1,0,3:2:0:0:
208,305,205896,1,0,3:0:0:0:
183,307,206072,1,0,3:0:0:0:
164,200,206249,2,0,L|161:150,1,49.500000199318,8|0,0:2|3:2,0:2:0:0:
51,243,206602,2,0,L|53:193,1,49.500000199318,0|0,3:2|0:2,0:2:0:0:
46,341,206955,6,0,L|51:233,1,99.0000003986359,2|0,3:2|0:2,0:2:0:0:
140,207,207484,1,0,3:2:0:0:
291,205,207660,2,0,L|236:207,1,49.500000199318,10|0,0:2|0:2,0:2:0:0:
386,283,208013,2,0,L|331:285,1,49.500000199318,2|0,3:2|0:2,0:2:0:0:
428,207,208366,1,0,0:2:0:0:
453,204,208543,1,0,3:2:0:0:
477,202,208719,1,0,0:2:0:0:
501,201,208896,1,0,0:0:0:0:
228,241,209072,5,8,0:2:0:0:
318,232,209249,1,0,3:2:0:0:
409,224,209425,1,2,3:2:0:0:
499,215,209602,1,0,3:2:0:0:
228,241,209778,38,0,L|106:251,1,99.0000003986359,6|0,3:2|0:2,0:2:0:0:
151,339,210308,1,0,3:2:0:0:
36,280,210484,1,10,0:2:0:0:
129,249,210660,1,0,3:2:0:0:
76,125,210837,2,0,L|72:186,1,49.500000199318,2|0,3:2|0:2,0:2:0:0:
157,66,211190,2,0,L|161:127,1,49.500000199318,0|0,0:2|0:2,0:2:0:0:
252,20,211543,2,0,B|255:64|255:64|251:78|251:78|253:119,1,99.0000003986359,2|10,3:2|0:2,0:2:0:0:
257,210,212072,1,0,0:2:0:0:
385,177,212249,2,0,L|332:170,1,49.500000199318,2|0,3:2|0:2,0:2:0:0:
440,110,212602,6,0,P|465:140|462:212,1,99.0000003986359,2|0,3:2|0:2,0:2:0:0:
408,257,213131,1,0,3:2:0:0:
403,81,213308,2,0,P|427:85|449:98,1,49.500000199318,10|0,0:2|0:2,0:2:0:0:
290,187,213660,2,0,P|314:182|335:170,1,49.500000199318,2|0,3:2|0:2,0:2:0:0:
200,78,214013,2,0,P|224:82|245:94,1,49.500000199318,0|0,0:2|3:2,0:2:0:0:
124,140,214366,1,0,0:2:0:0:
108,120,214543,1,2,3:2:0:0:
33,101,214719,1,10,0:2:0:0:
37,76,214896,1,0,3:2:0:0:
45,53,215072,2,0,P|61:25|85:12,1,49.500000199318,2|0,3:2|0:2,0:2:0:0:
123,238,215425,6,0,L|124:120,1,99.0000003986359,2|2,3:2|0:2,0:2:0:0:
220,187,215955,1,0,3:2:0:0:
211,321,216131,2,0,L|204:264,1,49.500000199318,10|0,0:2|0:2,0:2:0:0:
296,384,216484,2,0,L|303:327,1,49.500000199318,2|2,3:2|0:2,0:2:0:0:
368,197,216837,1,0,0:2:0:0:
383,215,217013,1,0,3:2:0:0:
394,237,217190,1,2,0:2:0:0:
401,260,217366,1,0,3:2:0:0:
302,334,217543,2,0,P|300:359|303:389,1,49.500000199318,10|0,0:2|3:2,0:2:0:0:
401,260,217896,2,0,P|403:284|402:309,1,49.500000199318,2|0,3:2|0:2,0:2:0:0:
376,40,218249,38,0,L|382:153,1,99.0000003986359,2|0,3:2|0:2,0:2:0:0:
303,180,218778,1,0,3:2:0:0:
290,44,218955,2,0,L|287:100,1,49.500000199318,10|0,0:2|0:2,0:2:0:0:
186,3,219308,2,0,L|189:59,1,49.500000199318,2|0,3:2|0:2,0:2:0:0:
82,170,219660,1,0,0:2:0:0:
66,150,219837,2,0,P|64:101|104:52,1,99.0000003986359,0|0,3:2|3:2,0:2:0:0:
102,56,220278,1,0,3:2:0:0:
114,53,220366,2,0,P|169:51|201:38,2,74.2500002989769,10|0|0,3:2|3:2|3:2,0:2:0:0:
283,48,221072,6,0,P|247:38|175:49,1,99.0000003986359,6|0,3:2|0:2,0:2:0:0:
174,141,221602,1,0,3:2:0:0:
317,134,221778,2,0,P|274:136|261:133,1,49.500000199318,8|2,0:2|0:2,0:2:0:0:
418,201,222131,2,0,P|375:199|367:201,2,33.0000001328786,0|2|0,3:2|0:2|0:2,0:2:0:0:
454,118,222484,2,0,P|411:120|398:117,1,49.500000199318,2|0,0:2|3:2,0:2:0:0:
512,198,222837,1,0,3:2:0:0:
466,299,223013,1,0,0:2:0:0:
459,309,223102,1,0,0:2:0:0:
453,319,223190,1,12,0:2:0:0:
418,201,223366,1,0,0:2:0:0:
355,310,223543,1,2,0:2:0:0:
408,217,223719,1,2,3:2:0:0:
341,333,223896,6,0,L|238:332,1,99.0000003986359,2|0,3:2|0:2,0:2:0:0:
192,260,224425,1,0,3:2:0:0:
319,218,224602,2,0,P|280:211|261:214,1,49.500000199318,8|2,0:2|0:2,0:2:0:0:
425,149,224955,2,0,P|386:156|372:152,2,33.0000001328786,0|2|0,3:2|0:2|0:2,0:2:0:0:
475,245,225308,2,0,P|436:238|417:241,1,49.500000199318,2|0,0:2|3:2,0:2:0:0:
445,135,225660,1,0,3:2:0:0:
432,113,225837,1,0,0:0:0:0:
323,66,226013,1,0,0:0:0:0:
298,64,226190,1,0,0:0:0:0:
273,61,226366,2,2,L|213:56,1,49.500000199318,2|0,3:2|0:2,0:2:0:0:
88,122,226719,38,0,P|84:169|123:221,1,99.0000003986359,2|0,3:2|0:2,0:2:0:0:
198,243,227249,1,0,0:2:0:0:
175,149,227425,1,8,0:2:0:0:
109,212,227602,1,0,0:2:0:0:
315,183,227778,2,0,L|266:187,1,49.500000199318,0|0,0:2|0:2,0:2:0:0:
429,249,228131,2,0,L|379:253,1,49.500000199318,0|0,3:2|3:2,0:2:0:0:
511,161,228484,2,0,L|461:164,1,49.500000199318,0|0,0:2|0:2,0:2:0:0:
456,326,228837,1,8,0:2:0:0:
454,343,229190,1,0,0:2:0:0:
277,282,229366,1,0,0:2:0:0:
264,281,229455,1,0,0:2:0:0:
251,280,229543,6,0,L|197:277,1,49.500000199318,0|0,3:2|0:2,0:2:0:0:
257,188,229896,2,0,L|207:191,1,49.500000199318,0|0,0:2|0:2,0:2:0:0:
277,282,230249,1,8,0:2:0:0:
357,277,230425,1,0,0:2:0:0:
437,272,230602,1,0,0:2:0:0:
512,266,230778,1,0,0:2:0:0:
399,347,230955,1,2,3:2:0:0:
324,353,231131,1,0,0:2:0:0:
244,358,231308,1,0,0:2:0:0:
164,363,231484,1,0,0:2:0:0:
359,272,231660,2,0,L|413:267,1,49.500000199318,10|0,0:2|0:2,0:2:0:0:
201,282,232013,2,0,L|255:277,1,49.500000199318,0|0,0:2|0:2,0:2:0:0:
184,56,232366,6,0,B|141:73|104:57|104:57|60:106|107:168|107:168|133:200|115:271,1,297.000001195908,6|0,3:2|0:2,0:2:0:0:
311,130,233778,2,0,L|417:124,1,99.0000003986359,2|0,0:2|0:2,0:2:0:0:
275,150,234308,2,0,L|378:171,1,99.0000003986359,2|0,0:2|0:2,0:2:0:0:
238,160,234837,2,0,L|290:186,1,49.500000199318,2|0,0:2|0:2,0:2:0:0:
352,276,235190,38,0,B|491:277|491:277|437:299,1,198.000000797272,2|0,0:2|0:2,0:2:0:0:
199,233,236602,2,0,L|92:217,1,99.0000003986359,2|0,0:2|0:2,0:2:0:0:
228,254,237131,2,0,L|121:266,1,99.0000003986359,2|0,0:2|0:2,0:2:0:0:
251,276,237660,2,0,L|194:298,1,49.500000199318,2|0,0:2|0:2,0:2:0:0:
182,167,238013,6,0,L|187:104,1,49.500000199318,2|0,0:2|0:2,0:2:0:0:
256,35,238366,2,0,L|260:85,1,49.500000199318,0|0,0:2|0:2,0:2:0:0:
337,174,238719,2,0,L|340:124,1,49.500000199318,2|0,0:2|0:2,0:2:0:0:
422,78,239072,1,0,0:2:0:0:
320,194,239249,2,0,L|323:144,1,49.500000199318,2|0,0:2|0:2,0:2:0:0:
405,98,239602,1,0,0:2:0:0:
302,219,239778,2,0,L|305:169,1,49.500000199318,2|0,0:2|0:2,0:2:0:0:
390,119,240131,1,0,0:2:0:0:
405,98,240484,1,0,0:2:0:0:
257,47,240837,6,0,L|201:41,1,49.500000199318,2|0,0:2|0:2,0:2:0:0:
94,106,241190,2,0,L|150:100,1,49.500000199318,0|0,0:2|0:2,0:2:0:0:
261,161,241543,2,0,L|205:155,1,49.500000199318,2|0,0:2|0:2,0:2:0:0:
145,225,241896,1,0,0:2:0:0:
273,150,242072,2,0,L|217:144,1,49.500000199318,2|0,0:2|0:2,0:2:0:0:
157,214,242425,1,0,0:2:0:0:
289,136,242602,2,0,L|233:130,1,49.500000199318,2|0,0:2|0:2,0:2:0:0:
168,205,242955,1,0,0:2:0:0:
157,214,243484,1,0,0:2:0:0:
149,223,243572,1,0,0:2:0:0:
142,232,243660,38,0,L|209:238,1,49.500000199318,2|0,3:2|0:2,0:2:0:0:
295,281,244013,2,0,L|245:285,1,49.500000199318,0|0,0:2|0:2,0:2:0:0:
142,330,244366,2,0,L|191:334,1,49.500000199318,0|0,0:2|0:2,0:2:0:0:
259,384,244719,1,2,0:2:0:0:
113,205,244896,6,0,L|105:255,1,49.500000199318,2|0,0:2|3:2,0:2:0:0:
31,303,245249,1,0,0:0:0:0:
130,118,245425,1,2,0:2:0:0:
32,116,245602,2,0,L|36:166,1,49.500000199318,2|0,0:2|0:2,0:2:0:0:
93,31,245955,1,0,0:0:0:0:
227,146,246131,1,2,0:2:0:0:
130,118,246308,1,2,0:2:0:0:
345,52,246484,6,0,L|348:116,1,49.500000199318,2|0,3:2|0:2,0:2:0:0:
253,49,246837,2,0,L|255:0,1,49.500000199318,0|0,0:2|0:2,0:2:0:0:
171,84,247190,2,0,L|173:133,1,49.500000199318,2|0,0:2|0:2,0:2:0:0:
84,50,247543,2,0,L|86:0,1,49.500000199318,0|0,0:2|0:2,0:2:0:0:
50,241,247896,38,0,L|182:240,1,116.999991544724,2|0,3:2|0:2,0:2:0:0:
268,173,248425,1,2,0:0:0:0:
334,278,248602,2,0,B|347:307|347:307|342:360,1,58.499995772362,0|0,3:2|0:2,0:2:0:0:
268,173,248955,2,0,B|255:202|255:202|260:255,1,58.499995772362,2|0,0:2|0:2,0:2:0:0:
180,19,249308,6,0,P|230:2|283:11,1,87.749993658543,2|0,3:2|0:2,0:2:0:0:
158,47,249660,2,0,P|201:17|255:12,1,87.749993658543,0|0,3:2|0:2,0:2:0:0:
145,80,250013,2,0,P|179:40|230:21,1,87.749993658543,0|0,3:2|0:2,0:2:0:0:
140,116,250366,2,0,P|163:68|207:37,1,87.749993658543,0|0,3:2|0:2,0:2:0:0:
224,130,250719,6,0,P|174:113|121:122,1,87.749993658543,2|0,3:2|0:2,0:2:0:0:
245,158,251072,2,0,P|201:128|147:123,1,87.749993658543,0|0,3:2|0:2,0:2:0:0:
258,191,251425,2,0,P|223:151|172:132,1,87.749993658543,0|0,3:2|0:2,0:2:0:0:
263,227,251778,2,0,P|239:179|195:148,1,87.749993658543,2|0,3:2|0:2,0:2:0:0:
166,231,252131,38,0,L|163:252,4,14.6249989430905,2|0|0|0|0,3:2|0:2|0:2|0:2|0:2,0:2:0:0:
229,296,252484,2,0,L|231:310,4,14.6249989430905,2|0|0|0|0,3:2|0:2|0:2|0:2|0:2,0:2:0:0:
153,212,252837,2,0,L|150:197,4,14.6249989430905,2|0|0|0|0,3:2|0:2|0:2|0:2|0:2,0:2:0:0:
238,317,253190,2,0,L|240:331,4,14.6249989430905,2|0|0|0|0,3:2|0:2|0:2|0:2|0:2,0:2:0:0:
76,352,253543,5,8,0:2:0:0:
167,350,253719,1,0,3:2:0:0:
254,346,253896,1,0,3:2:0:0:
341,344,254072,2,0,L|369:343,2,19.4999985907873,0|0|0,3:2|3:2|3:2,3:2:0:0:
211,349,254249,1,8,0:2:0:0:
302,347,254425,1,0,3:2:0:0:
389,343,254602,1,0,3:2:0:0:
482,339,254778,1,0,3:2:0:0:
217,99,254955,6,0,B|244:151|215:230|215:230|196:219|196:219|166:312|205:371,1,314.99999165535,6|0,3:2|0:2,0:2:0:0:
286,300,255660,1,8,0:2:0:0:
14,297,255837,38,0,B|57:305|57:305|111:293,1,89.9999976158143,2|0,0:2|0:2,0:2:0:0:
418,310,256366,2,0,B|352:293|352:293|279:300,1,134.999996423721,2|0,3:2|0:2,0:2:0:0:
23,182,257072,2,0,B|89:165|89:165|162:172,1,134.999996423721,10|0,0:2|0:2,0:2:0:0:
314,28,257778,6,0,B|378:7|400:44|526:28|526:28|482:41|458:59|441:91,1,314.99999165535,2|0,3:2|0:2,0:2:0:0:
451,213,258484,2,0,B|467:147|467:147|443:80,1,134.999996423721,10|0,0:2|0:2,0:2:0:0:
211,0,259190,2,0,B|195:66|195:66|219:133,1,134.999996423721,2|0,3:2|3:2,0:2:0:0:
221,139,259808,1,0,3:2:0:0:
225,149,259896,1,10,0:2:0:0:
449,250,260072,6,0,B|424:238|394:251|394:251|342:229|300:249,1,135.000001573563,0|0,3:2|0:2,0:2:0:0:
13,241,260602,38,0,B|93:250|128:228|128:228|182:248|182:248|246:210|346:253,1,314.99999165535,2|0,3:2|0:2,0:2:0:0:
256,318,261308,1,8,0:2:0:0:
89,120,261484,2,0,L|247:114,1,134.999996423721,0|0,3:2|0:2,0:2:0:0:
71,167,261837,2,0,L|142:146,1,44.9999988079071,0|0,3:2|0:2,0:2:0:0:
16,268,262013,6,0,B|96:277|131:255|131:255|185:275|185:275|249:237|349:280,1,314.99999165535,2|0,3:2|0:2,0:2:0:0:
259,345,262719,1,8,0:2:0:0:
92,147,262895,2,0,L|250:141,1,134.999996423721,0|0,3:2|0:2,0:2:0:0:
76,192,263248,2,0,L|147:171,1,44.9999988079071,0|0,3:2|0:2,0:2:0:0:
16,292,263425,6,0,B|59:284|110:305|110:305|167:295|167:295|230:304|230:304|292:282|336:295,1,314.99999165535,2|0,3:2|0:2,0:2:0:0:
428,179,264131,38,0,B|384:170|333:191|333:191|276:181|276:181|213:189|213:189|151:168|107:181,1,314.99999165535,10|0,0:2|0:2,0:2:0:0:
99,94,264837,2,0,P|178:115|109:266,1,269.999992847443,2|0,3:2|3:2,0:2:0:0:
123,275,265455,1,0,3:2:0:0:
104,268,265543,2,0,L|119:179,1,89.9999976158143,10|0,0:2|0:2,0:2:0:0:
86,308,265808,2,0,L|77:218,1,89.9999976158143,0|0,3:2|0:2,0:2:0:0:
67,341,266072,2,0,L|43:278,1,44.9999988079071,0|0,3:2|0:2,0:2:0:0:
306,68,266249,6,0,B|278:122|307:201|307:201|326:190|326:190|356:283|307:360,1,314.99999165535,6|0,3:2|0:2,0:2:0:0:
251,264,266955,1,8,0:2:0:0:
488,177,267131,6,0,B|448:163|448:163|391:165,1,89.9999976158143,2|0,3:2|0:2,0:2:0:0:
70,100,267660,2,0,B|134:88|134:88|221:107,1,134.999996423721,2|0,3:2|0:2,0:2:0:0:
512,79,268366,2,0,B|448:67|448:67|361:86,1,134.999996423721,10|0,0:2|0:2,0:2:0:0:
296,213,269072,38,0,P|318:278|219:210,1,314.99999165535,2|0,3:2|0:2,0:2:0:0:
168,325,269778,6,0,P|220:367|286:369,1,134.999996423721,10|0,0:2|0:2,0:2:0:0:
277,147,270484,2,0,P|211:148|160:190,1,134.999996423721,2|0,3:2|3:2,0:2:0:0:
151,212,271102,1,0,3:2:0:0:
147,234,271190,1,10,0:2:0:0:
276,365,271366,2,0,P|319:354|352:324,1,89.9999976158143,0|0,3:2|0:2,0:2:0:0:
426,101,271896,6,0,B|356:74|327:141|199:92|199:92|228:143|302:134,1,314.99999165535,2|0,3:2|0:2,0:2:0:0:
338,192,272602,1,8,0:2:0:0:
212,14,272778,2,0,P|162:18|115:98,1,134.999996423721,0|0,3:2|0:2,0:2:0:0:
260,16,273131,2,0,P|241:4|220:0,1,44.9999988079071,0|0,3:2|0:2,0:2:0:0:
442,129,273308,38,0,B|372:102|343:169|215:120|215:120|244:171|318:162,1,314.99999165535,2|0,3:2|0:2,0:2:0:0:
354,220,274014,1,8,0:2:0:0:
226,36,274190,2,0,P|176:40|129:120,1,134.999996423721,0|0,3:2|0:2,0:2:0:0:
268,27,274543,2,0,P|249:14|227:10,1,44.9999988079071,0|0,3:2|0:2,0:2:0:0:
450,151,274719,6,0,B|382:138|382:138|327:159|327:159|223:142|223:142|264:164|296:220,1,314.99999165535,2|0,3:2|0:2,0:2:0:0:
396,235,275425,6,0,B|413:268|454:290|454:290|350:273|350:273|295:294|295:294|227:281,1,314.99999165535,10|0,0:2|0:2,0:2:0:0:
105,165,276131,2,0,P|162:137|213:293,1,269.999992847443,2|0,3:2|3:2,0:2:0:0:
214,299,276749,1,0,3:2:0:0:
192,306,276837,2,0,L|166:202,1,89.9999976158143,10|0,0:2|0:2,0:2:0:0:
162,356,277102,2,0,L|163:248,1,89.9999976158143,2|0,3:2|0:2,0:2:0:0:
121,378,277366,2,0,L|143:298,1,44.9999988079071,2|0,3:2|0:2,0:2:0:0:
249,240,277543,38,0,B|329:238|329:238|355:248|355:248|384:238|384:238|443:260|483:247|483:247|473:281|418:284,1,314.99999165535,2|0,3:2|0:2,0:2:0:0:
444,167,278249,2,0,B|446:66|446:66|416:131,1,134.999996423721,8|0,0:2|0:2,0:2:0:0:
242,116,278602,1,2,0:2:0:0:
249,94,278690,1,2,0:2:0:0:
270,100,278778,1,2,0:2:0:0:
274,121,278866,1,2,0:2:0:0:
256,135,278955,6,0,P|236:87|270:131,1,157.499995827675,2|0,3:2|0:2,0:2:0:0:
159,203,279660,6,0,P|126:270|178:208,1,236.250002753735,10|0,0:2|0:2,0:2:0:0:
353,203,280366,38,0,P|386:270|334:208,1,236.250002753735,2|0,3:2|0:2,0:2:0:0:
407,307,281072,6,0,P|419:295|428:281,1,33.7500003933907,10|0,0:2|0:2,0:2:0:0:
428,281,281249,2,0,P|436:266|439:250,1,33.7500003933907,0|0,0:2|0:2,0:2:0:0:
438,250,281425,2,0,P|440:233|438:217,1,33.7500003933907,0|0,0:2|0:2,0:2:0:0:
438,217,281602,2,0,P|434:201|426:187,1,33.7500003933907,0|0,0:2|0:2,0:2:0:0:
345,172,281778,2,0,P|328:176|301:200,1,33.7500003933907,2|0,3:2|0:2,0:2:0:0:
316,184,281955,2,0,P|301:193|284:225,1,33.7500003933907,0|0,0:2|0:2,0:2:0:0:
290,205,282131,2,0,P|279:219|295:306,1,101.250001180172,0|0,0:2|0:2,0:2:0:0:
224,368,282484,6,0,L|166:364,1,33.7500003933907,10|0,0:2|0:2,0:2:0:0:
123,209,282660,2,0,P|152:262|141:288,1,67.5000007867814,0|0,0:2|0:2,0:2:0:0:
340,354,283013,37,0,0:2:0:0:
340,329,283102,1,0,0:2:0:0:
341,301,283190,6,0,P|406:295|337:307,1,270.000003147125,2|0,3:2|0:2,0:2:0:0:
210,37,283719,37,2,3:2:0:0:
214,112,283808,1,2,3:2:0:0:
219,189,283896,1,10,0:2:0:0:
175,112,284072,5,0,0:2:0:0:
214,112,284249,1,0,0:2:0:0:
254,112,284425,1,0,0:2:0:0:
161,282,284602,22,0,P|80:322|155:272,1,270.000003147125,2|0,3:2|0:2,0:2:0:0:
348,79,285131,5,2,3:2:0:0:
343,154,285220,1,2,3:2:0:0:
338,231,285308,1,10,0:2:0:0:
382,154,285484,21,0,0:2:0:0:
343,154,285661,1,0,0:2:0:0:
303,154,285837,1,0,0:2:0:0:
59,84,286013,6,0,B|155:117|221:36|256:77|256:77|222:86|184:127|197:160,1,270.000003147125,2|0,3:2|0:2,0:2:0:0:
303,268,286543,37,0,3:2:0:0:
372,266,286631,1,0,3:2:0:0:
441,264,286719,2,0,P|418:318|370:334,1,89.9999976158143,10|0,0:2|0:2,0:2:0:0:
150,100,287072,6,0,B|140:68|140:68|156:2,2,90.0000010490418,2|2|2,0:2|0:2|0:2,0:2:0:0:
145,306,287425,6,0,B|150:100|150:100|157:147|214:167,1,269.999992847443,2|0,3:2|0:2,0:2:0:0:
423,150,288131,1,10,0:2:0:0:
331,231,288308,1,2,3:2:0:0:
263,150,288484,1,2,3:2:0:0:
204,231,288660,1,2,3:2:0:0:
413,26,288837,6,0,B|442:-10|442:-10|486:83|486:83|451:191|451:191|421:148,1,314.99999165535,2|0,3:2|0:2,0:2:0:0:
299,98,289543,2,0,B|281:69|281:69|261:170,1,134.999996423721,8|0,0:2|0:2,0:2:0:0:
281,264,289896,1,2,0:2:0:0:
302,268,289984,1,2,0:2:0:0:
306,289,290072,1,2,0:2:0:0:
288,303,290160,1,2,0:2:0:0:
270,288,290249,38,0,B|286:208|286:208|262:167|262:167|280:69|280:69|281:128|323:151,1,314.99999165535,2|0,3:2|0:2,0:2:0:0:
445,51,290955,6,0,P|316:9|313:144,1,314.99999165535,10|0,0:2|0:2,0:2:0:0:
507,214,291660,6,0,L|352:204,1,134.999996423721,2|0,3:2|0:2,0:2:0:0:
256,252,292013,2,0,P|211:264|251:241,1,134.999996423721,0|0,0:2|0:2,0:2:0:0:
220,183,292366,38,0,P|191:192|171:214,1,59.9999984105428,10|0,0:2|0:2,0:2:0:0:
172,303,292601,6,0,P|194:324|223:331,1,59.9999984105428,2|0,0:2|0:2,0:2:0:0:
300,283,292837,6,0,P|308:254|301:225,1,59.9999984105428,2|0,0:2|0:2,0:2:0:0:
128,216,293072,38,0,P|250:138|281:348,1,405.000004720688,2|0,3:2|0:2,0:2:0:0:
156,238,293778,6,0,P|218:177|288:304,1,269.999992847443,10|0,0:2|0:2,0:2:0:0:
232,251,294484,5,2,3:2:0:0:
216,274,294837,37,8,0:2:0:0:
180,274,295543,1,8,0:2:0:0:
144,274,296249,1,8,0:2:0:0:
107,274,296955,1,8,0:2:0:0:
71,274,297660,1,8,0:2:0:0:
36,274,298366,1,8,0:2:0:0:
0,274,299072,1,8,0:2:0:0:
46,205,299249,6,0,P|65:151|45:58,1,134.999996423721,0|8,0:2|0:2,0:2:0:0:
166,43,300131,6,0,L|277:47,1,89.9999976158143,0|8,0:2|0:2,0:2:0:0:
410,101,300837,2,0,L|299:105,1,89.9999976158143,0|8,0:2|0:2,0:2:0:0:
251,201,301543,2,0,P|293:220|350:214,1,89.9999976158143,0|8,0:2|0:2,0:2:0:0:
214,197,302072,2,0,P|249:226|306:235,1,89.9999976158143,0|0,0:2|0:2,0:2:0:0:
174,190,302602,2,0,P|200:227|224:243,1,44.9999988079071,8|0,0:2|0:2,0:2:0:0:
65,122,302955,38,0,L|191:113,1,89.9999976158143,0|8,0:2|0:2,0:2:0:0:
303,203,303682,2,0,L|177:194,1,89.9999976158143,0|8,0:2|0:2,0:2:0:0:
79,295,304409,2,0,P|121:274|191:278,1,89.9999976158143,0|8,0:2|0:2,0:2:0:0:
40,309,304955,2,0,P|75:277|143:263,1,89.9999976158143,0|0,0:2|0:2,0:2:0:0:
8,335,305500,2,0,P|33:295|60:279,1,44.9999988079071,8|0,0:2|0:2,0:2:0:0:
167,347,305864,6,0,L|291:332,1,89.9999976158143,0|8,0:2|0:2,0:2:0:0:
412,282,306591,2,0,L|288:267,1,89.9999976158143,0|8,0:2|0:2,0:2:0:0:
165,170,307318,2,0,P|232:146|292:158,1,89.9999976158143,0|8,0:2|0:2,0:2:0:0:
115,186,307864,2,0,P|173:145|234:141,1,89.9999976158143,0|0,0:2|0:2,0:2:0:0:
71,203,308409,2,0,P|93:174|123:164,1,44.9999988079071,8|0,0:2|0:2,0:2:0:0:
365,88,308773,6,0,P|397:128|385:189,1,89.9999976158143,0|8,0:2|0:2,0:2:0:0:
291,236,309500,2,0,P|293:191|329:153,1,89.9999976158143,0|8,0:2|0:2,0:2:0:0:
343,291,310245,37,0,0:2:0:0:
159,262,310811,5,0,0:2:0:0:
149,179,311377,5,0,0:2:0:0:
141,93,311573,1,0,0:2:0:0:
134,9,311758,38,0,L|258:9,1,89.9999976158143,0|0,0:2|0:2,0:2:0:0:
357,84,312523,2,0,L|246:85,1,89.9999976158143,0|0,0:2|0:2,0:2:0:0:
228,242,313289,2,0,P|241:192|214:137,1,89.9999976158143,0|0,0:2|0:2,0:2:0:0:
220,288,313863,2,0,P|207:238|234:183,1,89.9999976158143,0|0,0:2|0:2,0:2:0:0:
240,318,314438,2,0,P|248:285|230:250,1,44.9999988079071,0|0,0:2|0:2,0:2:0:0:
220,119,314821,5,0,0:2:0:0:
218,202,315023,1,0,0:2:0:0:
216,285,315223,1,0,0:2:0:0:
408,140,315623,2,0,L|306:126,1,89.9999976158143,0|0,0:2|0:2,0:2:0:0:
218,202,316423,2,0,P|205:252|232:307,1,89.9999976158143,0|0,0:2|0:2,0:2:0:0:
226,156,317033,2,0,P|239:206|212:261,1,89.9999976158143,0|0,0:2|0:2,0:2:0:0:
206,126,317643,2,0,P|198:159|216:194,1,44.9999988079071,0|0,0:2|0:2,0:2:0:0:
321,247,318050,6,0,P|375:250|418:238,1,89.9999976158143,0|0,0:2|0:2,0:2:0:0:
512,343,318907,2,0,P|458:346|415:334,1,89.9999976158143,0|0,0:2|0:2,0:2:0:0:
190,309,319764,38,0,P|214:265|240:314,1,125.999992816925,0|0,0:2|0:2,0:2:0:0:
197,329,320456,6,0,P|201:297|229:337,1,107.999993843079,0|0,0:2|0:2,0:2:0:0:
207,342,321186,6,0,P|231:315|224:346,1,89.9999976158143,0|0,0:2|0:2,0:2:0:0:
217,364,322802,37,0,0:2:0:0:
217,384,324026,21,0,0:2:0:0:
