osu file format v14

[General]
AudioFilename: Triple Journey -S-C-U EDITION- Triumvirate.mp3
AudioLeadIn: 0
PreviewTime: 58782
Countdown: 0
SampleSet: Soft
StackLeniency: 0.7
Mode: 3
LetterboxInBreaks: 0
SpecialStyle: 0
WidescreenStoryboard: 0

[Editor]
DistanceSpacing: 0.6
BeatDivisor: 4
GridSize: 32
TimelineZoom: 1.2

[Metadata]
Title:Triple Journey -S-C-U EDITION-
TitleUnicode:Triple Journey -S-C-U EDITION-
Artist:Triumvirate
ArtistUnicode:Triumvirate
Creator:-[ AmiShici ]-
Version:ADVANCED
Source:jubeat saucer
Tags:jukebeat plus konami GITADORA GuitarFreaks & DrumMania DDR DanceDanceRevolution Kr-ARIA Takane6
BeatmapID:755995
BeatmapSetID:341989

[Difficulty]
HPDrainRate:8
CircleSize:7
OverallDifficulty:7
ApproachRate:5
SliderMultiplier:1.4
SliderTickRate:1

[Events]
//Background and Video events
0,0,"bg.jpg",0,0
//Break Periods
//Storyboard Layer 0 (Background)
//Storyboard Layer 1 (Fail)
//Storyboard Layer 2 (Pass)
//Storyboard Layer 3 (Foreground)
//Storyboard Sound Samples
Sample,40782,0,"BassS.wav",40
Sample,41382,0,"BassS.wav",40
Sample,43182,0,"BassS.wav",40
Sample,43782,0,"BassS.wav",40
Sample,44382,0,"BassS.wav",40
Sample,45582,0,"BassS.wav",40
Sample,46182,0,"BassS.wav",40
Sample,50382,0,"BassS.wav",40
Sample,50982,0,"BassS.wav",40
Sample,52782,0,"BassS.wav",40
Sample,53382,0,"BassS.wav",40
Sample,53982,0,"BassS.wav",40
Sample,64482,0,"LR_DS - Snare.wav",40
Sample,64782,0,"BassS.wav",40
Sample,65682,0,"LR_DS - Snare.wav",40
Sample,65982,0,"BassS.wav",40
Sample,69582,0,"BassS.wav",40
Sample,70482,0,"LR_DS - Snare.wav",40
Sample,70782,0,"BassS.wav",40
Sample,72882,0,"LR_DS - Snare.wav",40
Sample,74382,0,"BassS.wav",40
Sample,74682,0,"LR_DS - Snare.wav",40
Sample,74982,0,"BassS.wav",40
Sample,75282,0,"LR_DS - Snare.wav",40
Sample,75582,0,"BassS.wav",40
Sample,75882,0,"LR_DS - Snare.wav",40

[TimingPoints]
1782,300,4,2,0,10,1,0
59382,-100,4,2,0,10,0,1
78582,-100,4,2,0,10,0,0

[HitObjects]
256,192,1782,5,0,0:0:0:40:cym2.wav
402,192,1782,1,0,0:0:0:0:
109,192,1782,1,0,0:0:0:0:
256,192,1932,1,0,0:0:0:40:cym2.wav
109,192,1932,1,0,0:0:0:0:
402,192,1932,1,0,0:0:0:0:
256,192,2082,1,0,0:0:0:40:cym2.wav
402,192,2082,1,0,0:0:0:0:
109,192,2082,1,0,0:0:0:0:
256,192,2532,1,0,0:0:0:40:cym2.wav
402,192,2532,1,0,0:0:0:0:
109,192,2532,1,0,0:0:0:0:
36,192,2832,1,0,0:0:0:40:cym.wav
182,192,2832,1,0,0:0:0:0:
329,192,2832,1,0,0:0:0:0:
475,192,2832,1,0,0:0:0:0:
256,192,3132,1,0,0:0:0:40:BassS.wav
109,192,3282,1,0,0:0:0:40:BassS.wav
402,192,3282,1,0,0:0:0:0:
36,192,3582,1,0,0:0:0:40:BassS.wav
475,192,3582,1,0,0:0:0:0:
256,192,3732,1,0,0:0:0:40:BassS.wav
182,192,3882,1,0,0:0:0:40:BassS.wav
329,192,3882,1,0,0:0:0:0:
256,192,4182,5,0,0:0:0:40:cym2.wav
109,192,4182,1,0,0:0:0:0:
402,192,4182,1,0,0:0:0:0:
402,192,4332,1,0,0:0:0:40:cym2.wav
256,192,4332,1,0,0:0:0:0:
109,192,4332,1,0,0:0:0:0:
109,192,4482,1,0,0:0:0:40:cym2.wav
402,192,4482,1,0,0:0:0:0:
256,192,4482,1,0,0:0:0:0:
109,192,4932,1,0,0:0:0:40:cym2.wav
256,192,4932,1,0,0:0:0:0:
402,192,4932,1,0,0:0:0:0:
475,192,5232,1,0,0:0:0:40:cym.wav
329,192,5232,1,0,0:0:0:0:
36,192,5232,1,0,0:0:0:0:
182,192,5232,1,0,0:0:0:0:
256,192,5532,1,0,0:0:0:40:BassS.wav
36,192,5682,1,0,0:0:0:40:BassS.wav
475,192,5682,1,0,0:0:0:0:
402,192,5982,1,0,0:0:0:40:BassS.wav
109,192,5982,1,0,0:0:0:0:
256,192,6132,1,0,0:0:0:40:BassS.wav
36,192,6282,1,0,0:0:0:40:BassS.wav
475,192,6282,1,0,0:0:0:0:
256,192,6582,5,0,0:0:0:40:cym2.wav
402,192,6582,1,0,0:0:0:0:
109,192,6582,1,0,0:0:0:0:
109,192,6732,1,0,0:0:0:40:cym2.wav
256,192,6732,1,0,0:0:0:0:
402,192,6732,1,0,0:0:0:0:
256,192,6882,1,0,0:0:0:40:cym2.wav
402,192,6882,1,0,0:0:0:0:
109,192,6882,1,0,0:0:0:0:
402,192,7332,1,0,0:0:0:40:cym2.wav
256,192,7332,1,0,0:0:0:0:
109,192,7332,1,0,0:0:0:0:
329,192,7632,1,0,0:0:0:40:cym.wav
182,192,7632,1,0,0:0:0:0:
36,192,7632,1,0,0:0:0:0:
475,192,7632,1,0,0:0:0:0:
256,192,7932,1,0,0:0:0:40:BassS.wav
109,192,8082,1,0,0:0:0:40:BassS.wav
402,192,8082,1,0,0:0:0:0:
36,192,8382,1,0,0:0:0:40:BassS.wav
475,192,8382,1,0,0:0:0:0:
256,192,8532,1,0,0:0:0:40:BassS.wav
182,192,8682,1,0,0:0:0:40:BassS.wav
329,192,8682,1,0,0:0:0:0:
475,192,8982,1,0,0:0:0:40:cym.wav
36,192,8982,1,0,0:0:0:0:
256,192,8982,128,0,10032:0:0:0:0:
36,192,10032,128,0,10782:0:0:0:40:cym.wav
475,192,10032,128,0,10782:0:0:0:0:
402,192,10032,1,0,0:0:0:0:
109,192,10032,1,0,0:0:0:0:
182,192,10932,128,0,11382:0:0:0:40:cym.wav
109,192,10932,1,0,0:0:0:0:
402,192,10932,1,0,0:0:0:0:
329,192,10932,128,0,11382:0:0:0:0:
36,192,11382,1,0,0:0:0:0:
256,192,11532,1,0,0:0:0:0:
109,192,11682,1,0,0:0:0:0:
329,192,11832,1,0,0:0:0:0:
182,192,11982,1,0,0:0:0:0:
402,192,12132,1,0,0:0:0:0:
256,192,12282,1,0,0:0:0:0:
109,192,12432,1,0,0:0:0:0:
36,192,13782,1,0,0:0:0:0:
256,192,13932,1,0,0:0:0:0:
109,192,14082,1,0,0:0:0:0:
329,192,14232,1,0,0:0:0:0:
182,192,14382,1,0,0:0:0:0:
329,192,14532,1,0,0:0:0:0:
475,192,14682,1,0,0:0:0:0:
36,192,14832,1,0,0:0:0:0:
36,192,15582,1,0,0:0:0:0:
475,192,15582,1,0,0:0:0:0:
109,192,15657,1,0,0:0:0:0:
182,192,15732,1,0,0:0:0:0:
475,192,15732,1,0,0:0:0:0:
402,192,15807,1,0,0:0:0:0:
329,192,15882,1,0,0:0:0:0:
182,192,15882,1,0,0:0:0:0:
256,192,16032,1,0,0:0:0:40:cym.wav
36,192,16032,1,0,0:0:0:0:
475,192,16032,1,0,0:0:0:0:
182,192,16332,1,0,0:0:0:0:
329,192,16482,1,0,0:0:0:40:BassS.wav
402,192,16482,1,0,0:0:0:0:
36,192,16632,1,0,0:0:0:0:
475,192,16782,1,0,0:0:0:40:BassS.wav
182,192,16782,1,0,0:0:0:0:
256,192,16932,1,0,0:0:0:0:
109,192,16932,1,0,0:0:0:0:
402,192,16932,1,0,0:0:0:0:
329,192,17082,1,0,0:0:0:40:BassS.wav
36,192,17082,1,0,0:0:0:0:
256,192,17232,1,0,0:0:0:40:cym.wav
475,192,17232,1,0,0:0:0:0:
182,192,17232,1,0,0:0:0:0:
256,192,17532,1,0,0:0:0:40:BassS.wav
182,192,17682,1,0,0:0:0:40:BassS.wav
329,192,17682,1,0,0:0:0:0:
256,192,17832,1,0,0:0:0:40:cym1.wav
109,192,17832,1,0,0:0:0:0:
402,192,17832,1,0,0:0:0:0:
256,192,18132,1,0,0:0:0:40:BassS.wav
109,192,18282,1,0,0:0:0:40:BassS.wav
402,192,18282,1,0,0:0:0:0:
36,192,18432,1,0,0:0:0:40:cym.wav
475,192,18432,1,0,0:0:0:0:
329,192,18432,128,0,19332:0:0:0:0:
182,192,18432,128,0,19332:0:0:0:0:
109,192,19332,1,0,0:0:0:0:
402,192,19332,1,0,0:0:0:0:
256,192,19482,1,0,0:0:0:40:cym.wav
36,192,19632,128,0,20682:0:0:0:0:
475,192,19632,128,0,20682:0:0:0:0:
182,192,19632,1,0,0:0:0:0:
329,192,19632,1,0,0:0:0:0:
109,192,20982,1,0,0:0:0:0:
256,192,20982,1,0,0:0:0:0:
402,192,20982,1,0,0:0:0:0:
329,192,21132,1,0,0:0:0:0:
182,192,21282,1,0,0:0:0:0:
36,192,21432,1,0,0:0:0:0:
256,192,21432,1,0,0:0:0:0:
475,192,21432,1,0,0:0:0:0:
182,192,21732,1,0,0:0:0:0:
329,192,21882,1,0,0:0:0:0:
109,192,22032,1,0,0:0:0:0:
475,192,22032,1,0,0:0:0:0:
256,192,22032,1,0,0:0:0:0:
182,192,22332,1,0,0:0:0:0:
36,192,22332,1,0,0:0:0:0:
402,192,22332,1,0,0:0:0:0:
109,192,22632,1,0,0:0:0:0:
182,192,22782,1,0,0:0:0:0:
329,192,22932,1,0,0:0:0:0:
402,192,23082,1,0,0:0:0:0:
475,192,23232,1,0,0:0:0:0:
182,192,23382,1,0,0:0:0:0:
36,192,23382,1,0,0:0:0:0:
329,192,23382,1,0,0:0:0:0:
402,192,23532,1,0,0:0:0:0:
475,192,23682,1,0,0:0:0:0:
182,192,23832,1,0,0:0:0:0:
109,192,23832,1,0,0:0:0:0:
36,192,23832,1,0,0:0:0:0:
256,192,24132,1,0,0:0:0:0:
329,192,24282,1,0,0:0:0:0:
402,192,24432,1,0,0:0:0:0:
182,192,24432,1,0,0:0:0:0:
36,192,24432,1,0,0:0:0:0:
256,192,24732,1,0,0:0:0:0:
109,192,24732,1,0,0:0:0:0:
329,192,24732,1,0,0:0:0:0:
182,192,25032,1,0,0:0:0:0:
402,192,25182,1,0,0:0:0:0:
109,192,25332,1,0,0:0:0:0:
329,192,25482,1,0,0:0:0:0:
36,192,25632,1,0,0:0:0:0:
256,192,25782,1,0,0:0:0:40:cym.wav
109,192,25782,1,0,0:0:0:0:
402,192,25782,1,0,0:0:0:0:
475,192,25932,1,0,0:0:0:0:
256,192,26082,1,0,0:0:0:0:
182,192,26232,1,0,0:0:0:40:cym.wav
402,192,26232,1,0,0:0:0:0:
36,192,26232,1,0,0:0:0:0:
109,192,26382,1,0,0:0:0:0:
329,192,26532,1,0,0:0:0:0:
256,192,26682,1,0,0:0:0:40:cym1.wav
182,192,26682,1,0,0:0:0:0:
402,192,26682,1,0,0:0:0:0:
36,192,26832,1,0,0:0:0:0:
475,192,26982,1,0,0:0:0:0:
256,192,27132,1,0,0:0:0:40:cym.wav
109,192,27132,1,0,0:0:0:0:
402,192,27132,1,0,0:0:0:0:
329,192,27432,1,0,0:0:0:0:
182,192,27582,1,0,0:0:0:40:cym1.wav
402,192,27582,1,0,0:0:0:0:
36,192,27582,1,0,0:0:0:0:
109,192,27732,1,0,0:0:0:0:
256,192,27882,1,0,0:0:0:40:cym.wav
329,192,27882,1,0,0:0:0:0:
475,192,27882,1,0,0:0:0:0:
109,192,28182,1,0,0:0:0:40:cym2.wav
402,192,28182,1,0,0:0:0:0:
109,192,28407,1,0,0:0:0:40:cym2.wav
402,192,28407,1,0,0:0:0:0:
256,192,28632,1,0,0:0:0:40:cym.wav
475,192,28632,1,0,0:0:0:0:
36,192,28632,1,0,0:0:0:0:
109,192,28932,1,0,0:0:0:0:
402,192,28932,1,0,0:0:0:0:
329,192,29082,1,0,0:0:0:0:
256,192,29232,1,0,0:0:0:40:cym.wav
36,192,29232,1,0,0:0:0:0:
475,192,29232,1,0,0:0:0:0:
109,192,29532,1,0,0:0:0:0:
475,192,29682,1,0,0:0:0:0:
402,192,29757,1,0,0:0:0:0:
329,192,29832,1,0,0:0:0:30:cym.wav
182,192,29832,1,0,0:0:0:0:
36,192,29832,1,0,0:0:0:0:
256,192,30582,1,0,0:0:0:40:cym.wav
109,192,30582,1,0,0:0:0:0:
402,192,30582,1,0,0:0:0:0:
36,192,30732,1,0,0:0:0:0:
182,192,30882,1,0,0:0:0:40:BassS.wav
329,192,30882,1,0,0:0:0:0:
475,192,31032,1,0,0:0:0:0:
402,192,31182,1,0,0:0:0:40:BassS.wav
256,192,31182,1,0,0:0:0:0:
109,192,31332,1,0,0:0:0:0:
36,192,31482,1,0,0:0:0:40:BassS.wav
182,192,31482,1,0,0:0:0:0:
402,192,31632,1,0,0:0:0:0:
329,192,31782,1,0,0:0:0:40:BassS.wav
475,192,31782,1,0,0:0:0:0:
256,192,31932,1,0,0:0:0:0:
182,192,32082,1,0,0:0:0:40:BassS.wav
329,192,32082,1,0,0:0:0:0:
36,192,32232,1,0,0:0:0:0:
109,192,32382,1,0,0:0:0:40:BassS.wav
256,192,32382,1,0,0:0:0:0:
475,192,32532,1,0,0:0:0:0:
402,192,32682,1,0,0:0:0:40:BassS.wav
256,192,32682,1,0,0:0:0:0:
109,192,32832,1,0,0:0:0:0:
36,192,32982,1,0,0:0:0:40:BassS.wav
182,192,32982,1,0,0:0:0:0:
329,192,33132,1,0,0:0:0:0:
402,192,33282,1,0,0:0:0:40:BassS.wav
475,192,33282,1,0,0:0:0:0:
256,192,33432,1,0,0:0:0:0:
182,192,33582,1,0,0:0:0:40:BassS.wav
109,192,33582,1,0,0:0:0:0:
402,192,33732,1,0,0:0:0:0:
329,192,33882,1,0,0:0:0:40:BassS.wav
475,192,33882,1,0,0:0:0:0:
109,192,34032,1,0,0:0:0:0:
256,192,34032,1,0,0:0:0:0:
36,192,34182,1,0,0:0:0:40:BassS.wav
182,192,34182,1,0,0:0:0:0:
402,192,34332,1,0,0:0:0:0:
256,192,34332,1,0,0:0:0:0:
329,192,34482,1,0,0:0:0:40:BassS.wav
475,192,34482,1,0,0:0:0:0:
109,192,34632,1,0,0:0:0:0:
182,192,34782,1,0,0:0:0:40:BassS.wav
402,192,34782,1,0,0:0:0:0:
329,192,34932,1,0,0:0:0:0:
256,192,34982,1,0,0:0:0:0:
182,192,35032,1,0,0:0:0:0:
36,192,35082,1,0,0:0:0:40:BassS.wav
109,192,35082,1,0,0:0:0:0:
402,192,35232,1,0,0:0:0:0:
329,192,35382,1,0,0:0:0:40:BassS.wav
475,192,35382,1,0,0:0:0:0:
36,192,35532,1,0,0:0:0:0:
109,192,35682,1,0,0:0:0:40:BassS.wav
256,192,35682,1,0,0:0:0:0:
475,192,35832,1,0,0:0:0:0:
402,192,35982,1,0,0:0:0:40:BassS.wav
329,192,35982,1,0,0:0:0:0:
36,192,36132,1,0,0:0:0:0:
182,192,36282,1,0,0:0:0:40:BassS.wav
109,192,36282,1,0,0:0:0:0:
402,192,36432,1,0,0:0:0:0:
256,192,36582,1,0,0:0:0:40:BassS.wav
475,192,36582,1,0,0:0:0:0:
329,192,36732,1,0,0:0:0:0:
402,192,36882,1,0,0:0:0:40:BassS.wav
182,192,36882,1,0,0:0:0:0:
109,192,37032,1,0,0:0:0:0:
36,192,37182,1,0,0:0:0:40:BassS.wav
329,192,37182,1,0,0:0:0:0:
402,192,37332,1,0,0:0:0:0:
475,192,37482,1,0,0:0:0:40:BassS.wav
182,192,37482,1,0,0:0:0:0:
256,192,37632,1,0,0:0:0:0:
36,192,37782,1,0,0:0:0:40:BassS.wav
329,192,37782,1,0,0:0:0:0:
475,192,37932,1,0,0:0:0:0:
402,192,38082,1,0,0:0:0:40:BassS.wav
182,192,38082,1,0,0:0:0:0:
109,192,38232,1,0,0:0:0:0:
36,192,38382,1,0,0:0:0:40:BassS.wav
256,192,38382,1,0,0:0:0:0:
402,192,38532,1,0,0:0:0:0:
329,192,38682,1,0,0:0:0:40:BassS.wav
182,192,38682,1,0,0:0:0:0:
36,192,38832,1,0,0:0:0:40:BassS.wav
109,192,38832,1,0,0:0:0:0:
475,192,38832,1,0,0:0:0:0:
182,192,39132,1,0,0:0:0:0:
329,192,39282,1,0,0:0:0:0:
109,192,39432,128,0,40182:0:0:0:0:
402,192,39432,128,0,40182:0:0:0:0:
256,192,39432,128,0,39882:0:0:0:0:
256,192,40182,1,0,0:0:0:40:cym.wav
36,192,40182,1,0,0:0:0:0:
475,192,40182,1,0,0:0:0:0:
329,192,40332,1,0,0:0:0:0:
182,192,40332,1,0,0:0:0:0:
36,192,40482,1,0,0:0:0:40:LR_DS - Snare.wav
475,192,40482,1,0,0:0:0:0:
402,192,40632,1,0,0:0:0:0:
109,192,40632,1,0,0:0:0:0:
475,192,40932,1,0,0:0:0:0:
36,192,40932,1,0,0:0:0:0:
329,192,41082,1,0,0:0:0:40:LR_DS - Snare.wav
182,192,41082,1,0,0:0:0:0:
182,192,41232,1,0,0:0:0:0:
329,192,41232,1,0,0:0:0:0:
256,192,41532,1,0,0:0:0:0:
402,192,41532,1,0,0:0:0:0:
402,192,41682,1,0,0:0:0:40:LR_DS - Snare.wav
256,192,41682,1,0,0:0:0:0:
329,192,41982,1,0,0:0:0:40:BassS.wav
36,192,41982,1,0,0:0:0:0:
109,192,42207,1,0,0:0:0:0:
402,192,42207,1,0,0:0:0:0:
109,192,42432,1,0,0:0:0:0:
402,192,42432,1,0,0:0:0:0:
182,192,42582,1,0,0:0:0:40:BassS.wav
475,192,42582,1,0,0:0:0:0:
329,192,42732,1,0,0:0:0:0:
36,192,42732,1,0,0:0:0:0:
402,192,42882,1,0,0:0:0:40:LR_DS - Snare.wav
109,192,42882,1,0,0:0:0:0:
36,192,43032,1,0,0:0:0:0:
329,192,43032,1,0,0:0:0:0:
475,192,43332,1,0,0:0:0:0:
256,192,43332,1,0,0:0:0:0:
329,192,43482,1,0,0:0:0:40:LR_DS - Snare.wav
109,192,43482,1,0,0:0:0:0:
109,192,43632,1,0,0:0:0:0:
329,192,43632,1,0,0:0:0:0:
475,192,43932,1,0,0:0:0:0:
182,192,43932,1,0,0:0:0:0:
402,192,44082,1,0,0:0:0:40:LR_DS - Snare.wav
109,192,44082,1,0,0:0:0:0:
36,192,44232,1,0,0:0:0:0:
329,192,44232,1,0,0:0:0:0:
36,192,44532,1,0,0:0:0:0:
329,192,44532,1,0,0:0:0:0:
182,192,44682,1,0,0:0:0:40:LR_DS - Snare.wav
475,192,44682,1,0,0:0:0:0:
109,192,44982,1,0,0:0:0:40:BassS.wav
256,192,44982,1,0,0:0:0:0:
329,192,45282,1,0,0:0:0:40:LR_DS - Snare.wav
475,192,45282,1,0,0:0:0:0:
182,192,45432,1,0,0:0:0:0:
109,192,45732,1,0,0:0:0:0:
402,192,45882,1,0,0:0:0:40:LR_DS - Snare.wav
109,192,46032,1,0,0:0:0:0:
109,192,46332,1,0,0:0:0:0:
402,192,46482,1,0,0:0:0:40:LR_DS - Snare.wav
329,192,46782,1,0,0:0:0:40:BassS.wav
109,192,46782,1,0,0:0:0:0:
256,192,47082,1,0,0:0:0:40:LR_DS - Snare.wav
36,192,47382,1,0,0:0:0:40:BassS.wav
402,192,47382,1,0,0:0:0:0:
36,192,47532,1,0,0:0:0:0:
402,192,47682,1,0,0:0:0:40:LR_DS - Snare.wav
36,192,47682,1,0,0:0:0:0:
109,192,47832,1,0,0:0:0:0:
329,192,47832,1,0,0:0:0:0:
109,192,47982,1,0,0:0:0:40:BassS.wav
109,192,48132,1,0,0:0:0:0:
329,192,48132,1,0,0:0:0:0:
402,192,48282,1,0,0:0:0:40:LR_DS - Snare.wav
182,192,48282,1,0,0:0:0:0:
182,192,48432,1,0,0:0:0:0:
475,192,48582,1,0,0:0:0:40:BassS.wav
182,192,48582,1,0,0:0:0:0:
36,192,48732,1,0,0:0:0:0:
329,192,48732,1,0,0:0:0:0:
329,192,48882,1,0,0:0:0:40:LR_DS - Snare.wav
329,192,49032,1,0,0:0:0:0:
109,192,49032,1,0,0:0:0:0:
36,192,49182,1,0,0:0:0:40:BassS.wav
475,192,49182,1,0,0:0:0:0:
36,192,49482,1,0,0:0:0:40:LR_DS - Snare.wav
475,192,49482,1,0,0:0:0:0:
109,192,49782,1,0,0:0:0:40:cym.wav
402,192,49782,1,0,0:0:0:40:BassS.wav
256,192,49782,1,0,0:0:0:0:
329,192,49932,1,0,0:0:0:0:
182,192,49932,1,0,0:0:0:0:
36,192,50082,1,0,0:0:0:40:LR_DS - Snare.wav
475,192,50082,1,0,0:0:0:0:
402,192,50232,1,0,0:0:0:0:
109,192,50232,1,0,0:0:0:0:
329,192,50532,1,0,0:0:0:0:
182,192,50532,1,0,0:0:0:0:
109,192,50682,1,0,0:0:0:40:LR_DS - Snare.wav
402,192,50682,1,0,0:0:0:0:
402,192,50832,1,0,0:0:0:0:
109,192,50832,1,0,0:0:0:0:
182,192,51132,1,0,0:0:0:0:
475,192,51132,1,0,0:0:0:0:
182,192,51282,1,0,0:0:0:40:LR_DS - Snare.wav
475,192,51282,1,0,0:0:0:0:
256,192,51582,1,0,0:0:0:40:BassS.wav
109,192,51582,1,0,0:0:0:0:
182,192,51807,1,0,0:0:0:0:
329,192,51807,1,0,0:0:0:0:
256,192,52032,1,0,0:0:0:0:
402,192,52032,1,0,0:0:0:0:
475,192,52182,1,0,0:0:0:40:BassS.wav
36,192,52182,1,0,0:0:0:0:
329,192,52332,1,0,0:0:0:0:
182,192,52332,1,0,0:0:0:0:
475,192,52482,1,0,0:0:0:40:LR_DS - Snare.wav
36,192,52482,1,0,0:0:0:0:
109,192,52632,1,0,0:0:0:0:
402,192,52632,1,0,0:0:0:0:
402,192,52932,1,0,0:0:0:0:
109,192,52932,1,0,0:0:0:0:
36,192,53082,1,0,0:0:0:40:LR_DS - Snare.wav
475,192,53082,1,0,0:0:0:0:
182,192,53232,1,0,0:0:0:0:
402,192,53232,1,0,0:0:0:0:
182,192,53532,1,0,0:0:0:0:
402,192,53532,1,0,0:0:0:0:
329,192,53682,1,0,0:0:0:40:LR_DS - Snare.wav
109,192,53682,1,0,0:0:0:0:
256,192,53832,1,0,0:0:0:0:
36,192,53832,1,0,0:0:0:0:
36,192,54132,1,0,0:0:0:0:
256,192,54132,1,0,0:0:0:0:
182,192,54282,1,0,0:0:0:40:LR_DS - Snare.wav
402,192,54282,1,0,0:0:0:0:
475,192,54582,1,0,0:0:0:40:BassS.wav
36,192,54582,1,0,0:0:0:0:
36,192,54732,1,0,0:0:0:0:
36,192,54882,1,0,0:0:0:40:LR_DS - Snare.wav
402,192,54882,1,0,0:0:0:0:
329,192,55032,1,0,0:0:0:0:
182,192,55032,1,0,0:0:0:0:
182,192,55182,1,0,0:0:0:40:BassS.wav
182,192,55332,1,0,0:0:0:0:
475,192,55332,1,0,0:0:0:0:
329,192,55482,1,0,0:0:0:40:LR_DS - Snare.wav
402,192,55482,1,0,0:0:0:0:
329,192,55632,1,0,0:0:0:0:
329,192,55782,1,0,0:0:0:40:BassS.wav
109,192,55782,1,0,0:0:0:0:
475,192,55932,1,0,0:0:0:0:
36,192,55932,1,0,0:0:0:0:
475,192,56082,1,0,0:0:0:40:LR_DS - Snare.wav
475,192,56232,1,0,0:0:0:0:
182,192,56232,1,0,0:0:0:0:
402,192,56382,1,0,0:0:0:40:BassS.wav
109,192,56382,1,0,0:0:0:0:
36,192,56682,1,0,0:0:0:40:LR_DS - Snare.wav
475,192,56682,1,0,0:0:0:0:
256,192,56982,1,0,0:0:0:40:cym2.wav
109,192,56982,1,0,0:0:0:0:
402,192,56982,1,0,0:0:0:0:
256,192,57132,1,0,0:0:0:40:cym2.wav
109,192,57132,1,0,0:0:0:0:
402,192,57132,1,0,0:0:0:0:
256,192,57432,1,0,0:0:0:40:cym2.wav
36,192,57432,1,0,0:0:0:0:
475,192,57432,1,0,0:0:0:0:
256,192,57732,1,0,0:0:0:40:cym2.wav
36,192,57732,1,0,0:0:0:0:
475,192,57732,1,0,0:0:0:0:
256,192,58032,1,0,0:0:0:40:cym2.wav
109,192,58032,1,0,0:0:0:0:
402,192,58032,1,0,0:0:0:0:
256,192,58332,1,0,0:0:0:40:cym2.wav
109,192,58332,1,0,0:0:0:0:
402,192,58332,1,0,0:0:0:0:
256,192,58482,1,0,0:0:0:40:cym2.wav
402,192,58482,1,0,0:0:0:0:
109,192,58482,1,0,0:0:0:0:
36,192,58782,128,0,59382:0:0:0:0:
182,192,58932,128,0,59382:0:0:0:0:
329,192,59082,128,0,59382:0:0:0:0:
475,192,59232,128,0,59382:0:0:0:0:
256,192,59382,1,0,0:0:0:40:cym1.wav
402,192,59382,1,0,0:0:0:40:BassS.wav
109,192,59382,1,0,0:0:0:0:
475,192,59532,1,0,0:0:0:0:
109,192,59682,1,0,0:0:0:0:
36,192,59682,1,0,0:0:0:0:
329,192,59832,1,0,0:0:0:0:
256,192,59982,1,0,0:0:0:40:BassS.wav
402,192,59982,1,0,0:0:0:0:
109,192,60132,1,0,0:0:0:0:
36,192,60282,1,0,0:0:0:0:
182,192,60282,1,0,0:0:0:0:
475,192,60432,1,0,0:0:0:0:
109,192,60582,1,0,0:0:0:0:
402,192,60582,1,0,0:0:0:0:
256,192,60732,1,0,0:0:0:0:
182,192,60807,1,0,0:0:0:0:
329,192,60882,1,0,0:0:0:40:LR_DS - Snare.wav
109,192,60882,1,0,0:0:0:0:
475,192,61032,1,0,0:0:0:0:
402,192,61182,1,0,0:0:0:40:BassS.wav
256,192,61182,1,0,0:0:0:0:
109,192,61332,1,0,0:0:0:0:
36,192,61482,1,0,0:0:0:0:
182,192,61482,1,0,0:0:0:0:
329,192,61632,1,0,0:0:0:0:
402,192,61707,1,0,0:0:0:0:
475,192,61782,1,0,0:0:0:0:
256,192,61782,1,0,0:0:0:0:
36,192,61932,1,0,0:0:0:0:
109,192,62007,1,0,0:0:0:0:
182,192,62082,1,0,0:0:0:0:
329,192,62082,1,0,0:0:0:0:
256,192,62232,1,0,0:0:0:0:
329,192,62382,1,0,0:0:0:40:BassS.wav
475,192,62382,1,0,0:0:0:0:
109,192,62457,1,0,0:0:0:0:
182,192,62532,1,0,0:0:0:0:
329,192,62607,1,0,0:0:0:0:
36,192,62682,1,0,0:0:0:0:
402,192,62682,1,0,0:0:0:0:
256,192,62832,1,0,0:0:0:0:
109,192,62982,1,0,0:0:0:0:
402,192,62982,1,0,0:0:0:0:
182,192,63132,1,0,0:0:0:0:
256,192,63207,1,0,0:0:0:0:
475,192,63282,1,0,0:0:0:40:LR_DS - Snare.wav
329,192,63282,1,0,0:0:0:0:
109,192,63432,1,0,0:0:0:0:
36,192,63582,1,0,0:0:0:40:BassS.wav
182,192,63582,1,0,0:0:0:0:
256,192,63657,1,0,0:0:0:0:
329,192,63732,1,0,0:0:0:0:
402,192,63807,1,0,0:0:0:0:
475,192,63882,1,0,0:0:0:0:
256,192,63882,1,0,0:0:0:0:
109,192,64032,1,0,0:0:0:0:
36,192,64182,1,0,0:0:0:0:
182,192,64182,1,0,0:0:0:0:
36,192,64407,1,0,0:0:0:0:
182,192,64407,1,0,0:0:0:0:
329,192,64632,1,0,0:0:0:0:
475,192,64632,1,0,0:0:0:0:
475,192,64857,1,0,0:0:0:0:
329,192,64857,1,0,0:0:0:0:
402,192,65082,1,0,0:0:0:40:LR_DS - Snare.wav
329,192,65157,1,0,0:0:0:0:
182,192,65232,1,0,0:0:0:0:
109,192,65307,1,0,0:0:0:0:
36,192,65382,1,0,0:0:0:0:
329,192,65382,1,0,0:0:0:0:
109,192,65607,1,0,0:0:0:0:
402,192,65607,1,0,0:0:0:0:
475,192,65832,1,0,0:0:0:0:
182,192,65832,1,0,0:0:0:0:
109,192,66057,1,0,0:0:0:0:
402,192,66057,1,0,0:0:0:0:
36,192,66282,1,0,0:0:0:0:
475,192,66282,1,0,0:0:0:0:
329,192,66432,1,0,0:0:0:0:
182,192,66432,1,0,0:0:0:0:
36,192,66582,1,0,0:0:0:40:cym.wav
256,192,66582,1,0,0:0:0:0:
475,192,66582,1,0,0:0:0:0:
109,192,66882,1,0,0:0:0:0:
402,192,66882,1,0,0:0:0:0:
256,192,67182,1,0,0:0:0:40:BassS.wav
36,192,67182,1,0,0:0:0:0:
475,192,67182,1,0,0:0:0:0:
329,192,67482,1,0,0:0:0:0:
182,192,67482,1,0,0:0:0:0:
35,192,67782,1,0,0:0:0:40:cym2.wav
182,192,67782,1,0,0:0:0:0:
329,192,67782,1,0,0:0:0:0:
35,192,67932,1,0,0:0:0:40:cym2.wav
182,192,67932,1,0,0:0:0:0:
329,192,67932,1,0,0:0:0:0:
35,192,68082,1,0,0:0:0:40:cym2.wav
182,192,68082,1,0,0:0:0:0:
329,192,68082,1,0,0:0:0:0:
35,192,68232,1,0,0:0:0:40:cym2.wav
182,192,68232,1,0,0:0:0:0:
329,192,68232,1,0,0:0:0:0:
256,192,68382,1,0,0:0:0:40:cym2.wav
402,192,68382,1,0,0:0:0:0:
109,192,68382,1,0,0:0:0:0:
256,192,68532,1,0,0:0:0:40:cym2.wav
402,192,68532,1,0,0:0:0:0:
109,192,68532,1,0,0:0:0:0:
256,192,68682,1,0,0:0:0:40:cym2.wav
109,192,68682,1,0,0:0:0:0:
402,192,68682,1,0,0:0:0:0:
256,192,68832,1,0,0:0:0:40:cym2.wav
402,192,68832,1,0,0:0:0:0:
109,192,68832,1,0,0:0:0:0:
36,192,68982,1,0,0:0:0:40:BassS.wav
182,192,68982,1,0,0:0:0:40:cym.wav
475,192,68982,1,0,0:0:0:0:
329,192,68982,1,0,0:0:0:0:
402,192,69282,1,0,0:0:0:40:LR_DS - Snare.wav
109,192,69282,1,0,0:0:0:0:
182,192,69432,1,0,0:0:0:0:
329,192,69432,1,0,0:0:0:0:
36,192,69657,1,0,0:0:0:0:
475,192,69657,1,0,0:0:0:0:
402,192,69882,1,0,0:0:0:40:LR_DS - Snare.wav
109,192,69882,1,0,0:0:0:0:
329,192,70032,1,0,0:0:0:0:
182,192,70032,1,0,0:0:0:0:
256,192,70182,1,0,0:0:0:40:BassS.wav
36,192,70182,1,0,0:0:0:0:
109,192,70407,1,0,0:0:0:0:
402,192,70407,1,0,0:0:0:0:
182,192,70632,1,0,0:0:0:0:
475,192,70632,1,0,0:0:0:0:
475,192,70857,1,0,0:0:0:0:
182,192,70857,1,0,0:0:0:0:
402,192,71082,1,0,0:0:0:40:LR_DS - Snare.wav
109,192,71082,1,0,0:0:0:0:
36,192,71232,1,0,0:0:0:0:
109,192,71307,1,0,0:0:0:0:
182,192,71382,1,0,0:0:0:40:cym.wav
476,192,71382,1,0,0:0:0:40:BassS.wav
329,192,71382,1,0,0:0:0:0:
256,192,71607,1,0,0:0:0:0:
109,192,71682,1,0,0:0:0:40:LR_DS - Snare.wav
402,192,71682,1,0,0:0:0:0:
182,192,71832,1,0,0:0:0:0:
475,192,71832,1,0,0:0:0:0:
256,192,71982,1,0,0:0:0:40:BassS.wav
402,192,72057,1,0,0:0:0:0:
109,192,72057,1,0,0:0:0:0:
256,192,72207,1,0,0:0:0:0:
329,192,72282,1,0,0:0:0:40:LR_DS - Snare.wav
36,192,72282,1,0,0:0:0:0:
109,192,72432,1,0,0:0:0:0:
182,192,72582,1,0,0:0:0:40:BassS.wav
402,192,72582,1,0,0:0:0:0:
329,192,72732,1,0,0:0:0:0:
256,192,72807,1,0,0:0:0:0:
109,192,72807,1,0,0:0:0:0:
329,192,73032,1,0,0:0:0:0:
402,192,73032,1,0,0:0:0:0:
256,192,73182,1,0,0:0:0:40:BassS.wav
182,192,73257,1,0,0:0:0:0:
36,192,73257,1,0,0:0:0:0:
329,192,73407,1,0,0:0:0:0:
402,192,73482,1,0,0:0:0:40:LR_DS - Snare.wav
475,192,73482,1,0,0:0:0:0:
256,192,73782,1,0,0:0:0:40:cym.wav
36,192,73782,1,0,0:0:0:40:BassS.wav
475,192,73782,1,0,0:0:0:0:
36,192,73932,1,0,0:0:0:0:
475,192,73932,1,0,0:0:0:0:
329,192,74082,1,0,0:0:0:40:LR_DS - Snare.wav
109,192,74082,1,0,0:0:0:0:
182,192,74232,1,0,0:0:0:0:
402,192,74232,1,0,0:0:0:0:
109,192,74532,1,0,0:0:0:0:
402,192,74532,1,0,0:0:0:0:
109,192,74832,128,0,75882:0:0:0:0:
402,192,74832,128,0,75882:0:0:0:0:
256,192,74832,128,0,75882:0:0:0:0:
36,192,76182,1,0,0:0:0:40:BassS.wav
475,192,76182,1,0,0:0:0:40:cym.wav
256,192,76182,1,0,0:0:0:0:
329,192,76482,1,0,0:0:0:40:BassS.wav
182,192,76482,1,0,0:0:0:0:
109,192,76782,1,0,0:0:0:30:cym.wav
256,192,76782,1,0,0:0:0:0:
402,192,76782,1,0,0:0:0:0:
475,192,77082,1,0,0:0:0:40:BassS.wav
36,192,77082,1,0,0:0:0:0:
36,192,77382,1,0,0:0:0:40:cym.wav
402,192,77382,1,0,0:0:0:0:
109,192,77382,1,0,0:0:0:0:
329,192,77457,1,0,0:0:0:0:
256,192,77532,1,0,0:0:0:0:
182,192,77607,1,0,0:0:0:0:
109,192,77682,1,0,0:0:0:0:
402,192,77682,1,0,0:0:0:0:
182,192,77757,1,0,0:0:0:0:
256,192,77832,1,0,0:0:0:0:
329,192,77907,1,0,0:0:0:0:
402,192,77982,1,0,0:0:0:30:cym.wav
475,192,77982,1,0,0:0:0:0:
109,192,77982,1,0,0:0:0:0:
182,192,78057,1,0,0:0:0:0:
256,192,78132,1,0,0:0:0:0:
329,192,78207,1,0,0:0:0:0:
109,192,78282,1,0,0:0:0:0:
402,192,78282,1,0,0:0:0:0:
329,192,78357,1,0,0:0:0:0:
256,192,78432,1,0,0:0:0:0:
182,192,78507,1,0,0:0:0:0:
109,192,78582,1,0,0:0:0:40:BassS.wav
36,192,78582,1,0,0:0:0:40:cym.wav
475,192,78582,1,0,0:0:0:0:
402,192,78732,1,0,0:0:0:0:
109,192,78882,1,0,0:0:0:40:BassS.wav
402,192,79032,1,0,0:0:0:0:
109,192,79182,1,0,0:0:0:40:BassS.wav
402,192,79332,1,0,0:0:0:0:
109,192,79482,1,0,0:0:0:40:BassS.wav
402,192,79632,1,0,0:0:0:0:
182,192,79782,1,0,0:0:0:40:BassS.wav
36,192,79782,1,0,0:0:0:40:cym.wav
475,192,79782,1,0,0:0:0:0:
329,192,79932,1,0,0:0:0:0:
182,192,80082,1,0,0:0:0:40:BassS.wav
329,192,80232,1,0,0:0:0:0:
182,192,80382,1,0,0:0:0:40:BassS.wav
329,192,80532,1,0,0:0:0:0:
182,192,80682,1,0,0:0:0:40:BassS.wav
329,192,80832,1,0,0:0:0:0:
182,192,80982,1,0,0:0:0:40:cym.wav
109,192,80982,1,0,0:0:0:0:
402,192,80982,1,0,0:0:0:0:
475,192,81132,1,0,0:0:0:0:
36,192,81282,1,0,0:0:0:40:BassS.wav
475,192,81432,1,0,0:0:0:0:
36,192,81582,1,0,0:0:0:40:BassS.wav
475,192,81732,1,0,0:0:0:0:
36,192,81882,1,0,0:0:0:40:BassS.wav
475,192,82032,1,0,0:0:0:0:
256,192,82182,1,0,0:0:0:40:cym.wav
402,192,82182,1,0,0:0:0:0:
109,192,82182,1,0,0:0:0:0:
329,192,82332,1,0,0:0:0:0:
182,192,82482,1,0,0:0:0:0:
329,192,82632,1,0,0:0:0:0:
182,192,82782,1,0,0:0:0:0:
329,192,82932,1,0,0:0:0:0:
182,192,83082,1,0,0:0:0:0:
329,192,83232,1,0,0:0:0:0:
256,192,83382,1,0,0:0:0:30:cym.wav
36,192,83382,1,0,0:0:0:0:
475,192,83382,1,0,0:0:0:0:
182,192,83532,1,0,0:0:0:0:
402,192,83682,1,0,0:0:0:0:
109,192,83832,1,0,0:0:0:0:
329,192,83982,1,0,0:0:0:0:
182,192,84132,1,0,0:0:0:0:
109,192,84282,1,0,0:0:0:0:
36,192,84432,1,0,0:0:0:0:
475,192,85782,1,0,0:0:0:0:
182,192,85932,1,0,0:0:0:0:
402,192,86082,1,0,0:0:0:0:
109,192,86232,1,0,0:0:0:0:
329,192,86382,1,0,0:0:0:0:
182,192,86532,1,0,0:0:0:0:
109,192,86682,1,0,0:0:0:0:
475,192,86832,1,0,0:0:0:0:
36,192,87582,1,0,0:0:0:0:
475,192,87582,1,0,0:0:0:0:
109,192,87657,1,0,0:0:0:0:
182,192,87732,1,0,0:0:0:0:
475,192,87732,1,0,0:0:0:0:
402,192,87807,1,0,0:0:0:0:
329,192,87882,1,0,0:0:0:0:
182,192,87882,1,0,0:0:0:0:
256,192,88032,1,0,0:0:0:40:cym.wav
36,192,88032,1,0,0:0:0:0:
475,192,88032,1,0,0:0:0:0:
182,192,88332,1,0,0:0:0:0:
256,192,88407,1,0,0:0:0:0:
329,192,88482,1,0,0:0:0:40:BassS.wav
402,192,88482,1,0,0:0:0:0:
109,192,88632,1,0,0:0:0:0:
182,192,88782,1,0,0:0:0:40:BassS.wav
329,192,88782,1,0,0:0:0:0:
475,192,88932,1,0,0:0:0:0:
36,192,88932,1,0,0:0:0:0:
402,192,89007,1,0,0:0:0:0:
329,192,89082,1,0,0:0:0:40:BassS.wav
109,192,89082,1,0,0:0:0:0:
256,192,89157,1,0,0:0:0:0:
182,192,89232,1,0,0:0:0:40:cym.wav
475,192,89232,1,0,0:0:0:0:
36,192,89232,1,0,0:0:0:0:
182,192,89532,1,0,0:0:0:40:BassS.wav
256,192,89607,1,0,0:0:0:0:
109,192,89682,1,0,0:0:0:40:BassS.wav
329,192,89682,1,0,0:0:0:0:
402,192,89757,1,0,0:0:0:0:
182,192,89832,1,0,0:0:0:40:cym1.wav
36,192,89832,1,0,0:0:0:0:
475,192,89832,1,0,0:0:0:0:
475,192,90132,1,0,0:0:0:40:BassS.wav
402,192,90207,1,0,0:0:0:0:
329,192,90282,1,0,0:0:0:40:BassS.wav
36,192,90282,1,0,0:0:0:0:
109,192,90357,1,0,0:0:0:0:
475,192,90432,1,0,0:0:0:40:cym.wav
256,192,90432,128,0,91182:0:0:0:0:
182,192,90432,1,0,0:0:0:0:
36,192,91032,1,0,0:0:0:0:
329,192,91107,1,0,0:0:0:0:
109,192,91182,1,0,0:0:0:0:
402,192,91257,1,0,0:0:0:0:
182,192,91332,1,0,0:0:0:0:
475,192,91407,1,0,0:0:0:0:
329,192,91482,1,0,0:0:0:0:
182,192,91557,1,0,0:0:0:0:
36,192,91632,128,0,92682:0:0:0:40:cym.wav
109,192,91632,1,0,0:0:0:0:
402,192,91632,1,0,0:0:0:0:
475,192,91632,128,0,92682:0:0:0:0:
256,192,92982,1,0,0:0:0:40:cym.wav
402,192,92982,1,0,0:0:0:0:
109,192,92982,1,0,0:0:0:0:
329,192,93432,1,0,0:0:0:40:cym.wav
182,192,93432,1,0,0:0:0:0:
36,192,93432,1,0,0:0:0:0:
256,192,93882,1,0,0:0:0:40:cym.wav
109,192,93882,1,0,0:0:0:0:
402,192,93882,1,0,0:0:0:0:
182,192,94332,1,0,0:0:0:40:cym.wav
329,192,94332,1,0,0:0:0:0:
475,192,94332,1,0,0:0:0:0:
402,192,94782,1,0,0:0:0:40:cym.wav
256,192,94782,1,0,0:0:0:0:
109,192,94782,1,0,0:0:0:0:
