osu file format v14

[General]
AudioFilename: audio.mp3
AudioLeadIn: 0
PreviewTime: 80913
Countdown: 0
SampleSet: Soft
StackLeniency: 0.5
Mode: 0
LetterboxInBreaks: 0
WidescreenStoryboard: 1

[Editor]
Bookmarks: 13936,25099,36262,47425,58587,69750,80913,92076,103239,114401,125564
DistanceSpacing: 1
BeatDivisor: 4
GridSize: 32
TimelineZoom: 1.6

[Metadata]
Title:Someone To Love You (Koven Remix) (Cut Ver.)
TitleUnicode:Someone To Love You (Koven Remix) (Cut Ver.)
Artist:Tritonal & Brooke Williams
ArtistUnicode:Tritonal & Brooke Williams
Creator:Zer0-
Version:Nowa's Insane
Source:
Tags:edm dnb drum n bass electronic english female vocals dtm9 nowa
BeatmapID:2981606
BeatmapSetID:1437749

[Difficulty]
HPDrainRate:5
CircleSize:4
OverallDifficulty:7.8
ApproachRate:9
SliderMultiplier:1.5
SliderTickRate:1

[Events]
//Background and Video events
0,0,"li-miao-0409.jpg",0,0
//Break Periods
//Storyboard Layer 0 (Background)
//Storyboard Layer 1 (Fail)
//Storyboard Layer 2 (Pass)
//Storyboard Layer 3 (Foreground)
//Storyboard Layer 4 (Overlay)
//Storyboard Sound Samples

[TimingPoints]
2774,348.837209302326,4,2,0,100,1,0
13587,-200,4,2,1,40,0,0
25099,-166.666666666667,4,2,1,50,0,0
36262,-285.714285714286,4,2,1,40,0,0
39750,-250.000000000001,4,2,1,40,0,0
45332,-200.000000000001,4,2,1,40,0,0
47425,-166.666666666667,4,2,1,60,0,0
58587,-125,4,2,1,65,0,0
66611,-101.626016260163,4,2,1,65,0,0
66960,-125,4,2,1,65,0,0
69750,-100,4,2,1,70,0,0
79518,-333.333333333333,4,2,1,70,0,0
80913,-90.9090909090909,4,2,1,80,0,1
103239,-90.9090909090909,4,2,1,70,0,0
113878,-133.333333333333,4,2,1,70,0,0
114401,-90.9090909090909,4,2,1,70,0,0
124169,-90.9090909090909,4,2,1,60,0,0

[Colours]
Combo1 : 217,153,219
Combo2 : 227,212,205
Combo3 : 146,177,196
Combo4 : 206,90,79

[HitObjects]
98,273,13587,6,0,P|84:301|80:322,1,37.5
152,362,13936,6,0,B|172:326|166:283|124:247|124:247|72:204|30:155|66:97|118:88|118:88|80:137|98:200,1,450,2|0,0:0|0:0,0:0:0:0:
228,250,16727,6,0,B|291:259|361:224|364:102|276:49|163:102|181:189|181:189|214:164|254:177,1,450,2|0,0:0|0:0,0:0:0:0:
342,309,19518,6,0,B|399:277|426:207|416:124|416:124|447:160|440:214,1,300,2|2,0:0|0:0,0:0:0:0:
342,309,21611,1,0,0:0:0:0:
216,236,22308,6,0,B|144:205|81:238|51:297|51:297|97:256|150:255,1,300,2|2,0:0|0:0,0:0:0:0:
137,360,24925,5,2,0:0:0:0:
137,360,25099,2,0,P|95:347|71:314,1,67.4999979400635,6|2,1:2|0:0,0:0:0:0:
16,242,25622,2,0,P|61:231|96:187,1,89.9999972534181,2|0,0:0|0:0,0:0:0:0:
14,155,26146,5,2,0:0:0:0:
14,155,26320,1,2,0:0:0:0:
90,200,26494,2,0,P|104:170|105:133,1,67.4999979400635,2|2,0:0|0:0,0:0:0:0:
40,29,27018,1,2,0:0:0:0:
191,113,27541,1,2,0:0:0:0:
191,113,27715,1,2,0:0:0:0:
256,47,27890,6,0,P|273:69|286:125,1,67.4999979400635,2|2,0:0|0:0,0:0:0:0:
406,179,28413,2,0,P|377:216|361:270,1,89.9999972534181,2|0,0:0|0:0,0:0:0:0:
445,289,28936,1,2,0:0:0:0:
445,289,29111,1,2,0:0:0:0:
364,257,29285,6,0,P|360:301|382:335,1,67.4999979400635,2|2,0:0|0:0,0:0:0:0:
248,372,29808,2,0,P|207:325|198:279,1,89.9999972534181,2|0,0:0|0:0,0:0:0:0:
257,209,30332,1,2,0:0:0:0:
285,291,30506,1,2,0:0:0:0:
170,220,30680,1,0,1:2:0:0:
321,79,31029,5,2,0:0:0:0:
321,79,31204,1,2,0:0:0:0:
257,31,31378,2,0,P|246:50|240:78,1,44.999998626709,2|0,0:0|0:0,0:0:0:0:
162,81,31727,2,0,P|167:102|178:122,1,44.999998626709,2|0,0:0|0:0,0:0:0:0:
259,198,32076,2,0,P|278:222|289:269,2,67.4999979400635,2|2|2,0:0|0:0|0:0,0:0:0:0:
113,260,33122,5,2,0:0:0:0:
113,260,33296,1,2,0:0:0:0:
203,263,33471,2,0,P|193:295|173:321,2,67.4999979400635,2|2|2,0:0|0:0|0:0,0:0:0:0:
25,262,34518,5,2,0:0:0:0:
25,262,34692,1,2,0:0:0:0:
83,201,34867,2,0,P|103:227|112:259,2,67.4999979400635,2|2|2,0:0|0:0|0:0,0:0:0:0:
39,338,35913,6,0,P|77:344|110:367,1,59.9999981689454,2|2,0:0|0:0,0:0:0:0:
95,354,36960,6,0,B|52:309|64:271|64:271|100:279|132:258|132:258|149:305|183:342|253:331,1,315,2|0,0:0|0:0,0:0:0:0:
248,208,39750,6,0,P|234:223|220:251,1,45,2|2,0:0|0:0,0:0:0:0:
337,337,40274,5,2,0:0:0:0:
337,337,40448,2,0,P|331:317|313:291,1,45,2|2,0:0|0:0,0:0:0:0:
180,349,40971,5,2,0:0:0:0:
180,349,41146,2,0,P|199:353|231:351,2,45,2|2|0,0:0|0:0|0:0,0:0:0:0:
180,349,42541,6,0,B|210:332|224:279|224:279|149:273|112:208|154:145|154:145|145:189|178:194|171:237,1,360,2|0,0:0|0:0,0:0:0:0:
292,143,45332,6,0,L|235:155,1,56.25,2|2,0:0|0:0,0:0:0:0:
373,196,45855,5,2,0:0:0:0:
373,196,46029,2,0,L|391:140,1,56.25,2|2,0:0|0:0,0:0:0:0:
286,240,46553,5,2,0:0:0:0:
286,240,46727,2,0,L|324:283,1,56.25,2|2,0:0|0:0,0:0:0:0:
436,384,47250,5,0,1:2:0:0:
465,313,47425,6,0,B|412:298|378:333|378:333|343:366|288:349,1,179.999994506836,6|0,1:2|0:0,0:0:0:0:
223,323,48297,2,0,P|214:302|212:280,1,44.999998626709,2|0,0:0|0:0,0:0:0:0:
298,351,48646,2,0,P|283:246|217:142,1,224.999993133545,2|0,0:0|0:0,0:0:0:0:
34,109,49867,5,0,1:2:0:0:
34,109,50041,1,0,1:2:0:0:
92,169,50215,2,0,P|115:127|118:100,1,67.4999979400635,2|0,1:2|0:0,0:0:0:0:
219,44,50739,6,0,P|215:21|203:2,1,44.999998626709,2|0,0:0|0:0,0:0:0:0:
98,23,51087,2,0,P|102:67|129:102,1,89.9999972534181,2|0,0:0|0:0,0:0:0:0:
177,210,51611,2,0,P|243:150|329:124,1,179.999994506836,2|0,1:2|1:2,0:0:0:0:
455,183,52657,1,0,1:2:0:0:
455,183,52832,1,0,1:2:0:0:
369,211,53006,6,0,P|339:260|324:307,1,89.9999972534181,6|0,1:2|0:0,0:0:0:0:
433,344,53529,1,0,1:2:0:0:
433,344,53704,2,0,P|463:295|478:248,1,89.9999972534181,2|2,0:0|0:0,0:0:0:0:
369,211,54227,6,0,P|337:281|194:341,1,224.999993133545,2|0,0:0|0:0,0:0:0:0:
45,287,55448,1,0,1:2:0:0:
45,287,55622,1,0,1:2:0:0:
132,350,55797,6,0,L|126:293,1,44.999998626709,2|0,1:2|1:2,0:0:0:0:
45,287,56146,2,0,L|39:230,1,44.999998626709,0|0,1:2|1:2,0:0:0:0:
186,219,56494,6,0,L|180:162,1,44.999998626709,2|0,1:2|1:2,0:0:0:0:
99,156,56843,2,0,L|93:99,1,44.999998626709,0|0,1:2|1:2,0:0:0:0:
194,24,57192,5,2,0:0:0:0:
194,24,58587,6,0,P|223:52|228:79,1,60,6|0,1:2|0:0,0:0:0:0:
160,121,58936,2,0,P|131:93|126:66,1,60,8|0,0:1|0:0,0:0:0:0:
250,147,59285,6,0,P|250:187|235:209,1,60,2|0,0:0|0:0,0:0:0:0:
157,192,59634,2,0,P|156:151|171:129,1,60,8|0,0:1|0:0,0:0:0:0:
209,323,59983,5,2,0:0:0:0:
132,314,60157,1,0,0:0:0:0:
110,239,60332,2,0,P|138:210|165:205,1,60,8|0,0:1|0:0,0:0:0:0:
49,368,60680,5,2,0:0:0:0:
0,307,60854,1,0,0:0:0:0:
38,238,61029,2,0,P|78:237|100:252,1,60,8|0,0:1|0:0,0:0:0:0:
203,328,61378,6,0,P|230:340|259:336,1,60,2|0,0:0|0:0,0:0:0:0:
269,259,61727,2,0,P|241:246|212:250,1,60,8|0,0:1|0:0,0:0:0:0:
345,300,62076,6,0,P|369:282|380:255,1,60,2|0,0:0|0:0,0:0:0:0:
317,207,62425,2,0,P|292:224|281:251,1,60,8|2,0:1|0:0,0:0:0:0:
398,112,62774,5,2,0:0:0:0:
334,75,62948,1,0,0:0:0:0:
296,139,63122,2,0,P|299:168|316:192,1,60,8|2,0:1|0:0,0:0:0:0:
254,22,63472,5,2,0:0:0:0:
189,58,63646,1,0,0:0:0:0:
226,123,63820,2,0,P|253:135|282:131,1,60,8|0,0:1|0:0,0:0:0:0:
391,43,64169,6,0,L|457:30,1,60,2|0,0:0|0:0,0:0:0:0:
464,108,64518,2,0,L|405:119,1,60,8|0,0:1|0:0,0:0:0:0:
277,154,64867,6,0,L|218:142,1,60,2|0,0:0|0:0,0:0:0:0:
204,219,65216,2,0,L|262:230,1,60,8|0,0:1|0:0,0:0:0:0:
389,199,65564,6,0,L|455:186,1,60,2|0,0:0|0:0,0:0:0:0:
462,264,65913,2,0,L|403:275,1,60,8|0,0:1|0:0,0:0:0:0:
285,309,66262,5,2,0:0:0:0:
213,295,66436,1,0,0:0:0:0:
197,367,66611,2,0,L|281:385,1,73.8000011260987,8|0,0:1|0:0,0:0:0:0:
403,327,66960,6,0,P|401:288|389:261,1,60,2|0,0:0|0:0,0:0:0:0:
447,187,67308,2,0,P|425:154|401:136,1,60,8|0,0:1|0:0,0:0:0:0:
173,126,67657,6,0,P|207:143|237:146,1,60,2|0,0:0|0:0,0:0:0:0:
272,234,68005,2,0,P|311:231|338:220,1,60,8|2,0:1|0:0,0:0:0:0:
462,28,68356,6,0,P|429:49|411:73,1,60,2|0,0:0|0:0,0:0:0:0:
319,59,68704,2,0,P|301:93|298:123,1,60,8|2,0:1|0:0,0:0:0:0:
336,226,69053,5,2,0:0:0:0:
405,140,69227,1,0,0:0:0:0:
407,248,69401,1,8,0:1:0:0:
394,139,69575,1,0,0:0:0:0:
330,224,69750,6,0,P|325:258|344:308,1,75,6|0,1:2|0:0,0:0:0:0:
310,384,70099,2,0,P|277:367|255:338,1,75,2|0,1:2|0:0,0:0:0:0:
194,216,70448,5,2,1:2:0:0:
275,159,70622,1,0,0:0:0:0:
349,224,70797,2,0,P|350:261|336:295,1,75,2|0,1:2|0:0,0:0:0:0:
171,318,71146,6,0,L|92:297,1,75,2|0,1:2|0:0,0:0:0:0:
122,205,71494,2,0,L|201:226,1,75,2|0,1:2|0:0,0:0:0:0:
335,295,71843,5,2,1:2:0:0:
417,198,72018,1,0,0:0:0:0:
444,344,72192,2,0,P|457:308|456:269,1,75,2|0,1:2|0:0,0:0:0:0:
331,168,72541,6,0,P|318:132|329:90,1,75,2|0,1:2|0:0,0:0:0:0:
440,11,72890,1,2,1:2:0:0:
393,128,73064,1,0,0:0:0:0:
276,35,73239,6,0,P|309:16|352:20,1,75,2|0,1:2|0:0,0:0:0:0:
163,149,73587,2,0,P|196:167|239:163,1,75,2|0,1:2|0:0,0:0:0:0:
56,24,73936,6,0,P|89:5|132:9,1,75,2|0,1:2|0:0,0:0:0:0:
211,93,74285,1,2,1:2:0:0:
106,81,74460,1,0,0:0:0:0:
270,45,74634,2,0,P|239:21|196:18,1,75,2|0,1:2|0:0,0:0:0:0:
163,149,74983,2,0,P|196:167|239:163,1,75,2|0,1:2|0:0,0:0:0:0:
395,121,75332,5,0,1:2:0:0:
402,216,75506,1,0,1:2:0:0:
510,150,75680,2,0,P|496:191|475:230,1,75,0|0,1:2|1:2,0:0:0:0:
292,117,76029,5,0,1:2:0:0:
330,253,76203,1,0,1:2:0:0:
408,132,76378,2,0,P|412:175|409:219,1,75,0|0,1:2|1:2,0:0:0:0:
148,161,76727,5,0,1:2:0:0:
245,279,76901,1,0,1:2:0:0:
213,121,77076,1,0,1:2:0:0:
240,287,77250,1,0,1:2:0:0:
29,250,77425,5,0,1:2:0:0:
183,345,77599,1,0,1:2:0:0:
81,195,77774,1,0,1:2:0:0:
181,354,77948,1,0,1:2:0:0:
4,363,78122,6,0,L|16:310,3,37.5,2|0|0|0,1:2|1:2|1:2|1:2,0:0:0:0:
100,308,78471,2,0,L|112:255,3,37.5,0|0|0|0,1:2|1:2|1:2|1:2,0:0:0:0:
180,233,78820,5,2,1:2:0:0:
196,222,78907,1,0,1:2:0:0:
213,211,78994,1,0,1:2:0:0:
230,202,79081,1,0,1:2:0:0:
248,194,79168,1,0,1:2:0:0:
266,188,79256,1,0,1:2:0:0:
285,182,79343,1,0,1:2:0:0:
305,178,79430,1,0,1:2:0:0:
325,175,79518,6,0,P|368:202|301:249,1,157.499995193482,0|0,1:2|0:0,0:0:0:0:
205,138,80913,6,0,P|218:92|264:60,1,82.5000025177003,4|0,1:2|0:0,0:0:0:0:
307,253,81262,2,0,P|257:181|184:145,1,165.000005035401,8|2,0:0|0:0,0:0:0:0:
73,218,81785,1,0,1:2:0:0:
6,84,81960,1,8,0:0:0:0:
72,230,82134,1,2,0:0:0:0:
147,72,82308,6,0,P|107:107|99:150,1,82.5000025177003,0|0,1:2|0:0,0:0:0:0:
218,310,82657,2,0,P|212:228|186:151,1,165.000005035401,8|0,0:0|0:0,0:0:0:0:
70,24,83180,1,0,1:2:0:0:
180,153,83355,2,0,P|148:160|102:142,1,82.5000025177003,8|0,0:0|0:0,0:0:0:0:
204,0,83704,6,0,P|226:24|233:73,1,82.5000025177003,0|0,1:2|0:0,0:0:0:0:
54,206,84053,2,0,P|31:181|24:132,1,82.5000025177003,8|0,0:0|0:0,0:0:0:0:
213,230,84401,6,0,L|194:323,1,82.5000025177003,2|0,0:0|1:2,0:0:0:0:
179,380,84663,1,2,0:0:0:0:
183,384,84750,1,8,0:0:0:0:
130,255,84925,1,2,0:0:0:0:
307,198,85099,6,0,L|288:291,1,82.5000025177003,2|0,1:2|0:0,0:0:0:0:
273,347,85361,1,2,0:0:0:0:
277,351,85448,1,8,0:0:0:0:
224,223,85623,1,2,0:0:0:0:
361,350,85797,5,2,0:0:0:0:
409,211,85971,1,0,1:2:0:0:
409,211,86058,1,2,1:2:0:0:
409,211,86146,2,0,P|400:157|371:118,1,82.5000025177003,8|0,0:0|0:0,0:0:0:0:
177,92,86494,6,0,P|182:51|203:16,1,82.5000025177003,2|0,1:2|0:0,0:0:0:0:
213,233,86843,2,0,P|259:165|265:83,1,165.000005035401,10|2,0:0|3:2,0:0:0:0:
172,101,87367,1,0,1:2:0:0:
331,185,87541,1,8,0:0:0:0:
171,111,87715,1,2,0:0:0:0:
144,280,87890,6,0,P|127:236|145:188,1,82.5000025177003,0|0,1:2|0:0,0:0:0:0:
288,341,88239,2,0,P|225:300|112:291,1,165.000005035401,8|0,0:0|0:0,0:0:0:0:
49,360,88762,1,0,1:2:0:0:
134,202,88936,1,10,0:0:0:0:
174,373,89111,1,0,0:0:0:0:
43,262,89285,6,0,P|23:213|27:160,1,82.5000025177003,0|0,1:2|0:0,0:0:0:0:
215,136,89634,2,0,P|235:185|231:238,1,82.5000025177003,8|0,0:0|3:0,0:0:0:0:
202,279,89896,1,0,3:0:0:0:
202,279,89983,1,2,0:0:0:0:
313,196,90157,1,0,1:2:0:0:
319,349,90332,6,0,P|339:300|335:247,1,82.5000025177003,8|2,0:0|0:0,0:0:0:0:
313,196,90594,1,0,0:0:0:0:
313,196,90681,1,2,1:2:0:0:
413,299,90855,1,0,0:0:0:0:
443,111,91029,6,0,P|463:160|459:213,1,82.5000025177003,8|2,0:0|0:0,0:0:0:0:
413,299,91378,1,2,0:0:0:0:
382,173,91553,1,0,1:2:0:0:
500,326,91727,1,10,0:0:0:0:
469,200,91902,1,0,1:2:0:0:
324,354,92076,5,4,1:2:0:0:
24,307,92425,2,0,P|63:295|127:295,1,82.5000025177003,10|2,0:0|0:0,0:0:0:0:
224,308,92774,1,2,0:0:0:0:
78,372,92948,1,0,1:2:0:0:
173,230,93122,2,0,P|191:185|186:140,1,82.5000025177003,10|0,0:0|0:0,0:0:0:0:
66,117,93471,6,0,P|40:179|47:242,1,123.75000377655,2|2,0:0|0:0,0:0:0:0:
104,285,93820,2,0,P|126:256|199:243,2,82.5000025177003,8|2|0,0:0|0:0|0:0,0:0:0:0:
190,353,94343,1,0,1:2:0:0:
257,200,94518,1,10,0:0:0:0:
186,362,94692,1,2,0:0:0:0:
304,271,94867,6,0,P|359:248|453:240,1,123.75000377655,2|2,1:2|0:0,0:0:0:0:
484,299,95215,2,0,P|478:337|452:384,2,82.5000025177003,8|2|0,0:0|0:0|0:0,0:0:0:0:
385,165,95739,1,0,1:2:0:0:
405,317,95913,1,10,0:0:0:0:
509,208,96087,1,2,0:0:0:0:
304,257,96262,6,0,L|160:239,1,123.75000377655,2|2,1:2|0:0,0:0:0:0:
92,211,96611,2,0,L|113:315,2,82.5000025177003,8|2|0,0:0|0:0|0:0,0:0:0:0:
1,331,97134,1,0,1:2:0:0:
20,170,97308,1,10,0:0:0:0:
100,301,97483,1,2,0:0:0:0:
101,207,97657,6,0,P|134:211|172:240,1,82.5000025177003,0|0,1:2|0:0,0:0:0:0:
282,368,98006,2,0,P|258:303|250:195,1,165.000005035401,8|2,0:0|0:0,0:0:0:0:
349,102,98529,1,0,1:2:0:0:
326,255,98704,1,8,0:0:0:0:
351,94,98878,1,2,0:0:0:0:
249,208,99053,6,0,P|275:181|320:166,1,82.5000025177003,0|0,1:2|0:0,0:0:0:0:
395,295,99401,2,0,P|325:243|240:215,1,165.000005035401,8|0,0:0|0:0,0:0:0:0:
78,277,99925,1,0,1:2:0:0:
178,166,100099,2,0,P|139:179|105:202,1,82.5000025177003,10|0,0:0|0:0,0:0:0:0:
9,322,100448,5,0,1:2:0:0:
109,207,100797,1,0,1:2:0:0:
252,157,101146,1,0,1:2:0:0:
400,185,101494,1,0,1:2:0:0:
263,293,101843,5,0,1:2:0:0:
308,213,102018,1,0,1:2:0:0:
314,357,102192,1,0,1:2:0:0:
252,157,102367,1,0,1:2:0:0:
390,338,102541,5,0,1:2:0:0:
392,317,102628,1,0,1:2:0:0:
395,297,102715,1,0,1:2:0:0:
398,276,102802,1,0,1:2:0:0:
401,256,102889,1,0,1:2:0:0:
404,235,102977,1,0,1:2:0:0:
407,215,103064,1,0,1:2:0:0:
410,195,103151,1,0,1:2:0:0:
413,174,103239,6,0,L|428:75,1,82.5000025177003,6|2,1:2|0:0,0:0:0:0:
324,220,103587,1,10,0:0:0:0:
285,55,103762,1,2,0:0:0:0:
222,231,103936,6,0,L|237:132,1,82.5000025177003,2|2,0:0|1:2,0:0:0:0:
139,285,104284,1,10,0:0:0:0:
94,112,104459,1,2,0:0:0:0:
222,231,104634,5,2,1:2:0:0:
56,204,104809,1,2,0:0:0:0:
234,149,104983,1,10,0:0:0:0:
61,215,105158,1,2,0:0:0:0:
297,311,105332,5,2,0:0:0:0:
142,304,105507,1,2,1:2:0:0:
309,228,105681,1,10,0:0:0:0:
134,293,105856,1,2,0:0:0:0:
354,377,106029,6,0,P|384:331|383:278,1,82.5000025177003,2|0,0:0|0:0,0:0:0:0:
236,163,106378,1,10,0:0:0:0:
300,305,106553,1,2,0:0:0:0:
398,166,106727,1,2,0:0:0:0:
236,253,106901,5,0,1:2:0:0:
236,253,106989,1,2,0:0:0:0:
236,253,107076,2,0,P|179:263|136:261,1,82.5000025177003,8|2,0:0|0:0,0:0:0:0:
37,198,107425,1,2,1:2:0:0:
115,340,107599,5,0,0:0:0:0:
115,340,107687,1,2,0:0:0:0:
115,340,107774,2,0,P|77:295|58:257,1,82.5000025177003,8|2,0:0|0:0,0:0:0:0:
247,123,108122,1,2,0:0:0:0:
152,256,108297,1,0,1:2:0:0:
33,100,108471,1,10,0:0:0:0:
197,187,108820,6,0,P|226:161|252:110,1,82.5000025177003,2|2,1:2|0:0,0:0:0:0:
127,0,109168,1,10,0:0:0:0:
148,103,109343,1,2,0:0:0:0:
313,44,109518,6,0,P|276:30|218:34,1,82.5000025177003,2|2,0:0|1:2,0:0:0:0:
191,195,109866,1,10,0:0:0:0:
256,124,110041,1,2,0:0:0:0:
98,203,110215,5,2,1:2:0:0:
228,335,110390,1,2,0:0:0:0:
185,202,110564,1,10,0:0:0:0:
156,375,110739,1,2,0:0:0:0:
258,136,110913,5,2,0:0:0:0:
388,268,111088,1,2,1:2:0:0:
345,135,111262,1,10,0:0:0:0:
316,308,111437,1,2,0:0:0:0:
252,141,111610,6,0,P|258:100|268:60,1,82.5000025177003,2|0,1:2|0:0,0:0:0:0:
411,1,111959,1,10,0:0:0:0:
443,69,112134,1,2,0:0:0:0:
313,1,112308,1,2,0:0:0:0:
261,149,112482,5,0,1:2:0:0:
261,149,112570,1,2,0:0:0:0:
261,149,112657,2,0,L|245:245,1,82.5000025177003,8|2,0:0|0:0,0:0:0:0:
229,378,113006,1,2,1:2:0:0:
47,201,113355,5,8,0:0:0:0:
76,342,113529,1,2,1:2:0:0:
44,187,113704,1,2,1:2:0:0:
140,292,113878,6,0,L|151:225,2,56.2500021457673,2|2|2,0:0|0:0|0:0,0:0:0:0:
352,365,114401,6,0,L|368:273,1,82.5000025177003,4|0,1:2|0:0,0:0:0:0:
464,184,114750,1,10,0:0:0:0:
437,332,114924,1,2,0:0:0:0:
298,232,115099,6,0,L|314:140,1,82.5000025177003,2|0,0:0|1:2,0:0:0:0:
409,40,115448,1,10,0:0:0:0:
384,188,115622,1,2,0:0:0:0:
235,107,115796,5,2,1:2:0:0:
409,40,115971,1,2,0:0:0:0:
312,150,116145,1,10,0:0:0:0:
475,92,116320,1,2,0:0:0:0:
235,193,116494,5,2,0:0:0:0:
409,260,116669,1,2,1:2:0:0:
312,150,116843,1,10,0:0:0:0:
475,208,117018,1,2,0:0:0:0:
331,335,117193,6,0,P|301:289|302:236,1,82.5000025177003,2|0,1:2|0:0,0:0:0:0:
442,136,117540,1,10,0:0:0:0:
405,267,117715,1,2,0:0:0:0:
312,150,117889,1,2,0:0:0:0:
196,283,118063,5,0,1:2:0:0:
196,283,118151,1,2,0:0:0:0:
196,283,118238,2,0,L|224:190,1,82.5000025177003,8|2,0:0|0:0,0:0:0:0:
281,24,118587,1,2,1:2:0:0:
164,0,118762,5,0,0:0:0:0:
164,0,118850,1,2,0:0:0:0:
164,0,118937,2,0,L|192:93,1,82.5000025177003,8|2,0:0|0:0,0:0:0:0:
53,188,119284,1,2,0:0:0:0:
82,103,119459,1,0,1:2:0:0:
281,164,119633,1,10,0:0:0:0:
104,250,119983,6,0,L|86:342,1,82.5000025177003,2|2,1:2|0:0,0:0:0:0:
223,214,120332,1,10,0:0:0:0:
191,384,120505,1,2,0:0:0:0:
293,167,120680,6,0,L|311:259,1,82.5000025177003,2|2,0:0|1:2,0:0:0:0:
145,134,121029,1,10,0:0:0:0:
177,304,121204,1,2,0:0:0:0:
304,164,121378,5,2,1:2:0:0:
136,122,121553,1,2,0:0:0:0:
278,91,121727,1,10,0:0:0:0:
191,68,121901,1,2,0:0:0:0:
304,164,122076,5,2,0:0:0:0:
397,41,122250,1,2,1:2:0:0:
278,91,122425,1,10,0:0:0:0:
464,251,122774,6,0,P|478:298|484:343,1,82.5000025177003,0|0,1:2|0:0,0:0:0:0:
291,377,123122,2,0,P|277:330|271:285,1,82.5000025177003,8|0,0:0|0:0,0:0:0:0:
405,181,123471,5,0,0:0:0:0:
368,317,123646,1,2,1:2:0:0:
325,152,123820,1,10,0:0:0:0:
279,294,123994,1,2,1:2:0:0:
412,178,124169,1,2,1:2:0:0:
256,192,124256,12,4,125564,0:0:0:0:
