osu file format v14

[General]
AudioFilename: audio.mp3
AudioLeadIn: 0
PreviewTime: 80913
Countdown: 0
SampleSet: Soft
StackLeniency: 0.5
Mode: 0
LetterboxInBreaks: 0
WidescreenStoryboard: 1

[Editor]
Bookmarks: 13936,25099,36262,47425,58587,69750,80913,92076,103239,114401,125564
DistanceSpacing: 1
BeatDivisor: 4
GridSize: 32
TimelineZoom: 1.6

[Metadata]
Title:Someone To Love You (Koven Remix) (Cut Ver.)
TitleUnicode:Someone To Love You (Koven Remix) (Cut Ver.)
Artist:Tritonal & Brooke Williams
ArtistUnicode:Tritonal & Brooke Williams
Creator:Zer0-
Version:Normal
Source:
Tags:edm dnb drum n bass electronic english female vocals dtm9 nowa
BeatmapID:2958980
BeatmapSetID:1437749

[Difficulty]
HPDrainRate:3
CircleSize:3
OverallDifficulty:4
ApproachRate:5
SliderMultiplier:1
SliderTickRate:1

[Events]
//Background and Video events
0,0,"li-miao-0409.jpg",0,0
//Break Periods
2,36461,41341
//Storyboard Layer 0 (Background)
//Storyboard Layer 1 (Fail)
//Storyboard Layer 2 (Pass)
//Storyboard Layer 3 (Foreground)
//Storyboard Layer 4 (Overlay)
//Storyboard Sound Samples

[TimingPoints]
2774,348.837209302326,4,2,0,100,1,0
13587,-111.111111111111,4,2,1,40,0,0
16727,-111.111111111111,4,2,1,40,0,0
19518,-111.111111111111,4,2,1,40,0,0
25099,-100,4,2,1,50,0,0
36262,-100,4,2,1,40,0,0
47425,-100,4,2,1,60,0,0
58587,-100,4,2,1,65,0,0
69750,-100,4,2,1,70,0,0
80913,-100,4,2,1,80,0,1
103239,-100,4,2,1,70,0,0
124169,-100,4,2,1,60,0,0

[Colours]
Combo1 : 217,153,219
Combo2 : 227,212,205
Combo3 : 146,177,196
Combo4 : 206,90,79

[HitObjects]
332,144,13936,6,0,B|324:68|402:44|402:44|466:99|414:178,2,269.999991760254,2|2|0,0:0|0:0|0:0,0:0:0:0:
466,291,16727,6,0,B|300:190|300:388|116:298|63:228|80:134|227:93|232:207,1,539.999983520508,2|0,0:0|0:0,0:0:0:0:
228,186,19518,6,0,P|255:47|332:165,2,359.999989013672,2|2|2,0:0|0:0|0:0,0:0:0:0:
65,311,24925,5,2,0:0:0:0:
65,311,25099,2,0,L|175:298,1,100,6|0,1:2|0:0,0:0:0:0:
213,310,25622,1,2,0:0:0:0:
330,217,26146,2,0,P|331:241|342:263,1,50,2|2,0:0|0:0,0:0:0:0:
383,292,26494,2,0,L|375:375,2,75,2|2|2,0:0|0:0|0:0,0:0:0:0:
443,154,27541,2,0,L|436:100,1,50,2|2,0:0|0:0,0:0:0:0:
439,54,27890,6,0,P|475:62|511:53,2,75,2|2|2,0:0|0:0|0:0,0:0:0:0:
293,17,28936,2,0,P|268:17|244:24,1,50,2|2,0:0|0:0,0:0:0:0:
221,69,29285,2,0,L|230:161,2,75,2|2|2,0:0|0:0|0:0,0:0:0:0:
86,2,30332,2,0,P|69:19|39:23,1,50,2|2,0:0|0:0,0:0:0:0:
15,64,30680,5,0,1:2:0:0:
26,163,31029,2,0,L|32:218,1,50,2|2,0:0|0:0,0:0:0:0:
39,262,31378,1,2,0:0:0:0:
127,308,31727,1,2,0:0:0:0:
214,258,32076,2,0,L|225:338,2,75,2|2|2,0:0|0:0|0:0,0:0:0:0:
314,146,33122,2,0,P|342:167|368:164,1,50,2|2,0:0|0:0,0:0:0:0:
403,151,33471,6,0,L|411:68,2,75,2|2|2,0:0|0:0|0:0,0:0:0:0:
386,300,34518,2,0,P|414:279|440:282,1,50,2|2,0:0|0:0,0:0:0:0:
475,295,34867,2,0,L|483:378,2,75,2|2|2,0:0|0:0|0:0,0:0:0:0:
495,146,35913,2,0,P|445:152|400:133,1,100,2|4,0:0|1:2,0:0:0:0:
189,44,42541,6,0,P|144:23|95:32,1,100,2|0,0:0|0:0,0:0:0:0:
56,63,43064,2,0,B|-7:138|109:245|124:169|219:123|301:306|179:366|91:346|90:268,1,450,2|0,0:0|0:0,0:0:0:0:
210,124,45332,6,0,P|204:87|214:51,2,75,2|2|2,0:0|0:0|0:0,0:0:0:0:
246,158,46029,2,0,P|238:198|260:244,2,75,2|2|2,0:0|0:0|0:0,0:0:0:0:
293,145,46727,2,0,P|330:139|363:156,1,75,2|2,0:0|0:0,0:0:0:0:
446,248,47425,6,0,P|376:262|342:328,1,150,6|0,1:2|0:0,0:0:0:0:
248,363,48297,1,2,0:0:0:0:
151,333,48646,2,0,B|94:316|43:354|43:354|-5:290|33:227,1,250,2|0,0:0|0:0,0:0:0:0:
100,154,49867,2,0,P|101:129|92:106,1,50,0|0,1:2|1:2,0:0:0:0:
68,62,50215,6,0,P|140:78|211:57,1,150,2|2,1:2|0:0,0:0:0:0:
296,5,51087,1,2,0:0:0:0:
435,60,51611,2,0,B|416:171|416:171|426:206|426:206|404:355,1,300,2|0,1:2|1:2,0:0:0:0:
307,328,53006,6,0,P|236:307|170:339,1,150,6|0,1:2|1:2,0:0:0:0:
112,258,53878,1,2,0:0:0:0:
149,164,54227,2,0,P|218:134|84:91,1,350,2|0,0:0|1:2,0:0:0:0:
51,177,55797,5,2,1:2:0:0:
91,268,56146,1,0,1:2:0:0:
189,278,56494,1,2,1:2:0:0:
246,198,56843,1,0,1:2:0:0:
343,207,57192,2,0,L|351:132,2,75,2|2|2,0:0|0:0|0:0,0:0:0:0:
370,249,57890,2,0,P|422:263|466:224,1,100,2|0,0:0|0:0,0:0:0:0:
502,149,58587,6,0,L|496:49,1,100,6|8,1:2|0:1,0:0:0:0:
401,18,59285,2,0,L|406:117,1,100,2|8,0:0|0:1,0:0:0:0:
322,172,59983,1,2,0:0:0:0:
236,120,60332,1,8,0:1:0:0:
155,178,60680,1,2,0:0:0:0:
168,277,61029,1,8,0:1:0:0:
259,316,61378,6,0,P|306:327|350:304,1,100,2|8,0:0|0:1,0:0:0:0:
412,225,62076,2,0,P|446:208|493:211,2,75,2|2|2,0:0|0:0|0:0,0:0:0:0:
367,201,62774,2,0,P|333:218|286:215,2,75,2|2|2,0:0|0:0|0:0,0:0:0:0:
369,151,63471,1,2,0:0:0:0:
310,70,63820,1,8,0:1:0:0:
390,10,64169,6,0,P|439:8|486:25,1,100,2|8,0:0|0:1,0:0:0:0:
508,123,64867,2,0,L|499:241,1,100,2|8,0:0|0:1,0:0:0:0:
490,322,65564,1,2,0:0:0:0:
398,361,65913,1,8,0:1:0:0:
318,300,66262,1,2,0:0:0:0:
323,200,66611,1,8,0:1:0:0:
241,142,66960,6,0,P|193:127|146:143,1,100,2|8,0:0|0:1,0:0:0:0:
52,175,67657,2,0,P|55:138|36:106,2,75,2|2|2,0:0|0:0|0:0,0:0:0:0:
54,225,68355,2,0,P|50:261|69:293,2,75,2|2|2,0:0|0:0|0:0,0:0:0:0:
100,205,69053,1,2,0:0:0:0:
185,256,69401,1,8,0:1:0:0:
274,210,69750,6,0,L|281:101,1,100,6|2,1:2|1:2,0:0:0:0:
353,41,70448,1,2,1:2:0:0:
438,92,70797,1,2,1:2:0:0:
418,190,71146,2,0,L|426:289,1,100,2|2,1:2|1:2,0:0:0:0:
357,362,71843,1,2,1:2:0:0:
270,312,72192,1,2,1:2:0:0:
189,370,72541,6,0,P|140:363|102:331,1,100,2|2,1:2|1:2,0:0:0:0:
20,274,73239,1,2,1:2:0:0:
62,183,73587,1,2,1:2:0:0:
7,99,73936,2,0,L|22:0,1,100,2|2,1:2|1:2,0:0:0:0:
120,18,74634,2,0,L|105:117,1,100,2|2,1:2|1:2,0:0:0:0:
174,189,75332,6,0,P|196:177|220:172,1,50,0|0,1:2|1:2,0:0:0:0:
270,178,75680,1,0,1:2:0:0:
345,111,76029,2,0,P|367:122|391:127,1,50,0|0,1:2|1:2,0:0:0:0:
441,122,76377,1,0,1:2:0:0:
471,217,76727,2,0,P|466:266|473:316,1,100,0|0,1:2|1:2,0:0:0:0:
381,356,77425,1,0,1:2:0:0:
294,305,77774,1,0,1:2:0:0:
256,192,78122,12,0,79518,1:2:0:0:
444,104,80913,6,0,P|397:117|349:106,1,100,4|8,1:2|0:0,0:0:0:0:
256,78,81611,1,2,0:0:0:0:
256,78,81785,2,0,P|234:89|209:95,1,50,0|8,1:2|0:0,0:0:0:0:
163,94,82134,1,2,0:0:0:0:
163,94,82308,1,0,1:2:0:0:
67,123,82657,2,0,L|73:232,1,100,8|0,0:0|0:0,0:0:0:0:
76,272,83180,1,0,1:2:0:0:
76,272,83355,1,8,0:0:0:0:
135,352,83704,6,0,B|174:347|174:347|185:351|185:351|234:346,1,100,0|8,1:2|0:0,0:0:0:0:
326,309,84401,2,0,L|320:383,2,75,2|2|2,0:0|0:0|0:0,0:0:0:0:
363,275,85099,2,0,P|407:295|455:282,1,100,2|8,1:2|0:0,0:0:0:0:
487,244,85622,1,2,0:0:0:0:
487,244,85797,2,0,P|482:217|482:194,1,50,2|0,0:0|1:2,0:0:0:0:
497,146,86146,1,8,0:0:0:0:
429,72,86494,6,0,B|381:59|381:59|341:91,1,100,2|10,1:2|0:0,0:0:0:0:
260,147,87192,1,2,0:2:0:0:
260,147,87367,2,0,L|269:215,1,50,0|8,1:2|0:0,0:0:0:0:
260,249,87715,1,2,0:0:0:0:
260,249,87890,1,0,1:2:0:0:
175,302,88239,2,0,P|131:278|83:288,1,100,8|0,0:0|0:0,0:0:0:0:
53,329,88762,1,0,1:2:0:0:
53,329,88936,1,10,0:0:0:0:
1,243,89285,6,0,L|9:143,1,100,0|8,1:2|0:0,0:0:0:0:
82,74,89983,2,0,P|72:38|47:11,2,75,2|2|2,0:0|0:0|0:0,0:0:0:0:
120,106,90681,2,0,P|164:86|212:99,1,100,2|8,1:2|0:0,0:0:0:0:
258,129,91204,1,2,0:0:0:0:
258,129,91378,1,2,0:0:0:0:
299,219,91727,2,0,P|296:243|302:267,1,50,10|0,0:0|1:2,0:0:0:0:
337,303,92076,6,0,P|392:296|449:304,1,100,4|10,1:2|0:0,0:0:0:0:
481,276,92599,1,2,0:0:0:0:
481,276,92774,2,0,P|489:253|486:220,1,50,2|0,0:0|1:2,0:0:0:0:
462,184,93122,1,10,0:0:0:0:
398,106,93471,2,0,P|400:68|423:35,2,75,2|2|2,1:2|0:0|0:0,0:0:0:0:
318,166,94343,1,0,1:2:0:0:
318,166,94518,2,0,P|295:160|270:164,1,50,10|2,0:0|0:0,0:0:0:0:
222,182,94867,6,0,L|209:259,2,75,2|2|2,1:2|0:0|0:0,0:0:0:0:
154,116,95739,1,0,1:2:0:0:
154,116,95914,2,0,P|131:122|106:118,1,50,10|2,0:0|0:0,0:0:0:0:
58,100,96263,2,0,P|54:63|45:23,2,75,2|2|2,1:2|0:0|0:0,0:0:0:0:
17,191,97134,1,0,1:2:0:0:
17,191,97308,2,0,L|25:254,1,50,10|2,0:0|1:2,0:0:0:0:
34,289,97657,6,0,P|77:302|108:361,1,100,0|8,1:2|0:0,0:0:0:0:
204,315,98355,1,2,0:0:0:0:
204,315,98529,2,0,P|226:304|251:298,1,50,0|8,1:2|0:0,0:0:0:0:
302,318,98878,1,2,0:0:0:0:
302,318,99052,1,0,1:2:0:0:
391,273,99401,2,0,L|399:173,1,100,8|0,0:0|0:0,0:0:0:0:
404,123,99925,1,0,1:2:0:0:
404,123,100099,1,10,0:0:0:0:
330,54,100448,5,0,1:2:0:0:
241,100,100797,1,0,1:2:0:0:
237,200,101146,1,0,1:2:0:0:
148,246,101494,1,0,1:2:0:0:
62,190,101843,2,0,P|56:167|56:142,1,50,0|0,1:2|1:2,0:0:0:0:
20,107,102192,2,0,P|26:83|26:58,1,50,0|0,1:2|1:2,0:0:0:0:
62,22,102541,2,0,B|105:25|105:25|112:31|112:31|159:35,1,100,0|0,1:2|1:2,0:0:0:0:
252,72,103239,6,0,P|243:95|243:120,1,50,6|2,1:2|0:0,0:0:0:0:
261,167,103587,2,0,P|318:163|381:182,1,100,10|2,0:0|1:2,0:0:0:0:
397,203,104111,2,0,P|398:227|403:252,1,50,2|10,0:0|0:0,0:0:0:0:
382,305,104460,1,2,0:0:0:0:
382,305,104634,1,2,1:2:0:0:
283,324,104983,1,10,0:0:0:0:
207,257,105332,2,0,P|182:256|160:268,1,50,2|2,0:0|1:2,0:0:0:0:
131,308,105680,1,10,0:0:0:0:
34,281,106029,6,0,L|45:166,1,100,2|10,1:2|0:0,0:0:0:0:
98,98,106727,2,0,P|79:65|79:28,2,75,2|2|2,0:0|0:0|0:0,0:0:0:0:
134,132,107425,2,0,P|183:132|233:124,1,100,2|8,1:2|0:0,0:0:0:0:
287,133,107948,1,2,0:0:0:0:
287,133,108122,2,0,P|295:156|296:181,1,50,2|0,0:0|1:2,0:0:0:0:
291,231,108471,1,10,0:0:0:0:
368,293,108820,6,0,P|392:290|416:297,1,50,2|2,1:2|0:0,0:0:0:0:
464,312,109169,2,0,P|467:262|478:213,1,100,10|2,0:0|0:0,0:0:0:0:
498,167,109692,2,0,P|481:140|479:111,1,50,2|10,1:2|0:0,0:0:0:0:
446,80,110041,1,2,0:0:0:0:
446,80,110215,1,2,1:2:0:0:
362,24,110564,1,10,0:0:0:0:
263,47,110913,2,0,P|238:48|216:59,1,50,2|2,0:0|1:2,0:0:0:0:
193,104,111262,1,10,0:0:0:0:
96,78,111611,6,0,P|100:111|103:177,1,100,2|10,1:2|0:0,0:0:0:0:
66,270,112308,2,0,P|23:244|-20:239,2,75,2|2|2,0:0|0:0|0:0,0:0:0:0:
93,311,113006,2,0,P|142:316|188:298,1,100,2|8,1:2|0:0,0:0:0:0:
238,296,113529,1,2,1:2:0:0:
238,296,113704,2,0,P|240:272|244:247,2,50,2|6|2,1:2|0:3|0:3,0:0:0:0:
326,342,114401,6,0,P|350:343|375:338,1,50,4|0,1:2|0:0,0:0:0:0:
424,346,114750,2,0,L|429:246,1,100,8|0,0:0|0:0,0:0:0:0:
440,196,115274,2,0,P|416:190|395:177,1,50,2|8,1:2|0:0,0:0:0:0:
353,162,115622,1,2,0:0:0:0:
353,162,115797,1,2,1:2:0:0:
252,163,116146,1,10,0:0:0:0:
179,95,116494,2,0,P|171:71|174:46,1,50,2|2,0:0|1:2,0:0:0:0:
199,2,116843,1,10,0:0:0:0:
292,38,117192,6,0,P|341:37|390:27,1,100,2|10,1:2|0:0,0:0:0:0:
480,73,117890,2,0,L|492:-6,2,75,2|2|2,0:0|0:0|0:0,0:0:0:0:
443,107,118587,2,0,P|462:152|461:202,1,100,2|8,1:2|0:0,0:0:0:0:
460,256,119111,1,2,0:0:0:0:
460,256,119285,2,0,P|436:247|412:249,1,50,2|0,0:0|1:2,0:0:0:0:
372,280,119634,1,10,0:0:0:0:
284,328,119983,6,0,L|234:319,1,50,2|2,1:2|0:0,0:0:0:0:
191,344,120332,2,0,L|92:327,1,100,10|2,0:0|0:0,0:0:0:0:
43,339,120855,2,0,P|24:324|14:302,1,50,2|10,1:2|0:0,0:0:0:0:
15,249,121204,1,2,0:0:0:0:
15,249,121378,1,2,1:2:0:0:
15,148,121727,1,10,0:0:0:0:
77,64,122076,2,0,P|95:80|119:86,1,50,2|2,0:0|1:2,0:0:0:0:
169,80,122425,1,10,0:0:0:0:
245,15,122774,6,0,L|368:28,1,100,0|8,1:2|0:0,0:0:0:0:
441,43,123471,2,0,P|429:64|424:88,1,50,0|2,0:0|1:2,0:0:0:0:
379,109,123820,2,0,P|385:133|399:153,1,50,10|2,0:0|1:2,0:0:0:0:
406,203,124169,1,2,1:2:0:0:
406,203,125564,5,4,0:0:0:0:
