osu file format v14

[General]
AudioFilename: audio.mp3
AudioLeadIn: 0
PreviewTime: 80913
Countdown: 0
SampleSet: Soft
StackLeniency: 0.5
Mode: 0
LetterboxInBreaks: 0
WidescreenStoryboard: 1

[Editor]
Bookmarks: 13936,25099,36262,47425,58587,69750,80913,92076,103239,114401,125564
DistanceSpacing: 1.4
BeatDivisor: 4
GridSize: 32
TimelineZoom: 1.6

[Metadata]
Title:Someone To Love You (Koven Remix) (Cut Ver.)
TitleUnicode:Someone To Love You (Koven Remix) (Cut Ver.)
Artist:Tritonal & Brooke Williams
ArtistUnicode:Tritonal & Brooke Williams
Creator:Zer0-
Version:Hard
Source:
Tags:edm dnb drum n bass electronic english female vocals dtm9 nowa
BeatmapID:2974425
BeatmapSetID:1437749

[Difficulty]
HPDrainRate:4
CircleSize:4
OverallDifficulty:7
ApproachRate:8
SliderMultiplier:1
SliderTickRate:1

[Events]
//Background and Video events
0,0,"li-miao-0409.jpg",0,0
//Break Periods
2,36462,41791
//Storyboard Layer 0 (Background)
//Storyboard Layer 1 (Fail)
//Storyboard Layer 2 (Pass)
//Storyboard Layer 3 (Foreground)
//Storyboard Layer 4 (Overlay)
//Storyboard Sound Samples

[TimingPoints]
2774,348.837209302326,4,2,0,100,1,0
13587,-100,4,2,1,40,0,0
16727,-100,4,2,1,40,0,0
19518,-100,4,2,1,40,0,0
25099,-90.9090909090909,4,2,1,50,0,0
25274,-90.9090909090909,4,2,1,5,0,0
25361,-90.9090909090909,4,2,1,50,0,0
25535,-90.9090909090909,4,2,1,5,0,0
25622,-90.9090909090909,4,2,1,50,0,0
26669,-90.9090909090909,4,2,1,5,0,0
26756,-90.9090909090909,4,2,1,50,0,0
26930,-90.9090909090909,4,2,1,5,0,0
27017,-90.9090909090909,4,2,1,50,0,0
28064,-90.9090909090909,4,2,1,5,0,0
28151,-90.9090909090909,4,2,1,50,0,0
28326,-90.9090909090909,4,2,1,5,0,0
28413,-90.9090909090909,4,2,1,50,0,0
29460,-90.9090909090909,4,2,1,5,0,0
29547,-90.9090909090909,4,2,1,50,0,0
29721,-90.9090909090909,4,2,1,5,0,0
29808,-90.9090909090909,4,2,1,50,0,0
36262,-90.9090909090909,4,2,1,40,0,0
37483,-90.9090909090909,4,2,1,40,0,0
39750,-111.111111111111,4,2,1,40,0,0
43064,-100,4,2,1,40,0,0
45332,-100,4,2,1,40,0,0
47425,-90.9090909090909,4,2,1,60,0,0
58587,-90.9090909090909,4,2,1,65,0,0
69750,-90.9090909090909,4,2,1,70,0,0
79518,-90.9090909090909,4,2,1,70,0,0
80913,-76.9230769230769,4,2,1,80,0,1
103239,-83.3333333333333,4,2,1,70,0,0
124169,-83.3333333333333,4,2,1,60,0,0

[Colours]
Combo1 : 217,153,219
Combo2 : 227,212,205
Combo3 : 146,177,196
Combo4 : 206,90,79

[HitObjects]
484,196,13587,6,0,L|480:245,1,50
419,297,13936,2,0,B|252:329|351:172|148:212,2,300,2|2|0,0:0|0:0|0:0,0:0:0:0:
155,210,16727,6,0,B|162:139|270:155|296:220|273:288|232:324|188:343|124:345|64:329|17:275|25:197|45:151|74:103|124:89,1,600,2|0,0:0|0:0,0:0:0:0:
414,197,19518,6,0,B|485:112|397:14|397:14|377:110|293:75|315:180,2,400,2|2|2,0:0|0:0|0:0,0:0:0:0:
414,197,24925,5,2,0:0:0:0:
414,197,25099,2,0,P|374:190|335:203,2,82.5000025177003,6|2|2,1:2|0:0|0:0,0:0:0:0:
84,273,26146,5,2,0:0:0:0:
84,273,26320,1,2,0:0:0:0:
84,273,26494,2,0,L|73:361,2,82.5000025177003,2|2|2,0:0|0:0|0:0,0:0:0:0:
143,45,27541,5,2,0:0:0:0:
143,45,27715,1,2,0:0:0:0:
143,45,27890,2,0,P|103:41|61:5,2,82.5000025177003,2|2|2,0:0|0:0|0:0,0:0:0:0:
370,121,28936,5,2,0:0:0:0:
370,121,29111,1,2,0:0:0:0:
370,121,29285,2,0,L|379:28,2,82.5000025177003,2|2|2,0:0|0:0|0:0,0:0:0:0:
349,360,30332,5,2,0:0:0:0:
349,360,30506,1,2,0:0:0:0:
349,360,30680,1,0,1:2:0:0:
211,277,31029,2,0,P|184:272|158:281,1,55.0000016784668,2|2,0:0|0:0,0:0:0:0:
77,245,31378,2,0,L|71:190,1,55.0000016784668,2|0,0:0|0:0,0:0:0:0:
28,113,31727,2,0,L|33:58,1,55.0000016784668,2|0,0:0|0:0,0:0:0:0:
118,33,32076,6,0,B|130:16|130:16|203:25,2,82.5000025177003,2|2|2,0:0|0:0|0:0,0:0:0:0:
320,217,33122,5,2,0:0:0:0:
320,217,33297,1,2,0:0:0:0:
320,217,33471,2,0,L|418:204,2,82.5000025177003,2|2|2,0:0|0:0|0:0,0:0:0:0:
89,108,34518,5,2,0:0:0:0:
89,108,34693,1,2,0:0:0:0:
89,108,34867,2,0,L|-9:95,2,82.5000025177003,2|2|2,0:0|0:0|0:0,0:0:0:0:
340,25,35913,6,0,P|326:50|323:77,1,55.0000016784668,2|0,0:0|0:0,0:0:0:0:
354,159,36262,1,4,1:2:0:0:
91,191,42541,6,0,P|59:162|55:118,1,89.9999972534181,2|0,0:0|0:0,0:0:0:0:
107,57,43064,2,0,B|171:106|239:47|239:47|307:24|356:72|339:121|293:149|259:120,1,350,2|0,0:0|0:0,0:0:0:0:
58,239,45332,6,0,L|46:164,2,75,2|2|2,0:0|0:0|0:0,0:0:0:0:
118,290,46029,2,0,L|106:364,2,75,2|2|2,0:0|0:0|0:0,0:0:0:0:
172,230,46727,1,2,0:0:0:0:
271,162,46989,1,2,0:0:0:0:
382,227,47250,1,0,1:2:0:0:
389,233,47337,1,0,1:2:0:0:
400,233,47425,6,0,P|438:135|371:54,1,220.000006713867,6|0,1:2|0:0,0:0:0:0:
286,30,48297,2,0,P|261:43|234:45,1,55.0000016784668,2|0,0:0|0:0,0:0:0:0:
153,12,48646,6,0,B|169:134|169:134|164:155|164:155|189:339,1,330.000010070801,2|0,0:0|0:0,0:0:0:0:
111,369,49867,5,0,1:2:0:0:
111,369,50041,1,0,1:2:0:0:
111,369,50215,2,0,L|93:245,1,110.000003356934,2|0,1:2|0:0,0:0:0:0:
15,219,50739,2,0,P|26:193|28:166,1,55.0000016784668,2|0,0:0|0:0,0:0:0:0:
79,95,51087,2,0,B|87:68|79:40|79:40|97:65|124:73,1,110.000003356934,2|0,0:0|0:0,0:0:0:0:
188,129,51611,2,0,B|279:134|279:134|292:144|292:144|413:150,1,220.000006713867,2|0,1:2|1:2,0:0:0:0:
295,24,52657,5,0,1:2:0:0:
295,24,52832,1,0,1:2:0:0:
295,24,53006,2,0,L|279:266,1,220.000006713867,6|2,1:2|1:2,0:0:0:0:
234,318,53878,2,0,P|210:333|183:338,1,55.0000016784668,2|2,0:0|0:0,0:0:0:0:
121,275,54227,2,0,P|99:151|190:237,1,330.000010070801,2|0,0:0|0:0,0:0:0:0:
280,243,55448,2,0,L|293:319,1,55.0000016784668,0|0,1:2|1:2,0:0:0:0:
368,355,55797,5,2,1:2:0:0:
368,355,55971,1,0,1:2:0:0:
368,355,56146,2,0,P|395:362|420:352,1,55.0000016784668,0|0,1:2|1:2,0:0:0:0:
444,272,56494,1,2,1:2:0:0:
444,272,56668,1,0,1:2:0:0:
444,272,56843,2,0,P|462:252|466:225,1,55.0000016784668,0|0,1:2|1:2,0:0:0:0:
423,148,57192,6,0,L|429:57,2,82.5000025177003,2|2|2,0:0|0:0|0:0,0:0:0:0:
334,151,57890,2,0,L|340:60,2,82.5000025177003,2|2|2,0:0|0:0|0:0,0:0:0:0:
268,209,58587,6,0,P|217:227|166:209,1,110.000003356934,6|8,1:2|0:1,0:0:0:0:
27,318,59285,2,0,P|77:299|128:318,1,110.000003356934,2|8,0:0|0:1,0:0:0:0:
300,356,59983,6,0,L|303:301,1,55.0000016784668,2|0,0:0|0:0,0:0:0:0:
379,345,60332,2,0,L|382:290,1,55.0000016784668,8|0,0:1|0:0,0:0:0:0:
434,219,60680,2,0,L|430:164,1,55.0000016784668,2|0,0:0|0:0,0:0:0:0:
355,208,61029,2,0,L|351:153,1,55.0000016784668,8|0,0:1|0:0,0:0:0:0:
292,87,61378,6,0,L|182:99,1,110.000003356934,2|8,0:0|0:1,0:0:0:0:
7,118,62076,2,0,P|2:77|28:38,2,82.5000025177003,2|2|2,0:0|0:0|0:0,0:0:0:0:
56,191,62774,2,0,P|89:166|135:169,2,82.5000025177003,2|2|2,0:0|0:0|0:0,0:0:0:0:
19,270,63471,1,2,0:0:0:0:
19,270,63820,1,8,0:1:0:0:
168,363,64169,6,0,P|221:365|263:331,1,110.000003356934,2|8,0:0|0:1,0:0:0:0:
362,185,64867,2,0,P|415:182|457:216,1,110.000003356934,2|8,0:0|0:1,0:0:0:0:
401,383,65564,6,0,L|346:374,1,55.0000016784668,2|0,0:0|0:0,0:0:0:0:
385,295,65913,2,0,L|330:286,1,55.0000016784668,8|0,0:1|0:0,0:0:0:0:
263,229,66262,2,0,L|208:237,1,55.0000016784668,2|0,0:0|0:0,0:0:0:0:
247,317,66611,2,0,L|192:325,1,55.0000016784668,8|0,0:1|0:0,0:0:0:0:
108,297,66960,6,0,P|106:246|99:187,1,110.000003356934,2|8,0:0|0:1,0:0:0:0:
34,23,67657,2,0,P|3:48|0:88,2,82.5000025177003,2|2|2,0:0|0:0|0:0,0:0:0:0:
106,72,68355,2,0,P|112:111|145:134,2,82.5000025177003,2|2|2,0:0|0:0|0:0,0:0:0:0:
174,16,69053,1,2,0:0:0:0:
174,16,69401,1,8,0:1:0:0:
312,125,69750,5,6,1:2:0:0:
476,61,70099,1,2,1:2:0:0:
417,227,70448,1,2,1:2:0:0:
366,58,70797,1,2,1:2:0:0:
487,185,71146,6,0,P|499:209|500:236,1,55.0000016784668,2|0,1:2|0:0,0:0:0:0:
414,255,71494,2,0,P|401:230|400:203,1,55.0000016784668,2|0,1:2|0:0,0:0:0:0:
318,171,71843,2,0,P|330:146|331:119,1,55.0000016784668,2|0,1:2|0:0,0:0:0:0:
245,101,72191,2,0,P|232:125|231:152,1,55.0000016784668,2|0,1:2|0:0,0:0:0:0:
182,226,72541,5,2,1:2:0:0:
7,206,72890,1,2,1:2:0:0:
163,125,73239,2,0,L|168:34,2,82.5000025177003,2|2|2,1:2|0:0|0:0,0:0:0:0:
99,185,73936,2,0,L|104:275,2,82.5000025177003,2|2|2,1:2|0:0|0:0,0:0:0:0:
27,133,74634,2,0,P|19:106|25:79,1,55.0000016784668,2|0,1:2|0:0,0:0:0:0:
108,50,74983,2,0,P|115:76|109:103,1,55.0000016784668,2|0,1:2|0:0,0:0:0:0:
179,157,75332,5,0,1:2:0:0:
179,157,75506,1,0,1:2:0:0:
179,157,75680,2,0,L|250:145,1,55.0000016784668,0|0,1:2|1:2,0:0:0:0:
306,96,76029,1,0,1:2:0:0:
306,96,76203,1,0,1:2:0:0:
306,96,76377,2,0,L|377:108,1,55.0000016784668,0|0,1:2|1:2,0:0:0:0:
446,71,76727,5,0,1:2:0:0:
446,71,76901,1,0,1:2:0:0:
446,71,77076,2,0,P|454:96|451:123,1,55.0000016784668,0|0,1:2|1:2,0:0:0:0:
478,217,77425,1,0,1:2:0:0:
478,217,77599,1,0,1:2:0:0:
478,217,77774,2,0,P|460:237|435:248,1,55.0000016784668,0|0,1:2|1:2,0:0:0:0:
383,319,78122,5,2,1:2:0:0:
372,318,78209,1,0,1:2:0:0:
361,315,78297,2,0,L|354:268,5,27.5000008392334,0|0|0|0|0|0,1:2|1:2|1:2|1:2|1:2|1:2,0:0:0:0:
317,268,78820,1,2,1:2:0:0:
306,268,78907,1,0,1:2:0:0:
295,272,78995,2,0,L|288:318,5,27.5000008392334,0|0|0|0|0|0,1:2|1:2|1:2|1:2|1:2|1:2,0:0:0:0:
250,317,79518,5,0,1:2:0:0:
256,192,79605,12,0,80564,0:0:0:0:
129,80,80913,6,0,L|136:144,1,64.9999970245363,4|0,1:2|0:0,0:0:0:0:
203,206,81262,2,0,P|265:215|312:174,1,129.999994049073,8|2,0:0|0:0,0:0:0:0:
374,105,81785,1,0,1:2:0:0:
462,127,81960,1,8,0:0:0:0:
472,217,82134,1,2,0:0:0:0:
400,272,82308,6,0,P|392:303|397:335,1,64.9999970245363,0|0,1:2|0:0,0:0:0:0:
306,360,82657,2,0,P|243:346|178:345,1,129.999994049073,8|0,0:0|0:0,0:0:0:0:
92,364,83180,1,0,1:2:0:0:
92,364,83355,1,8,0:0:0:0:
29,192,83704,6,0,P|26:225|41:255,1,64.9999970245363,0|0,1:2|0:0,0:0:0:0:
129,235,84053,2,0,P|132:202|117:172,1,64.9999970245363,8|0,0:0|0:0,0:0:0:0:
220,96,84401,2,0,P|252:93|281:106,1,64.9999970245363,2|0,0:0|1:2,0:0:0:0:
290,117,84663,1,2,0:0:0:0:
293,130,84750,1,8,0:0:0:0:
341,207,84925,1,2,0:0:0:0:
429,187,85099,6,0,L|444:88,2,97.4999955368044,2|2|2,1:2|0:0|0:0,0:0:0:0:
390,269,85797,2,0,P|361:283|328:285,1,64.9999970245363,2|0,0:0|1:2,0:0:0:0:
282,363,86146,2,0,P|255:345|237:318,1,64.9999970245363,8|0,0:0|0:0,0:0:0:0:
120,244,86494,6,0,P|87:245|55:252,1,64.9999970245363,2|0,1:2|0:0,0:0:0:0:
11,173,86843,2,0,L|21:36,1,129.999994049073,10|2,0:0|0:2,0:0:0:0:
103,3,87367,1,0,1:2:0:0:
173,60,87541,1,8,0:0:0:0:
149,147,87715,1,2,0:0:0:0:
223,215,87890,6,0,L|291:208,1,64.9999970245363,0|0,1:2|0:0,0:0:0:0:
352,272,88239,2,0,L|488:258,1,129.999994049073,8|0,0:0|0:0,0:0:0:0:
508,171,88762,1,0,1:2:0:0:
438,112,88936,1,10,0:0:0:0:
284,13,89285,6,0,P|301:39|300:72,1,64.9999970245363,0|0,1:2|0:0,0:0:0:0:
211,94,89634,2,0,P|193:67|194:34,1,64.9999970245363,8|0,0:0|0:0,0:0:0:0:
68,25,89983,2,0,P|37:29|16:52,1,64.9999970245363,2|0,0:0|1:2,0:0:0:0:
12,65,90244,1,2,0:0:0:0:
15,78,90332,1,8,0:0:0:0:
78,142,90506,1,2,0:0:0:0:
50,228,90680,6,0,B|57:271|57:271|54:283|54:283|61:328,2,97.4999955368044,2|2|2,1:2|0:0|0:0,0:0:0:0:
138,204,91378,2,0,P|168:214|200:209,1,64.9999970245363,2|0,0:0|1:2,0:0:0:0:
270,150,91727,1,10,0:0:0:0:
371,241,91901,1,0,1:2:0:0:
455,131,92076,6,0,P|466:69|431:16,1,129.999994049073,4|10,1:2|0:0,0:0:0:0:
348,55,92599,1,2,0:0:0:0:
267,9,92774,2,0,P|237:19|204:20,1,64.9999970245363,2|0,0:0|1:2,0:0:0:0:
135,78,93122,2,0,P|104:67|71:66,1,64.9999970245363,10|0,0:0|0:0,0:0:0:0:
11,182,93471,6,0,L|20:246,1,64.9999970245363,2|0,1:2|0:0,0:0:0:0:
23,259,93733,1,2,0:0:0:0:
26,271,93820,1,8,0:0:0:0:
91,333,93994,2,0,B|150:340|135:289|208:290,1,129.999994049073,2|0,0:0|1:2,0:0:0:0:
288,335,94518,1,10,0:0:0:0:
359,279,94692,1,2,0:0:0:0:
472,172,94867,6,0,P|476:204|462:233,1,64.9999970245363,2|0,1:2|0:0,0:0:0:0:
452,239,95128,1,2,0:0:0:0:
440,242,95215,1,8,0:0:0:0:
367,186,95390,2,0,P|303:195|241:213,1,129.999994049073,2|0,0:0|1:2,0:0:0:0:
167,268,95913,1,10,0:0:0:0:
104,201,96087,1,2,0:0:0:0:
116,79,96262,6,0,P|116:46|109:15,1,64.9999970245363,2|0,1:2|0:0,0:0:0:0:
99,6,96524,1,2,0:0:0:0:
88,2,96611,1,8,0:0:0:0:
186,3,96785,2,0,B|248:3|237:52|307:43,1,129.999994049073,2|0,0:0|1:2,0:0:0:0:
390,9,97308,1,10,0:0:0:0:
455,73,97483,1,2,1:2:0:0:
454,227,97657,6,0,P|422:222|396:203,1,64.9999970245363,0|0,1:2|0:0,0:0:0:0:
322,257,98006,2,0,P|259:244|206:278,1,129.999994049073,8|2,0:0|0:0,0:0:0:0:
131,330,98529,1,0,1:2:0:0:
54,280,98704,1,8,0:0:0:0:
68,190,98878,1,2,0:0:0:0:
153,157,99053,6,0,L|161:93,1,64.9999970245363,0|0,1:2|0:0,0:0:0:0:
244,128,99401,2,0,L|260:0,1,129.999994049073,8|0,0:0|0:0,0:0:0:0:
342,39,99925,1,0,1:2:0:0:
427,8,100099,1,10,0:0:0:0:
494,181,100448,5,0,1:2:0:0:
494,181,100797,1,0,1:2:0:0:
395,335,101146,1,0,1:2:0:0:
395,335,101495,1,0,1:2:0:0:
236,243,101843,6,0,P|205:248|177:265,1,64.9999970245363,0|0,1:2|1:2,0:0:0:0:
95,305,102192,2,0,P|63:300|35:283,1,64.9999970245363,0|0,1:2|1:2,0:0:0:0:
12,195,102541,1,0,1:2:0:0:
14,182,102628,1,0,1:2:0:0:
16,169,102716,1,0,1:2:0:0:
18,156,102803,1,0,1:2:0:0:
20,143,102890,2,0,L|15:97,3,32.4999985122681,0|0|0|0,1:2|1:2|1:2|1:2,0:0:0:0:
36,73,103239,6,0,P|65:75|95:70,1,59.9999981689454,6|2,1:2|0:0,0:0:0:0:
154,10,103587,2,0,P|183:8|277:53,1,119.999996337891,10|2,0:0|1:2,0:0:0:0:
321,105,104111,1,2,0:0:0:0:
383,49,104285,1,10,0:0:0:0:
478,176,104634,6,0,L|469:235,1,59.9999981689454,2|2,1:2|0:0,0:0:0:0:
384,236,104983,2,0,L|393:295,1,59.9999981689454,10|2,0:0|0:0,0:0:0:0:
333,355,105332,1,2,0:0:0:0:
256,321,105506,1,2,1:2:0:0:
181,361,105680,2,0,P|152:356|124:346,1,59.9999981689454,10|2,0:0|0:0,0:0:0:0:
41,265,106029,6,0,P|98:255|143:205,1,119.999996337891,2|10,1:2|0:0,0:0:0:0:
142,127,106553,1,2,0:0:0:0:
261,186,106727,2,0,P|278:161|304:148,1,59.9999981689454,2|0,0:0|1:2,0:0:0:0:
317,147,106989,1,2,0:0:0:0:
329,149,107076,1,8,0:0:0:0:
387,88,107250,1,2,0:0:0:0:
442,151,107425,6,0,L|447:247,2,89.9999972534181,2|2|2,1:2|0:0|0:0,0:0:0:0:
386,87,108122,2,0,P|358:79|328:78,1,59.9999981689454,2|0,0:0|1:2,0:0:0:0:
269,17,108471,2,0,P|239:24|213:38,1,59.9999981689454,10|0,0:0|0:0,0:0:0:0:
85,72,108820,6,0,L|89:139,1,59.9999981689454,2|2,1:2|0:0,0:0:0:0:
160,176,109169,2,0,L|169:311,1,119.999996337891,10|2,0:0|0:0,0:0:0:0:
217,364,109692,1,2,1:2:0:0:
301,368,109867,1,10,0:0:0:0:
328,198,110215,6,0,L|387:189,1,59.9999981689454,2|2,1:2|0:0,0:0:0:0:
388,104,110564,2,0,L|447:113,1,59.9999981689454,10|2,0:0|0:0,0:0:0:0:
489,40,110913,1,2,0:0:0:0:
413,4,111087,1,2,1:2:0:0:
333,35,111262,2,0,P|304:34|275:24,1,59.9999981689454,10|2,0:0|0:0,0:0:0:0:
170,9,111611,6,0,B|174:60|174:60|180:74|180:74|184:128,1,119.999996337891,2|10,1:2|0:0,0:0:0:0:
149,204,112134,1,2,0:0:0:0:
73,167,112308,2,0,P|70:138|80:110,1,59.9999981689454,2|0,0:0|1:2,0:0:0:0:
86,99,112570,1,2,0:0:0:0:
95,92,112657,1,8,0:0:0:0:
161,39,112832,1,2,0:0:0:0:
236,75,113006,6,0,P|265:77|293:67,1,59.9999981689454,2|0,1:2|0:0,0:0:0:0:
369,26,113355,1,8,0:0:0:0:
434,77,113529,1,2,1:2:0:0:
402,157,113704,5,2,1:2:0:0:
402,157,113878,1,6,0:3:0:0:
443,236,114053,1,2,0:3:0:0:
443,236,114227,1,2,0:3:0:0:
413,321,114401,6,0,P|386:333|356:331,1,59.9999981689454,4|0,1:2|0:0,0:0:0:0:
279,366,114750,2,0,B|247:350|247:350|160:346,1,119.999996337891,8|0,0:0|0:0,0:0:0:0:
83,376,115274,1,0,1:2:0:0:
31,309,115448,1,8,0:0:0:0:
81,148,115797,6,0,L|85:88,1,59.9999981689454,2|2,1:2|0:0,0:0:0:0:
169,105,116146,2,0,L|165:45,1,59.9999981689454,10|2,0:0|0:0,0:0:0:0:
248,55,116494,1,2,0:0:0:0:
319,11,116669,1,2,1:2:0:0:
393,49,116843,2,0,P|402:77|397:106,1,59.9999981689454,10|2,0:0|0:0,0:0:0:0:
454,216,117192,6,0,P|399:239|376:295,1,119.999996337891,2|10,1:2|0:0,0:0:0:0:
387,375,117715,1,2,0:0:0:0:
472,365,117890,2,0,P|481:336|476:307,1,59.9999981689454,2|0,0:0|1:2,0:0:0:0:
468,300,118151,1,2,0:0:0:0:
459,295,118239,1,8,0:0:0:0:
391,245,118413,1,2,0:0:0:0:
317,286,118587,6,0,P|303:245|317:196,2,89.9999972534181,2|2|2,1:2|0:0|0:0,0:0:0:0:
250,337,119285,2,0,L|174:325,1,59.9999981689454,2|0,0:0|1:2,0:0:0:0:
110,354,119634,2,0,L|34:342,1,59.9999981689454,10|0,0:0|0:0,0:0:0:0:
0,152,119983,6,0,P|12:179|35:196,1,59.9999981689454,2|2,1:2|0:0,0:0:0:0:
100,250,120332,2,0,L|220:234,1,119.999996337891,10|2,0:0|0:0,0:0:0:0:
279,175,120855,1,2,1:2:0:0:
216,119,121029,1,10,0:0:0:0:
364,38,121378,6,0,P|374:65|373:95,1,59.9999981689454,2|2,1:2|0:0,0:0:0:0:
443,142,121727,2,0,P|423:164|397:178,1,59.9999981689454,10|2,0:0|0:0,0:0:0:0:
349,248,122076,1,2,0:0:0:0:
271,215,122250,1,2,1:2:0:0:
211,274,122425,2,0,L|205:333,1,59.9999981689454,10|2,0:0|0:0,0:0:0:0:
81,354,122774,6,0,L|86:294,1,59.9999981689454,0|0,1:2|0:0,0:0:0:0:
37,226,123122,2,0,P|89:200|100:144,1,119.999996337891,8|0,0:0|0:0,0:0:0:0:
90,60,123646,1,2,1:2:0:0:
157,10,123820,1,10,0:0:0:0:
233,43,123994,1,2,1:2:0:0:
252,154,124169,5,2,1:2:0:0:
252,154,125564,5,4,0:0:0:0:
