osu file format v14

[General]
AudioFilename: audio.mp3
AudioLeadIn: 0
PreviewTime: -1
Countdown: 2
SampleSet: Normal
StackLeniency: 0.7
Mode: 0
LetterboxInBreaks: 0
WidescreenStoryboard: 0

[Editor]
DistanceSpacing: 1
BeatDivisor: 4
GridSize: 16
TimelineZoom: 2.7

[Metadata]
Title:Too Simple
TitleUnicode:Too Simple
Artist:Tristam and Stephen Walking
ArtistUnicode:Tristam and Stephen Walking
Creator:-flan-onee-
Version:Too Difficult
Source:
Tags:slmple af easy jk tristam yeah boy or boi
BeatmapID:1433779
BeatmapSetID:678025

[Difficulty]
HPDrainRate:6
CircleSize:4
OverallDifficulty:7
ApproachRate:9.3
SliderMultiplier:1
SliderTickRate:1

[Events]
//Background and Video events
0,0,"083fce221878de72f0fdede553cd8545.jpg",0,0
//Break Periods
2,45575,55597
//Storyboard Layer 0 (Background)
//Storyboard Layer 1 (Fail)
//Storyboard Layer 2 (Pass)
//Storyboard Layer 3 (Foreground)
//Storyboard Sound Samples

[TimingPoints]
1833,342.857142857143,4,1,0,100,1,0
14861,-100,4,1,0,100,0,0
15547,-100,4,1,0,100,0,0
17604,-133.333333333333,4,1,0,100,0,0
18290,-100,4,1,0,100,0,0
20347,-133.333333333333,4,1,0,100,0,0
21032,-100,4,1,0,100,0,0
22918,-66.6666666666667,4,1,0,100,0,0
23775,-50,4,1,0,100,0,1
30975,-133.333333333333,4,1,0,100,0,1
31661,-50,4,1,0,100,0,1
33718,-133.333333333333,4,1,0,100,0,1
34404,-50,4,1,0,100,0,1
41604,-133.333333333333,4,1,0,100,0,1
42290,-50,4,1,0,100,0,1
44347,-133.333333333333,4,1,0,100,0,1
45033,-50,4,1,0,100,0,1
45375,-200,4,1,0,100,0,0
61833,-66.6666666666667,4,1,0,100,0,0
68004,-66.6666666666667,4,1,0,100,0,0
69033,-50,4,1,0,100,0,0
70061,-133.333333333333,4,1,0,100,0,0
71090,-66.6666666666667,4,1,0,100,0,0
72975,-133.333333333333,4,1,0,100,0,0
73661,-66.6666666666667,4,1,0,100,0,0
75375,-133.333333333333,4,1,0,100,0,0
76918,-50,4,1,0,100,0,0
78290,-133.333333333333,4,1,0,100,0,1
79661,-66.6666666666667,4,1,0,100,0,1
90290,-133.333333333333,4,1,0,100,0,1
90633,-66.6666666666667,4,1,0,100,0,1
92690,-133.333333333333,4,1,0,100,0,1
92790,-133.333333333333,4,1,0,100,0,1
94061,-50,4,1,0,100,0,1
100918,-133.333333333333,4,1,0,100,0,1
108461,-66.6666666666667,4,1,0,100,0,1
111204,-50,4,1,0,100,0,0
122175,-200,4,1,0,100,0,0

[HitObjects]
112,144,12804,5,0,0:0:0:0:
176,96,13147,2,0,P|224:128|224:176,1,100
160,192,13833,2,0,P|192:256|224:256,1,100
288,192,14518,1,0,0:0:0:0:
416,192,14861,2,0,P|384:96|288:80,1,200
224,128,15890,5,0,0:0:0:0:
160,80,16232,2,0,P|128:64|96:64,1,50
80,128,16575,2,0,P|96:144|128:160,1,50
96,224,16918,2,0,P|64:224|32:208,1,50
0,288,17261,2,0,P|16:304|64:304,1,50
192,304,17604,6,0,P|240:224|288:224,1,150.000005722046
272,304,18632,1,0,0:0:0:0:
384,304,18975,2,0,P|400:304|432:288,1,50
416,208,19318,2,0,P|400:208|368:192,1,50
384,112,19661,2,0,P|416:112|448:96,1,50
448,32,20004,2,0,P|432:32|400:16,1,50
272,16,20347,6,0,P|288:64|240:144,1,150
208,64,21375,1,0,0:0:0:0:
96,96,21718,2,0,L|144:144,1,50
64,208,22061,2,0,L|128:208,1,50
96,320,22404,2,0,L|144:288,1,50
208,208,22747,5,0,0:0:0:0:
224,112,23090,2,0,B|304:160|288:208|368:224,1,150.000005722046
400,208,23775,2,0,P|416:240|384:304,1,100
304,208,24118,2,0,P|320:240|288:304,1,100,0|0,0:0|0:0,0:3:0:0:
208,208,24461,2,0,P|224:240|192:304,1,100
128,240,24804,2,0,P|96:256|32:224,1,100
0,144,25147,5,0,0:0:0:0:
80,96,25318,1,0,0:0:0:0:
192,64,25490,6,0,P|240:128|240:160,1,100
320,176,25833,6,0,P|256:224|224:224,1,100
208,304,26175,6,0,P|160:240|160:208,1,100
192,128,26518,1,0,0:0:0:0:
240,224,26689,1,0,0:0:0:0:
288,144,26861,2,0,P|320:80|352:80,1,100
368,144,27203,6,0,P|352:192|304:224,1,100
352,288,27546,2,0,P|432:256|432:240,1,100
256,288,27889,2,0,P|176:256|176:240,1,100
304,224,28232,2,0,L|304:112,1,100
240,64,28575,5,0,0:0:0:0:
304,0,28746,1,0,0:0:0:0:
368,64,28918,1,0,0:0:0:0:
416,144,29090,1,0,0:0:0:0:
304,128,29261,2,0,P|336:176|288:224,1,100
256,256,29604,2,0,P|224:208|272:160,1,100
160,128,29947,5,0,0:0:0:0:
80,176,30118,1,0,0:0:0:0:
96,256,30290,2,0,L|160:336,1,100
240,352,30633,6,0,L|352:368,1,100
352,272,30975,1,0,0:0:0:0:
464,240,31147,1,0,0:0:0:0:
368,192,31318,2,0,L|416:176,1,37.5000014305115
384,112,31661,1,0,0:0:0:0:
256,192,31833,1,0,0:0:0:0:
208,128,32004,6,0,P|160:96|112:128,1,100
144,176,32347,2,0,P|112:224|144:272,1,100
208,240,32690,2,0,P|256:208|304:240,1,100
272,304,33033,5,0,0:0:0:0:
352,272,33204,1,0,0:0:0:0:
416,224,33376,1,0,0:0:0:0:
480,160,33547,1,0,0:0:0:0:
400,128,33718,2,0,L|352:128,1,37.5000014305115
368,32,34061,2,0,L|336:64,1,37.5000014305115
240,64,34404,5,0,0:0:0:0:
144,96,34575,1,0,0:0:0:0:
64,160,34747,6,0,B|68:216|96:240|112:256,1,100
192,256,35090,6,0,P|272:224|288:208,1,100
368,160,35433,1,0,0:0:0:0:
304,96,35604,1,0,0:0:0:0:
400,80,35776,2,0,P|464:80|512:112,1,100
512,176,36119,6,0,P|448:224|432:256,1,100
352,256,36462,2,0,P|320:240|256:256,1,100
176,192,36804,1,0,0:0:0:0:
96,240,36976,1,0,0:0:0:0:
176,288,37147,6,0,P|272:336|272:352,1,100
208,352,37490,2,0,P|160:368|112:320,1,100
96,240,37833,2,0,P|112:160|80:144,1,100
32,192,38176,2,0,P|32:128|96:96,1,100
112,32,38519,5,0,0:0:0:0:
192,80,38690,1,0,0:0:0:0:
256,16,38862,2,0,P|304:48|288:80,1,100
256,144,39204,2,0,P|304:176|352:192,1,100
368,112,39547,6,0,P|416:128|416:176,1,100
496,240,39890,1,0,0:0:0:0:
432,304,40062,1,0,0:0:0:0:
352,272,40233,1,0,0:0:0:0:
368,192,40404,1,0,0:0:0:0:
448,176,40576,6,0,P|432:112|368:112,1,100
320,112,40919,2,0,P|272:144|256:192,1,100
224,272,41262,1,0,0:0:0:0:
224,352,41433,1,0,0:0:0:0:
128,320,41604,5,0,0:0:0:0:
32,256,41775,1,0,0:0:0:0:
112,192,41947,2,0,L|80:160,1,37.5000014305115
160,96,42290,1,0,0:0:0:0:
64,32,42462,1,0,0:0:0:0:
208,16,42633,1,0,0:0:0:0:
288,128,42804,1,0,0:0:0:0:
240,192,42976,2,0,P|240:272|272:272,1,100
320,240,43319,6,0,P|320:288|288:336,1,100
224,272,43662,2,0,P|208:304|224:368,1,100
128,368,44004,1,0,0:0:0:0:
144,272,44175,1,0,0:0:0:0:
64,224,44347,2,0,L|80:176,1,37.5000014305115
160,160,44690,6,0,L|128:128,1,37.5000014305115
64,80,45033,1,0,0:0:0:0:
128,240,45204,2,0,L|240:240,1,100
176,144,56347,5,0,0:0:0:0:
336,144,56518,1,0,0:0:0:0:
256,80,56690,5,0,0:0:0:0:
304,224,56861,1,0,0:0:0:0:
208,224,57033,1,0,0:0:0:0:
176,144,57204,1,0,0:0:0:0:
256,80,57375,5,0,0:0:0:0:
336,144,57547,1,0,0:0:0:0:
304,224,57718,1,0,0:0:0:0:
208,224,57890,1,0,0:0:0:0:
208,240,58061,1,0,0:0:0:0:
208,256,58233,1,0,0:0:0:0:
304,224,58404,5,0,0:0:0:0:
336,144,58575,1,0,0:0:0:0:
176,144,58747,1,0,0:0:0:0:
256,80,58918,1,0,0:0:0:0:
208,224,59090,1,0,0:0:0:0:
208,240,59261,1,0,0:0:0:0:
208,256,59433,5,0,0:0:0:0:
160,144,59604,1,0,0:0:0:0:
256,64,59775,1,0,0:0:0:0:
352,144,59947,1,0,0:0:0:0:
320,256,60118,5,0,0:0:0:0:
256,144,60290,5,0,0:0:0:0:
256,160,60461,1,0,0:0:0:0:
256,176,60633,1,0,0:0:0:0:
256,192,60804,1,0,0:0:0:0:
256,208,60975,1,0,0:0:0:0:
352,272,61147,5,0,0:0:0:0:
160,272,61318,1,0,0:0:0:0:
256,272,61490,2,0,L|256:240,1,25
256,160,61833,1,0,0:0:0:0:
292,167,61918,1,0,0:0:0:0:
329,172,62004,1,0,0:0:0:0:
367,175,62090,1,0,0:0:0:0:
404,176,62175,1,0,0:0:0:0:
442,173,62261,5,0,0:0:0:0:
478,164,62347,1,0,0:0:0:0:
508,142,62432,1,0,0:0:0:0:
503,108,62518,1,0,0:0:0:0:
473,85,62604,5,0,0:0:0:0:
439,70,62690,1,0,0:0:0:0:
403,59,62775,1,0,0:0:0:0:
366,51,62861,1,0,0:0:0:0:
329,46,62947,1,0,0:0:0:0:
292,44,63032,1,0,0:0:0:0:
254,44,63118,5,0,0:0:0:0:
217,46,63204,1,0,0:0:0:0:
180,50,63290,1,0,0:0:0:0:
143,58,63375,1,0,0:0:0:0:
107,70,63461,1,0,0:0:0:0:
74,87,63547,5,0,0:0:0:0:
54,117,63632,1,0,0:0:0:0:
68,151,63718,1,0,0:0:0:0:
98,173,63804,1,0,0:0:0:0:
132,189,63890,1,0,0:0:0:0:
166,203,63975,5,0,0:0:0:0:
202,216,64061,1,0,0:0:0:0:
237,228,64147,1,0,0:0:0:0:
273,239,64232,1,0,0:0:0:0:
309,251,64318,1,0,0:0:0:0:
344,263,64404,5,0,0:0:0:0:
379,276,64490,1,0,0:0:0:0:
414,291,64575,1,0,0:0:0:0:
443,314,64661,1,0,0:0:0:0:
420,334,64747,1,0,0:0:0:0:
383,338,64832,5,0,0:0:0:0:
345,337,64918,1,0,0:0:0:0:
308,335,65004,1,0,0:0:0:0:
270,332,65090,1,0,0:0:0:0:
233,328,65175,1,0,0:0:0:0:
196,323,65261,1,0,0:0:0:0:
159,317,65347,5,0,0:0:0:0:
122,310,65432,1,0,0:0:0:0:
85,302,65518,1,0,0:0:0:0:
49,292,65604,1,0,0:0:0:0:
14,279,65690,1,0,0:0:0:0:
4,252,65775,5,0,0:0:0:0:
40,242,65861,1,0,0:0:0:0:
77,239,65947,1,0,0:0:0:0:
288,224,66290,5,0,0:0:0:0:
288,144,66633,1,0,0:0:0:0:
176,224,66975,5,0,0:0:0:0:
96,144,67318,2,0,P|112:80|256:64,1,225.000008583069
368,112,68004,1,0,0:0:0:0:
256,128,68175,1,0,0:0:0:0:
176,192,68347,1,0,0:0:0:0:
160,288,68518,1,0,0:0:0:0:
240,256,68690,2,0,P|272:224|256:192,1,75.0000028610231
224,144,69033,2,0,P|224:64|240:64,1,100
288,96,69375,2,0,P|288:16|272:16,1,100
160,16,69718,2,0,L|48:16,1,100
64,96,70061,5,0,0:0:0:0:
82,98,70146,1,0,0:0:0:0:
100,104,70232,1,0,0:0:0:0:
115,115,70318,1,0,0:0:0:0:
128,128,70404,5,0,0:0:0:0:
64,176,70575,1,0,0:0:0:0:
144,224,70747,1,0,0:0:0:0:
64,272,70918,1,0,0:0:0:0:
144,320,71090,2,0,L|224:272,1,75.0000028610231
240,208,71433,6,0,P|208:176|224:160,1,75.0000028610231
336,160,71775,2,0,P|352:176|320:208,1,75.0000028610231
288,272,72118,2,0,P|336:304|384:304,1,75.0000028610231
448,256,72461,1,0,0:0:0:0:
432,176,72633,1,0,0:0:0:0:
512,208,72804,6,0,P|528:160|512:144,1,75.0000028610231
448,64,73147,2,0,L|400:64,2,37.5000014305115
352,128,73661,1,0,0:0:0:0:
320,48,73833,2,0,P|272:48|224:64,1,75.0000028610231
224,128,74176,5,0,0:0:0:0:
228,162,74261,1,0,0:0:0:0:
197,177,74347,1,0,0:0:0:0:
144,128,74519,6,0,P|96:160|112:176,1,75.0000028610231
128,224,74861,5,0,0:0:0:0:
132,258,74946,1,0,0:0:0:0:
101,273,75032,1,0,0:0:0:0:
48,208,75204,2,0,L|0:192,2,37.5000014305115
32,128,75547,2,0,L|80:112,1,37.5000014305115
144,80,75890,2,0,P|160:64|176:64,1,37.5000014305115
224,128,76233,5,0,0:0:0:0:
320,80,76404,1,0,0:0:0:0:
320,192,76576,1,0,0:0:0:0:
416,144,76747,1,0,0:0:0:0:
400,240,76918,2,0,L|320:304,1,100
224,304,77261,1,0,0:0:0:0:
184,272,77346,1,0,0:0:0:0:
145,241,77432,5,0,0:0:0:0:
144,144,77604,2,0,L|240:64,1,100
320,80,77947,1,0,0:0:0:0:
355,115,78032,1,0,0:0:0:0:
390,150,78118,1,0,0:0:0:0:
400,240,78290,6,0,P|352:256|336:240,1,75.0000028610231
432,176,78804,1,0,0:0:0:0:
352,176,78975,2,0,P|320:160|288:176,1,75.0000028610231
256,240,79490,1,0,0:0:0:0:
176,240,79661,6,0,P|112:224|112:208,1,75.0000028610231
160,160,80004,1,0,0:0:0:0:
130,137,80089,1,0,0:0:0:0:
100,115,80175,1,0,0:0:0:0:
176,80,80347,2,0,P|208:16|224:16,1,75.0000028610231
256,80,80690,2,0,P|272:112|320:112,1,75.0000028610231
336,48,81033,6,0,L|400:112,1,75.0000028610231
208,208,81375,1,0,0:0:0:0:
245,208,81460,1,0,0:0:0:0:
283,208,81546,1,0,0:0:0:0:
320,208,81632,1,0,0:0:0:0:
358,208,81717,5,0,0:0:0:0:
395,208,81803,1,0,0:0:0:0:
433,208,81889,1,0,0:0:0:0:
432,304,82061,2,0,P|352:272|336:256,1,75.0000028610231
288,304,82405,1,0,0:0:0:0:
251,296,82490,5,0,0:0:0:0:
218,279,82576,1,0,0:0:0:0:
144,304,82747,2,0,P|64:272|48:256,1,75.0000028610231
96,208,83090,5,0,0:0:0:0:
122,181,83175,1,0,0:0:0:0:
208,176,83433,2,0,L|240:208,1,37.5000014305115
320,160,83776,5,0,0:0:0:0:
400,112,83947,1,0,0:0:0:0:
320,48,84119,2,0,L|272:48,4,37.5000014305115
192,80,84804,1,0,0:0:0:0:
96,80,84975,5,0,0:0:0:0:
144,144,85147,2,0,L|208:192,1,75.0000028610231
288,144,85490,1,0,0:0:0:0:
320,208,85661,1,0,0:0:0:0:
224,256,85833,2,0,L|144:320,1,75.0000028610231
96,240,86175,5,0,0:0:0:0:
160,176,86347,1,0,0:0:0:0:
240,128,86518,1,0,0:0:0:0:
336,112,86690,1,0,0:0:0:0:
432,192,86861,1,0,0:0:0:0:
394,191,86946,1,0,0:0:0:0:
357,195,87032,1,0,0:0:0:0:
320,202,87118,5,0,0:0:0:0:
285,214,87203,1,0,0:0:0:0:
251,230,87289,1,0,0:0:0:0:
219,250,87375,1,0,0:0:0:0:
189,273,87461,1,0,0:0:0:0:
163,300,87546,5,0,0:0:0:0:
128,336,87633,1,0,0:0:0:0:
96,368,87718,1,0,0:0:0:0:
256,192,87890,12,0,89261,0:0:0:0:
112,96,89604,5,0,0:0:0:0:
64,208,89947,1,0,0:0:0:0:
112,320,90290,2,0,L|160:304,1,37.5000014305115
176,208,90633,2,0,L|208:112,1,75.0000028610231
272,192,90975,2,0,P|272:144|304:128,1,75.0000028610231
352,192,91318,5,0,0:0:0:0:
371,221,91403,1,0,0:0:0:0:
355,253,91489,1,0,0:0:0:0:
288,320,91661,2,0,L|192:288,1,75.0000028610231
112,256,92004,1,0,0:0:0:0:
134,226,92089,5,0,0:0:0:0:
144,190,92175,1,0,0:0:0:0:
64,160,92347,1,0,0:0:0:0:
144,80,92518,1,0,0:0:0:0:
256,64,92690,1,0,0:0:0:0:
208,160,92861,5,0,0:0:0:0:
192,240,93033,1,0,0:0:0:0:
272,256,93204,1,0,0:0:0:0:
304,192,93375,2,0,L|304:144,1,37.5000014305115
336,80,93718,1,0,0:0:0:0:
416,16,93890,1,0,0:0:0:0:
416,112,94061,1,0,0:0:0:0:
416,162,94146,5,0,0:0:0:0:
416,212,94232,1,0,0:0:0:0:
384,288,94404,6,0,L|304:352,1,100
240,304,94747,1,0,0:0:0:0:
272,176,94918,1,0,0:0:0:0:
160,224,95090,1,0,0:0:0:0:
192,96,95261,1,0,0:0:0:0:
80,144,95433,1,0,0:0:0:0:
112,16,95604,1,0,0:0:0:0:
192,96,95775,5,0,0:0:0:0:
272,176,95947,1,0,0:0:0:0:
352,96,96118,1,0,0:0:0:0:
272,16,96290,1,0,0:0:0:0:
192,176,96461,1,0,0:0:0:0:
352,176,96633,1,0,0:0:0:0:
192,16,96804,1,0,0:0:0:0:
352,16,96975,5,0,0:0:0:0:
272,96,97147,1,0,0:0:0:0:
272,224,97318,1,0,0:0:0:0:
384,160,97490,1,0,0:0:0:0:
384,288,97661,1,0,0:0:0:0:
272,224,97833,5,0,0:0:0:0:
160,288,98004,1,0,0:0:0:0:
160,160,98175,1,0,0:0:0:0:
272,224,98347,1,0,0:0:0:0:
272,128,98518,1,0,0:0:0:0:
272,32,98690,1,0,0:0:0:0:
256,192,98861,12,0,100233,0:0:0:0:
96,112,100575,5,0,0:0:0:0:
192,48,100747,1,0,0:0:0:0:
288,112,100918,2,0,P|304:144|304:160,1,37.5000014305115
224,160,101261,2,0,P|240:192|240:208,1,37.5000014305115
144,208,101604,1,0,0:0:0:0:
48,256,101775,5,0,0:0:0:0:
59,270,101860,1,0,0:0:0:0:
78,272,101946,1,0,0:0:0:0:
176,320,102118,1,0,0:0:0:0:
272,272,102290,1,0,0:0:0:0:
282,287,102375,5,0,0:0:0:0:
288,305,102461,1,0,0:0:0:0:
384,272,102633,5,0,0:0:0:0:
480,304,102804,1,0,0:0:0:0:
448,208,102975,2,0,L|432:160,1,37.5000014305115
384,96,103318,1,0,0:0:0:0:
366,89,103403,1,0,0:0:0:0:
349,82,103490,5,0,0:0:0:0:
331,75,103575,1,0,0:0:0:0:
314,68,103660,1,0,0:0:0:0:
240,128,103833,5,0,0:0:0:0:
160,160,104004,2,0,P|144:192|144:208,1,37.5000014305115
224,208,104347,1,0,0:0:0:0:
224,226,104432,1,0,0:0:0:0:
224,245,104518,1,0,0:0:0:0:
320,208,104690,5,0,0:0:0:0:
416,176,104861,1,0,0:0:0:0:
400,272,105033,1,0,0:0:0:0:
384,281,105118,1,0,0:0:0:0:
368,288,105204,1,0,0:0:0:0:
288,304,105375,5,0,0:0:0:0:
192,304,105547,1,0,0:0:0:0:
96,304,105718,2,0,L|96:256,1,37.5000014305115
96,208,106061,1,0,0:0:0:0:
96,189,106146,1,0,0:0:0:0:
96,170,106232,5,0,0:0:0:0:
96,151,106318,1,0,0:0:0:0:
96,133,106403,1,0,0:0:0:0:
208,80,106575,5,0,0:0:0:0:
320,128,106747,1,0,0:0:0:0:
320,240,106918,1,0,0:0:0:0:
224,176,107090,2,0,P|208:192|208:208,1,37.5000014305115
224,304,107433,1,0,0:0:0:0:
320,336,107604,1,0,0:0:0:0:
416,304,107775,5,0,0:0:0:0:
416,285,107860,1,0,0:0:0:0:
416,266,107946,1,0,0:0:0:0:
416,160,108118,5,0,0:0:0:0:
304,96,108290,1,0,0:0:0:0:
208,96,108461,2,0,B|144:128|160:160|160:160|96:160|96:160|160:208|160:208|80:224|80:224|176:288|176:288|80:304,1,525.000020027161
160,368,109833,6,0,L|256:368,1,75.0000028610231
320,304,110175,1,0,0:0:0:0:
448,240,110347,1,0,0:0:0:0:
336,160,110518,2,0,L|288:96,1,75.0000028610231
224,48,110861,1,0,0:0:0:0:
112,16,111033,1,0,0:0:0:0:
32,96,111204,6,0,L|32:208,1,100
128,96,111547,6,0,L|128:208,1,100
224,96,111890,2,0,L|224:208,1,100
320,96,112233,2,0,L|320:208,1,100
416,96,112575,6,0,L|416:208,1,100
512,96,112918,2,0,L|512:208,1,100
416,192,113261,1,0,0:0:0:0:
336,256,113604,1,0,0:0:0:0:
480,256,113947,6,0,L|480:368,1,100
384,256,114290,2,0,L|384:368,1,100
288,352,114633,2,0,L|288:240,1,100
192,256,114975,2,0,L|192:368,1,100
96,352,115318,2,0,L|96:240,1,100
0,352,115661,2,0,L|0:240,1,100
304,144,116004,5,0,0:0:0:0:
400,144,116347,1,0,0:0:0:0:
496,80,116690,2,0,L|496:192,1,100
496,256,117033,2,0,L|416:336,1,100
336,336,117375,2,0,L|256:240,1,100
176,256,117718,2,0,L|96:336,1,100
64,240,118061,6,0,L|64:128,1,100
112,64,118404,2,0,L|192:144,1,100
240,64,118747,1,0,0:0:0:0:
336,64,119090,1,0,0:0:0:0:
432,16,119433,2,0,L|432:144,1,100
432,208,119775,2,0,B|480:256|480:256|448:304,1,100
384,272,120118,2,0,B|352:320|352:320|304:288,1,100
240,256,120461,6,0,B|192:304|192:304|208:336,1,100
112,336,120804,2,0,B|64:304|64:304|96:272,1,100
96,192,121147,2,0,L|32:96,1,100
160,112,121490,1,0,0:0:0:0:
256,112,121833,1,0,0:0:0:0:
352,112,122175,6,0,L|352:144,1,25
432,176,122518,1,0,0:0:0:0:
352,256,122690,1,0,0:0:0:0:
464,288,122861,2,0,L|448:320,1,25
368,352,123204,5,0,0:0:0:0:
240,288,123375,1,0,0:0:0:0:
112,352,123547,2,0,L|96:320,1,25
176,208,123890,2,0,L|208:224,1,25
320,288,124233,1,0,0:0:0:0:
240,320,124575,5,0,0:0:0:0:
160,288,124918,1,0,0:0:0:0:
147,285,125003,1,0,0:0:0:0:
135,282,125089,1,0,0:0:0:0:
124,276,125175,1,0,0:0:0:0:
114,269,125260,1,0,0:0:0:0:
104,261,125346,5,0,0:0:0:0:
96,252,125432,1,0,0:0:0:0:
90,241,125518,1,0,0:0:0:0:
84,230,125603,1,0,0:0:0:0:
81,218,125689,1,0,0:0:0:0:
79,205,125775,1,0,0:0:0:0:
79,193,125860,5,0,0:0:0:0:
81,180,125946,1,0,0:0:0:0:
85,168,126032,1,0,0:0:0:0:
90,157,126118,1,0,0:0:0:0:
97,147,126203,1,0,0:0:0:0:
105,137,126289,5,0,0:0:0:0:
114,129,126375,1,0,0:0:0:0:
125,122,126460,1,0,0:0:0:0:
136,117,126546,1,0,0:0:0:0:
148,113,126632,1,0,0:0:0:0:
176,192,126975,1,0,0:0:0:0:
256,128,127318,5,0,0:0:0:0:
400,176,127661,1,0,0:0:0:0:
404,164,127746,1,0,0:0:0:0:
407,152,127832,1,0,0:0:0:0:
408,139,127918,1,0,0:0:0:0:
408,127,128003,5,0,0:0:0:0:
405,115,128089,1,0,0:0:0:0:
401,103,128175,1,0,0:0:0:0:
395,92,128261,1,0,0:0:0:0:
388,82,128346,1,0,0:0:0:0:
379,73,128432,5,0,0:0:0:0:
370,65,128518,1,0,0:0:0:0:
359,59,128603,1,0,0:0:0:0:
347,54,128689,1,0,0:0:0:0:
335,51,128775,1,0,0:0:0:0:
322,50,128861,5,0,0:0:0:0:
310,51,128946,1,0,0:0:0:0:
298,53,129032,1,0,0:0:0:0:
286,57,129118,1,0,0:0:0:0:
275,63,129203,1,0,0:0:0:0:
265,71,129289,5,0,0:0:0:0:
256,79,129375,1,0,0:0:0:0:
400,208,129718,1,0,0:0:0:0:
352,288,130061,1,0,0:0:0:0:
272,336,130404,2,0,B|176:320|160:304|160:144,1,250
256,176,132461,1,0,0:0:0:0:
256,96,132804,1,0,0:0:0:0:
256,16,133147,1,0,0:0:0:0:
