osu file format v14

[General]
AudioFilename: audio.mp3
AudioLeadIn: 0
PreviewTime: 60373
Countdown: 0
SampleSet: Soft
StackLeniency: 0.4
Mode: 0
LetterboxInBreaks: 0
WidescreenStoryboard: 1

[Editor]
Bookmarks: 12373,24760,37147,49534,61921,74308,86695,99082,111469,123856,136244,148631,161018,173405,185792,198179
DistanceSpacing: 1.5
BeatDivisor: 4
GridSize: 4
TimelineZoom: 2.700001

[Metadata]
Title:Violence
TitleUnicode:Violence
Artist:Tristam
ArtistUnicode:Tristam
Creator:elicz1
Version:Innocent
Source:
Tags:maybe i'm done with the Altai Lazarus Xoul Gordon UndeadPhoneGuy alternative indie pop album 2020 english electronic dance music edm male vocals melodic dubstep piano im oxygen
BeatmapID:2787411
BeatmapSetID:1346009

[Difficulty]
HPDrainRate:5.5
CircleSize:3.8
OverallDifficulty:8
ApproachRate:9
SliderMultiplier:1.65
SliderTickRate:1

[Events]
//Background and Video events
0,0,"violencebg1.jpg",0,0
//Break Periods
//Storyboard Layer 0 (Background)
//Storyboard Layer 1 (Fail)
//Storyboard Layer 2 (Pass)
//Storyboard Layer 3 (Foreground)
//Storyboard Layer 4 (Overlay)
//Storyboard Sound Samples

[TimingPoints]
-14,387.096774193548,4,2,1,45,1,0
11211,-100,4,2,1,5,0,0
11598,-111.111111111111,4,2,1,45,0,0
13147,-142.857142857143,4,2,1,45,0,0
13437,-142.857142857143,4,2,1,5,0,0
13534,-142.857142857143,4,2,1,45,0,0
14502,-166.666666666667,4,2,1,45,0,0
14986,-166.666666666667,4,2,1,5,0,0
15082,-166.666666666667,4,2,1,45,0,0
16244,-200,4,2,1,45,0,0
17598,-200,4,2,1,45,0,0
18373,-111.111111111111,4,2,1,45,0,0
18953,-125,4,2,1,45,0,0
19340,-166.666666666667,4,2,1,45,0,0
19727,-250,4,2,1,45,0,0
20115,-333.333333333336,4,2,1,45,0,0
20889,-142.857142857143,4,2,1,45,0,0
21663,-111.111111111111,4,2,1,45,0,0
22437,-166.666666666667,4,2,1,45,0,0
24760,-111.111111111111,4,2,1,45,0,0
25340,-142.857142857143,4,2,1,45,0,0
27082,-166.666666666667,4,2,1,45,0,0
27953,-166.666666666667,4,2,1,5,0,0
28050,-125,4,2,1,45,0,0
28727,-125,4,2,1,5,0,0
28824,-125,4,2,1,45,0,0
29986,-142.857142857143,4,2,1,45,0,0
30953,-125,4,2,1,45,0,0
31727,-142.857142857143,4,2,1,45,0,0
32115,-200,4,2,1,45,0,0
32502,-333.333333333336,4,2,1,45,0,0
33276,-142.857142857143,4,2,1,45,0,0
33856,-125,4,2,1,45,0,0
34244,-125,4,2,1,5,0,0
34437,-142.857142857143,4,2,1,45,0,0
35211,-142.857142857143,4,2,1,5,0,0
35598,-125,4,2,1,45,0,0
36663,-125,4,2,1,5,0,0
36760,-125,4,2,1,45,0,0
37147,-125,4,2,1,50,0,0
38211,-125,4,2,1,5,0,0
38308,-125,4,2,1,50,0,0
38695,-142.857142857143,4,2,1,50,0,0
39760,-142.857142857143,4,2,1,5,0,0
39856,-142.857142857143,4,2,1,50,0,0
40244,-166.666666666667,4,2,1,50,0,0
41308,-166.666666666667,4,2,1,5,0,0
41405,-166.666666666667,4,2,1,50,0,0
41792,-200,4,2,1,50,0,0
42566,-111.111111111111,4,2,1,50,0,0
42856,-111.111111111111,4,2,1,5,0,0
42953,-111.111111111111,4,2,1,50,0,0
43340,-125,4,2,1,50,0,0
43631,-125,4,2,1,5,0,0
43727,-125,4,2,1,50,0,0
44115,-142.857142857143,4,2,1,50,0,0
44405,-142.857142857143,4,2,1,5,0,0
44502,-166.666666666667,4,2,1,50,0,0
44889,-200,4,2,1,50,0,0
46437,-125,4,2,1,50,0,0
47986,-111.111111111111,4,2,1,50,0,0
49050,-111.111111111111,4,2,1,5,0,0
49147,-111.111111111111,4,2,1,50,0,0
49534,-111.111111111111,4,2,1,60,0,0
50598,-111.111111111111,4,2,1,5,0,0
50695,-111.111111111111,4,2,1,60,0,0
52147,-111.111111111111,4,2,1,5,0,0
52244,-111.111111111111,4,2,1,60,0,0
53695,-111.111111111111,4,2,1,5,0,0
53792,-111.111111111111,4,2,1,60,0,0
55244,-111.111111111111,4,2,1,5,0,0
55340,-111.111111111111,4,2,1,60,0,0
55727,-111.111111111111,4,2,1,70,0,0
56018,-111.111111111111,4,2,1,5,0,0
56115,-111.111111111111,4,2,1,70,0,0
56792,-111.111111111111,4,2,1,5,0,0
56889,-111.111111111111,4,2,1,70,0,0
57276,-125,4,2,1,70,0,0
57953,-125,4,2,1,5,0,0
58050,-125,4,2,1,70,0,0
58727,-125,4,2,1,5,0,0
58824,-142.857142857143,4,2,1,75,0,0
59211,-142.857142857143,4,2,1,65,0,0
59598,-142.857142857143,4,2,1,55,0,0
59986,-142.857142857143,4,2,1,45,0,0
60373,-142.857142857143,4,2,1,50,0,0
61050,-142.857142857143,4,2,1,5,0,0
61147,-142.857142857143,4,2,1,50,0,0
61921,-41.6666666666667,4,2,2,80,0,1
62018,-41.6666666666667,4,2,1,80,0,1
62308,-52.6315789473684,4,2,1,80,0,1
62598,-52.6315789473684,4,2,1,5,0,1
62695,-52.6315789473684,4,2,1,80,0,1
63082,-250,4,2,1,80,0,1
63469,-76.9230769230769,4,2,1,80,0,1
64244,-62.5,4,2,1,80,0,1
64534,-62.5,4,2,1,5,0,1
64631,-62.5,4,2,1,80,0,1
65018,-41.6666666666667,4,2,7,80,0,1
65115,-41.6666666666667,4,2,1,80,0,1
65405,-52.6315789473684,4,2,1,80,0,1
65695,-52.6315789473684,4,2,1,5,0,1
65792,-52.6315789473684,4,2,1,80,0,1
66179,-250,4,2,1,80,0,1
66566,-76.9230769230769,4,2,1,80,0,1
67340,-62.5,4,2,1,80,0,1
67631,-62.5,4,2,1,5,0,1
67727,-62.5,4,2,1,80,0,1
68115,-41.6666666666667,4,2,3,80,0,1
68211,-41.6666666666667,4,2,1,80,0,1
68502,-52.6315789473684,4,2,1,80,0,1
68792,-52.6315789473684,4,2,1,5,0,1
68889,-62.5,4,2,1,80,0,1
69179,-62.5,4,2,1,5,0,1
69276,-250,4,2,1,80,0,1
69663,-76.9230769230769,4,2,1,80,0,1
70340,-76.9230769230769,4,2,1,5,0,1
70437,-52.6315789473684,4,2,1,80,0,1
70727,-52.6315789473684,4,2,1,5,0,1
70824,-52.6315789473684,4,2,1,80,0,1
71211,-52.6315789473684,4,2,4,80,0,1
71308,-52.6315789473684,4,2,1,80,0,1
71598,-52.6315789473684,4,2,1,80,0,1
71695,-52.6315789473684,4,2,1,80,0,1
71986,-62.5,4,2,1,80,0,1
72276,-62.5,4,2,1,5,0,1
72373,-250,4,2,1,80,0,1
72760,-76.9230769230769,4,2,1,80,0,1
73437,-76.9230769230769,4,2,1,5,0,1
73534,-62.5,4,2,1,80,0,1
73824,-62.5,4,2,1,5,0,1
73921,-62.5,4,2,1,80,0,1
74308,-41.6666666666667,4,2,2,80,0,1
74405,-41.6666666666667,4,2,1,80,0,1
74695,-52.6315789473684,4,2,1,80,0,1
74985,-52.6315789473684,4,2,1,5,0,1
75082,-52.6315789473684,4,2,1,80,0,1
75469,-250,4,2,1,80,0,1
75856,-76.9230769230769,4,2,1,80,0,1
76631,-62.5,4,2,1,80,0,1
76921,-62.5,4,2,1,5,0,1
77018,-62.5,4,2,1,80,0,1
77405,-41.6666666666667,4,2,7,80,0,1
77502,-41.6666666666667,4,2,1,80,0,1
77792,-52.6315789473684,4,2,1,80,0,1
78082,-52.6315789473684,4,2,1,5,0,1
78179,-52.6315789473684,4,2,1,80,0,1
78566,-250,4,2,1,80,0,1
78953,-76.9230769230769,4,2,1,80,0,1
79727,-62.5,4,2,1,80,0,1
80018,-62.5,4,2,1,5,0,1
80114,-62.5,4,2,1,80,0,1
80502,-41.6666666666667,4,2,3,80,0,1
80598,-41.6666666666667,4,2,1,80,0,1
80889,-52.6315789473684,4,2,1,80,0,1
81179,-52.6315789473684,4,2,1,5,0,1
81276,-62.5,4,2,1,80,0,1
81566,-62.5,4,2,1,5,0,1
81663,-250,4,2,1,80,0,1
82050,-76.9230769230769,4,2,1,80,0,1
82727,-76.9230769230769,4,2,1,5,0,1
82824,-52.6315789473684,4,2,1,80,0,1
83114,-52.6315789473684,4,2,1,5,0,1
83211,-52.6315789473684,4,2,1,80,0,1
83598,-52.6315789473684,4,2,4,80,0,1
83695,-52.6315789473684,4,2,1,80,0,1
83985,-52.6315789473684,4,2,1,80,0,1
84082,-52.6315789473684,4,2,1,80,0,1
84373,-62.5,4,2,1,80,0,1
84663,-62.5,4,2,1,5,0,1
84760,-250,4,2,1,80,0,1
85147,-83.3333333333333,4,2,1,80,0,0
85824,-83.3333333333333,4,2,1,5,0,0
85921,-83.3333333333333,4,2,1,80,0,0
86211,-83.3333333333333,4,2,1,5,0,0
86308,-83.3333333333333,4,2,1,80,0,0
86695,-100,4,2,1,50,0,0
86792,-100,4,2,1,40,0,0
87373,-100,4,2,1,5,0,0
87469,-100,4,2,1,40,0,0
89018,-111.111111111111,4,2,1,40,0,0
89792,-111.111111111111,4,2,1,35,0,0
90566,-125,4,2,1,35,0,0
92115,-142.857142857143,4,2,1,35,0,0
92889,-125,4,2,1,30,0,0
93179,-125,4,2,1,5,0,0
93276,-125,4,2,1,30,0,0
94437,-142.857142857143,4,2,1,30,0,0
95986,-166.666666666667,4,2,1,25,0,0
97534,-250.000000000001,4,2,1,25,0,0
98211,-100,4,2,1,5,0,0
98307,-105.263157894737,4,2,1,45,0,0
99082,-105.263157894737,4,2,1,50,0,0
99856,-133.333333333333,4,2,1,50,0,0
100534,-133.333333333333,4,2,1,5,0,0
100631,-133.333333333333,4,2,1,50,0,0
101405,-153.846153846154,4,2,1,50,0,0
102953,-181.818181818182,4,2,1,50,0,0
104018,-181.818181818182,4,2,1,5,0,0
104115,-181.818181818182,4,2,1,50,0,0
105179,-181.818181818182,4,2,1,5,0,0
105276,-105.263157894737,4,2,1,50,0,0
105662,-117.647058823529,4,2,1,50,0,0
106049,-153.846153846154,4,2,1,50,0,0
106824,-285.714285714286,4,2,1,50,0,0
107598,-133.333333333333,4,2,1,50,0,0
108372,-105.263157894737,4,2,1,50,0,0
109146,-153.846153846154,4,2,1,50,0,0
111469,-105.263157894737,4,2,1,50,0,0
112244,-133.333333333333,4,2,1,50,0,0
113791,-117.647058823529,4,2,1,50,0,0
114663,-117.647058823529,4,2,1,5,0,0
114759,-133.333333333333,4,2,1,50,0,0
115534,-153.846153846154,4,2,1,50,0,0
116695,-133.333333333333,4,2,1,50,0,0
117662,-117.647058823529,4,2,1,50,0,0
118050,-133.333333333333,4,2,1,50,0,0
118436,-153.846153846154,4,2,1,50,0,0
118824,-181.818181818182,4,2,1,50,0,0
119211,-285.714285714286,4,2,1,50,0,0
119985,-105.263157894737,4,2,1,50,0,0
120565,-117.647058823529,4,2,1,50,0,0
120856,-117.647058823529,4,2,1,5,0,0
121050,-133.333333333333,4,2,1,50,0,0
121824,-133.333333333333,4,2,1,5,0,0
122211,-117.647058823529,4,2,1,50,0,0
123373,-117.647058823529,4,2,1,5,0,0
123469,-117.647058823529,4,2,1,50,0,0
123856,-111.111111111111,4,2,1,55,0,0
124631,-111.111111111111,4,2,1,55,0,0
126953,-133.333333333333,4,2,1,55,0,0
129566,-133.333333333333,4,2,1,5,0,0
129663,-133.333333333333,4,2,1,55,0,0
130050,-117.647058823529,4,2,1,55,0,0
130340,-117.647058823529,4,2,1,5,0,0
130437,-117.647058823529,4,2,1,55,0,0
131115,-117.647058823529,4,2,1,5,0,0
131211,-117.647058823529,4,2,1,55,0,0
131598,-142.857142857143,4,2,1,55,0,0
134695,-111.111111111111,4,2,1,55,0,0
135760,-111.111111111111,4,2,1,5,0,0
135856,-111.111111111111,4,2,1,55,0,0
136244,-105.263157894737,4,2,1,60,0,0
139340,-125,4,2,1,60,0,0
141953,-125,4,2,1,5,0,0
142050,-125,4,2,1,60,0,0
142437,-111.111111111111,4,2,1,70,0,0
142727,-111.111111111111,4,2,1,5,0,0
142824,-111.111111111111,4,2,1,70,0,0
143502,-111.111111111111,4,2,1,5,0,0
143598,-111.111111111111,4,2,1,70,0,0
145534,-111.111111111111,4,2,1,65,0,0
146308,-111.111111111111,4,2,1,70,0,0
147082,-142.857142857143,4,2,1,50,0,0
147760,-142.857142857143,4,2,1,5,0,0
147856,-142.857142857143,4,2,1,50,0,0
148631,-41.6666666666667,4,2,2,80,0,1
148727,-41.6666666666667,4,2,1,80,0,1
149018,-52.6315789473684,4,2,1,80,0,1
149308,-52.6315789473684,4,2,1,5,0,1
149405,-52.6315789473684,4,2,1,80,0,1
149792,-250,4,2,1,80,0,1
150083,-250,4,2,1,5,0,1
150179,-76.9230769230769,4,2,1,80,0,1
150953,-62.5,4,2,1,80,0,1
151244,-62.5,4,2,1,5,0,1
151341,-62.5,4,2,1,80,0,1
151727,-41.6666666666667,4,2,7,80,0,1
151824,-41.6666666666667,4,2,1,80,0,1
152115,-52.6315789473684,4,2,1,80,0,1
152405,-52.6315789473684,4,2,1,5,0,1
152502,-52.6315789473684,4,2,1,80,0,1
152889,-250,4,2,1,80,0,1
153276,-76.9230769230769,4,2,1,80,0,1
154050,-62.5,4,2,1,80,0,1
154341,-62.5,4,2,1,5,0,1
154437,-62.5,4,2,1,80,0,1
154824,-41.6666666666667,4,2,3,80,0,1
154921,-41.6666666666667,4,2,1,80,0,1
155211,-52.6315789473684,4,2,1,80,0,1
155502,-52.6315789473684,4,2,1,5,0,1
155598,-62.5,4,2,1,80,0,1
155889,-62.5,4,2,1,5,0,1
155986,-250,4,2,1,80,0,1
156373,-76.9230769230769,4,2,1,80,0,1
157050,-76.9230769230769,4,2,1,5,0,1
157147,-52.6315789473684,4,2,1,80,0,1
157437,-52.6315789473684,4,2,1,5,0,1
157534,-52.6315789473684,4,2,1,80,0,1
157921,-52.6315789473684,4,2,4,80,0,1
158018,-52.6315789473684,4,2,1,80,0,1
158308,-52.6315789473684,4,2,1,80,0,1
158405,-52.6315789473684,4,2,1,80,0,1
158695,-62.5,4,2,1,80,0,1
158986,-62.5,4,2,1,5,0,1
159082,-250,4,2,1,80,0,1
159469,-76.9230769230769,4,2,1,80,0,1
160147,-76.9230769230769,4,2,1,5,0,1
160244,-62.5,4,2,1,80,0,1
160534,-62.5,4,2,1,5,0,1
160631,-62.5,4,2,1,80,0,1
161018,-41.6666666666667,4,2,2,80,0,1
161115,-41.6666666666667,4,2,1,80,0,1
161405,-52.6315789473684,4,2,1,80,0,1
161695,-52.6315789473684,4,2,1,5,0,1
161792,-52.6315789473684,4,2,1,80,0,1
162179,-250,4,2,1,80,0,1
162470,-250,4,2,1,5,0,1
162566,-76.9230769230769,4,2,1,80,0,1
163340,-62.5,4,2,1,80,0,1
163631,-62.5,4,2,1,5,0,1
163728,-62.5,4,2,1,80,0,1
164115,-41.6666666666667,4,2,7,80,0,1
164211,-41.6666666666667,4,2,1,80,0,1
164502,-52.6315789473684,4,2,1,80,0,1
164792,-52.6315789473684,4,2,1,5,0,1
164889,-52.6315789473684,4,2,1,80,0,1
165276,-250,4,2,1,80,0,1
165663,-76.9230769230769,4,2,1,80,0,1
166437,-62.5,4,2,1,80,0,1
166728,-62.5,4,2,1,5,0,1
166824,-62.5,4,2,1,80,0,1
167211,-41.6666666666667,4,2,3,80,0,1
167308,-41.6666666666667,4,2,1,80,0,1
167598,-52.6315789473684,4,2,1,80,0,1
167889,-52.6315789473684,4,2,1,5,0,1
167986,-62.5,4,2,1,80,0,1
168276,-62.5,4,2,1,5,0,1
168373,-250,4,2,1,80,0,1
168760,-76.9230769230769,4,2,1,80,0,1
169437,-76.9230769230769,4,2,1,5,0,1
169534,-52.6315789473684,4,2,1,80,0,1
169824,-52.6315789473684,4,2,1,5,0,1
169921,-52.6315789473684,4,2,1,80,0,1
170308,-52.6315789473684,4,2,4,80,0,1
170405,-52.6315789473684,4,2,1,80,0,1
170695,-52.6315789473684,4,2,1,80,0,1
170792,-52.6315789473684,4,2,1,80,0,1
171082,-62.5,4,2,1,80,0,1
171373,-62.5,4,2,1,5,0,1
171469,-250,4,2,1,80,0,1
171856,-76.9230769230769,4,2,1,80,0,1
172534,-76.9230769230769,4,2,1,5,0,1
172631,-62.5,4,2,1,80,0,1
172921,-62.5,4,2,1,5,0,1
173018,-62.5,4,2,1,80,0,1
173405,-41.6666666666667,4,2,2,80,0,1
173502,-41.6666666666667,4,2,1,80,0,1
173792,-52.6315789473684,4,2,1,80,0,1
174082,-52.6315789473684,4,2,1,5,0,1
174179,-62.5,4,2,1,80,0,1
174469,-62.5,4,2,1,5,0,1
174566,-76.9230769230769,4,2,1,80,0,1
174953,-76.9230769230769,4,2,6,80,0,1
175050,-76.9230769230769,4,2,1,80,0,1
175631,-76.9230769230769,4,2,1,5,0,1
175727,-62.5,4,2,1,80,0,1
176502,-41.6666666666667,4,2,7,80,0,1
176598,-41.6666666666667,4,2,1,80,0,1
177276,-62.5,4,2,1,80,0,1
177566,-62.5,4,2,1,5,0,1
177663,-62.5,4,2,1,80,0,1
178050,-76.9230769230769,4,2,8,80,0,1
178147,-76.9230769230769,4,2,1,80,0,1
178727,-76.9230769230769,4,2,1,5,0,1
178824,-62.5,4,2,1,80,0,1
179598,-41.6666666666667,4,2,7,80,0,1
179695,-41.6666666666667,4,2,1,80,0,1
179889,-41.6666666666667,4,2,1,5,0,1
179986,-52.6315789473684,4,2,1,80,0,1
180373,-62.5,4,2,1,80,0,1
180663,-62.5,4,2,1,5,0,1
180760,-62.5,4,2,1,80,0,1
181147,-76.9230769230769,4,2,8,80,0,1
181244,-76.9230769230769,4,2,1,80,0,1
181824,-76.9230769230769,4,2,1,5,0,1
181921,-62.5,4,2,1,80,0,1
182695,-41.6666666666667,4,2,6,80,0,1
182792,-41.6666666666667,4,2,1,80,0,1
183082,-52.6315789473684,4,2,1,80,0,1
183373,-62.5,4,2,1,5,0,1
183469,-62.5,4,2,1,80,0,1
184147,-62.5,4,2,1,5,0,1
184244,-142.857142857143,4,2,1,60,0,0
184921,-142.857142857143,4,2,1,5,0,0
185018,-142.857142857143,4,2,1,60,0,0
185792,-166.666666666667,4,2,1,45,0,0
197308,-166.666666666667,4,2,1,5,0,0
197405,-166.666666666667,4,2,1,45,0,0
198179,-250,4,2,1,30,0,0
198953,-250,4,2,1,5,0,0
199727,-250,4,2,1,30,0,0
200502,-250,4,2,1,30,0,0
201276,-285.714285714286,4,2,1,30,0,0
202050,-285.714285714286,4,2,1,5,0,0
202824,-285.714285714286,4,2,1,30,0,0
203598,-285.714285714286,4,2,1,30,0,0
204373,-333.333333333333,4,2,1,30,0,0
205147,-333.333333333333,4,2,1,5,0,0
205921,-333.333333333333,4,2,1,30,0,0
206695,-333.333333333333,4,2,1,30,0,0
207469,-666.666666666667,4,2,1,30,0,0

[Colours]
Combo1 : 208,213,55
Combo2 : 117,170,45
Combo3 : 4,102,19
Combo4 : 19,213,184
Combo5 : 146,145,126

[HitObjects]
256,192,9276,12,0,11211,0:0:0:0:
64,139,11598,5,2,0:0:0:0:
187,97,11792,1,2,0:0:0:0:
112,76,11986,1,2,0:0:0:0:
142,159,12179,1,2,0:0:0:0:
173,253,12373,2,0,P|186:172|261:27,1,222.74999320221,0|0,1:2|0:0,0:0:0:0:
298,120,13147,6,0,P|347:124|392:142,1,86.6249973564149,2|0,0:0|0:0,0:0:0:0:
386,152,13534,1,2,0:0:0:0:
335,244,13727,2,0,P|401:172|496:152,1,173.24999471283,2|0,0:0|0:0,0:0:0:0:
512,284,14502,5,0,0:0:0:0:
429,261,14695,2,0,P|422:305|387:340,1,74.2499977340699,2|0,0:0|0:0,0:0:0:0:
387,333,15082,1,2,0:0:0:0:
317,276,15276,2,0,P|253:251|163:238,1,148.49999546814,2|0,0:0|0:0,0:0:0:0:
161,244,16244,5,2,0:0:0:0:
171,165,16437,1,2,0:0:0:0:
180,85,16631,1,2,0:0:0:0:
271,107,16824,2,0,P|317:104|351:25,1,123.75,2|0,0:0|0:0,0:0:0:0:
411,187,17598,6,0,P|421:209|423:233,1,41.25,2|0,0:0|0:0,0:0:0:0:
333,251,17986,2,0,P|323:229|322:205,1,41.25,2|0,0:0|0:0,0:0:0:0:
342,134,18373,1,2,0:0:0:0:
489,132,18566,6,0,P|451:108|409:111,1,74.2499977340699,2|0,3:2|0:0,0:0:0:0:
307,0,18953,2,0,P|304:39|288:95,1,66,2|0,0:0|0:0,0:0:0:0:
179,81,19340,2,0,P|206:91|240:115,1,49.4999984893799
215,203,19727,2,0,P|231:187|251:174,1,33
179,280,20115,6,0,P|149:272|121:271,1,49.4999984893799,0|0,3:2|0:0,0:0:0:0:
54,290,20695,1,0,0:0:0:0:
86,193,20889,6,0,P|78:160|76:113,1,57.7499982376099,2|0,0:0|0:0,0:0:0:0:
88,132,21179,1,2,0:0:0:0:
100,127,21276,1,0,0:0:0:0:
177,169,21469,1,2,0:0:0:0:
286,5,21663,2,0,P|243:58|146:33,1,148.49999546814,2|2,3:2|0:0,0:0:0:0:
162,43,22437,6,0,P|162:73|179:106,1,49.4999984893799,2|0,0:0|0:0,0:0:0:0:
261,80,22824,2,0,P|263:50|246:17,1,49.4999984893799
356,66,23211,5,2,3:2:0:0:
435,76,23405,1,0,0:0:0:0:
395,71,23598,1,0,0:0:0:0:
395,71,23986,5,2,0:0:0:0:
415,194,24179,1,2,0:0:0:0:
358,140,24373,1,2,0:0:0:0:
484,157,24566,1,2,0:0:0:0:
466,298,24760,2,0,P|395:311|358:373,1,148.49999546814,0|0,1:2|0:0,0:0:0:0:
258,267,25340,5,2,0:0:0:0:
355,329,25534,1,2,0:0:0:0:
337,249,25727,1,2,0:0:0:0:
275,347,25921,1,2,0:0:0:0:
144,285,26115,2,0,P|200:255|286:183,1,173.24999471283,2|0,0:0|0:0,0:0:0:0:
283,169,27082,5,2,0:0:0:0:
204,159,27276,1,2,0:0:0:0:
124,150,27469,1,2,0:0:0:0:
113,50,27663,2,0,P|157:73|196:75,1,74.2499977340699,2|0,0:0|0:0,0:0:0:0:
193,66,28050,5,2,0:0:0:0:
208,144,28244,1,2,0:0:0:0:
321,225,28437,2,0,P|260:221|198:241,1,99,2|0,0:0|0:0,0:0:0:0:
218,247,28824,5,2,0:0:0:0:
274,302,29018,1,2,0:0:0:0:
175,362,29211,2,0,B|163:283|121:296|73:303|68:206,1,198,2|0,0:0|0:0,0:0:0:0:
118,107,29986,5,2,0:0:0:0:
225,193,30179,2,0,P|191:179|154:176,1,57.7499982376099,2|0,0:0|0:0,0:0:0:0:
165,190,30469,1,2,0:0:0:0:
159,204,30566,1,0,0:0:0:0:
229,98,30760,1,2,0:0:0:0:
376,177,30953,6,0,P|362:142|364:106,1,66,2|0,3:2|0:0,0:0:0:0:
457,92,31340,2,0,P|470:126|469:162,1,66,2|0,0:0|0:0,0:0:0:0:
332,252,31727,6,0,P|363:262|396:263,1,57.7499982376099
457,366,32115,2,0,P|445:347|440:312,1,41.25
356,343,32502,2,0,P|334:357|305:365,1,49.4999984893799,0|0,3:0|0:0,0:0:0:0:
255,310,33082,1,0,0:0:0:0:
156,373,33276,6,0,P|141:331|139:303,1,57.7499982376099,2|0,0:0|0:0,0:0:0:0:
152,313,33566,1,2,0:0:0:0:
165,307,33663,1,0,0:0:0:0:
53,249,33856,2,0,P|75:207|93:102,1,132,2|0,0:0|0:0,0:0:0:0:
248,59,34437,2,0,B|265:70|276:110|274:125|181:160|162:117|209:67|134:24|91:43,1,230.99999295044,2|0,0:0|0:0,0:0:0:0:
103,51,35598,5,2,3:2:0:0:
162,145,35792,1,2,0:0:0:0:
182,68,35985,1,2,0:0:0:0:
84,126,36179,1,2,0:0:0:0:
114,258,36373,6,0,P|170:231|231:233,1,99,2|0,0:0|0:0,0:0:0:0:
216,242,36760,1,2,0:0:0:0:
184,324,36953,1,2,0:0:0:0:
321,371,37147,6,0,L|309:293,1,66,6|0,1:2|3:0,0:0:0:0:
409,264,37534,2,0,L|399:353,1,66,0|0,3:0|3:0,0:0:0:0:
356,168,37921,2,0,P|409:176|473:178,1,99,2|0,1:2|0:0,0:0:0:0:
461,166,38308,1,0,3:0:0:0:
469,154,38502,1,0,3:0:0:0:
310,230,38695,6,0,L|235:239,1,57.7499982376099,0|0,1:0|3:0,0:0:0:0:
192,127,39082,2,0,L|269:136,1,57.7499982376099,0|0,3:0|3:0,0:0:0:0:
165,262,39469,2,0,P|175:311|178:364,1,86.6249973564149,2|0,1:2|0:0,0:0:0:0:
164,352,39856,1,0,3:0:0:0:
149,357,40050,1,0,3:0:0:0:
24,217,40244,6,0,L|14:265,1,49.4999984893799,0|0,1:0|3:0,0:0:0:0:
111,216,40631,2,0,L|102:167,1,49.4999984893799,0|0,3:0|3:0,0:0:0:0:
19,62,41018,2,0,P|62:71|112:74,1,74.2499977340699,2|0,1:2|0:0,0:0:0:0:
98,61,41405,1,0,3:0:0:0:
105,47,41598,1,0,3:0:0:0:
202,105,41792,6,0,L|195:146,1,41.25,0|0,1:2|3:0,0:0:0:0:
294,100,42179,2,0,L|286:59,1,41.25,0|0,3:0|3:0,0:0:0:0:
206,228,42566,6,0,P|135:210|70:205,1,111.374996601105,2|0,1:2|0:0,0:0:0:0:
85,217,42953,2,0,P|103:257|111:302,1,74.2499977340699,2|0,3:2|3:0,0:0:0:0:
316,243,43340,6,0,P|307:281|296:366,1,99,2|0,1:2|0:0,0:0:0:0:
307,352,43727,2,0,P|263:356|215:372,1,66,2|0,3:2|3:0,0:0:0:0:
310,154,44115,6,0,P|361:164|408:188,1,86.6249973564149,2|0,1:2|0:0,0:0:0:0:
397,191,44502,2,0,P|423:180|451:174,1,49.4999984893799,2|0,3:2|3:0,0:0:0:0:
286,65,44889,6,0,P|233:86|191:89,1,82.5,2|0,1:2|3:2,0:0:0:0:
52,49,45663,2,0,P|72:93|81:144,1,82.5,2|0,1:2|3:2,0:0:0:0:
17,347,46437,6,0,L|94:354,1,66,2|0,1:2|3:0,0:0:0:0:
137,240,46824,2,0,L|50:249,1,66,0|0,3:0|3:0,0:0:0:0:
239,380,47211,6,0,L|229:310,1,66,0|0,1:0|3:0,0:0:0:0:
349,255,47598,2,0,L|338:320,1,66,0|0,3:0|3:0,0:0:0:0:
489,276,47986,5,2,1:2:0:0:
413,384,48179,1,2,3:2:0:0:
493,354,48373,1,2,3:2:0:0:
351,329,48566,1,2,3:2:0:0:
383,179,48760,6,0,P|358:122|345:49,1,111.374996601105,2|0,1:2|0:0,0:0:0:0:
356,62,49147,1,2,3:2:0:0:
447,105,49340,1,2,3:2:0:0:
225,178,49534,6,0,L|138:163,1,74.2499977340699,6|0,1:2|3:0,0:0:0:0:
109,270,49921,1,0,3:0:0:0:
124,268,50115,1,0,3:0:0:0:
287,250,50308,2,0,P|268:316|260:392,1,111.374996601105,2|0,1:2|0:0,0:0:0:0:
271,371,50695,1,0,3:0:0:0:
179,360,50889,1,0,3:0:0:0:
399,299,51082,6,0,L|488:285,1,74.2499977340699,0|0,1:0|3:0,0:0:0:0:
490,189,51469,1,0,3:0:0:0:
474,185,51663,1,0,3:0:0:0:
301,144,51856,2,0,P|318:210|326:273,1,111.374996601105,2|0,1:2|0:0,0:0:0:0:
313,264,52244,1,0,3:0:0:0:
397,220,52437,1,0,3:0:0:0:
398,69,52631,6,0,L|379:162,1,74.2499977340699,0|0,1:0|3:0,0:0:0:0:
276,68,53018,1,0,3:0:0:0:
270,52,53211,1,0,3:0:0:0:
184,198,53405,2,0,P|242:200|321:220,1,111.374996601105,2|0,1:2|0:0,0:0:0:0:
302,226,53792,1,0,3:0:0:0:
228,289,53986,1,0,3:0:0:0:
87,205,54179,6,0,L|103:288,1,74.2499977340699,0|0,1:2|3:0,0:0:0:0:
12,333,54566,1,0,3:0:0:0:
16,318,54760,1,0,3:0:0:0:
165,355,54953,6,0,P|232:339|295:308,1,111.374996601105,2|0,1:2|0:0,0:0:0:0:
276,307,55340,2,0,P|287:346|303:384,1,74.2499977340699,2|0,3:2|3:0,0:0:0:0:
482,245,55727,6,0,P|420:235|355:209,1,111.374996601105,2|0,1:2|0:0,0:0:0:0:
336,140,56115,2,0,P|390:133|432:121,1,74.2499977340699,2|0,3:2|3:0,0:0:0:0:
159,34,56502,6,0,P|154:80|135:152,1,111.374996601105,2|0,1:2|0:0,0:0:0:0:
242,184,56889,2,0,P|231:136|234:104,1,74.2499977340699,2|0,3:2|3:0,0:0:0:0:
401,12,57276,5,2,1:2:0:0:
348,70,57469,1,0,3:0:0:0:
424,90,57663,2,0,P|382:93|318:116,1,99,2|0,3:2|0:0,0:0:0:0:
260,191,58050,5,2,1:2:0:0:
313,249,58243,1,0,3:0:0:0:
237,269,58437,2,0,P|279:272|343:295,1,99,2|0,3:2|0:0,0:0:0:0:
454,192,58824,6,0,P|453:222|446:248,1,57.7499982376099,2|0,1:2|3:0,0:0:0:0:
408,312,59211,1,0,3:0:0:0:
430,384,59405,1,0,3:0:0:0:
335,180,59598,6,0,P|298:183|260:194,1,57.7499982376099,0|0,1:0|3:0,0:0:0:0:
212,251,59986,1,0,3:0:0:0:
122,234,60179,1,0,3:0:0:0:
195,111,60373,5,2,0:0:0:0:
110,129,60566,1,2,0:0:0:0:
25,148,60760,2,0,L|41:255,1,86.6249973564149,2|0,0:0|0:0,0:0:0:0:
29,245,61147,6,0,L|85:232,1,57.7499982376099,2|0,0:0|0:0,0:0:0:0:
170,245,61534,1,2,3:2:0:0:
158,320,61727,1,2,3:2:0:0:
136,56,61921,6,0,P|235:58|351:78,1,197.99999395752,6|0,1:2|0:0,0:0:0:0:
424,305,62308,2,0,B|419:237|461:181|494:214|529:147|508:78,1,235.124993721485,2|0,3:2|0:0,0:0:0:0:
449,33,62695,5,8,0:2:0:0:
453,18,62889,1,0,0:0:0:0:
363,0,63082,2,0,P|342:3|322:7,1,33,0|0,3:2|0:0,0:0:0:0:
309,80,63469,5,2,0:0:0:0:
277,235,63663,2,0,L|281:159,1,53.6249975452424,2|0,1:2|0:0,0:0:0:0:
143,212,63856,2,0,L|169:284,1,53.6249975452424,2|0,1:2|0:0,0:0:0:0:
203,161,64050,1,0,0:0:0:0:
3,90,64244,6,0,B|37:110|37:110|65:272,1,198,10|0,0:2|0:0,0:0:0:0:
79,352,64631,1,2,3:2:0:0:
0,338,64824,1,2,3:2:0:0:
203,161,65018,6,0,P|178:265|175:372,1,197.99999395752,6|0,1:2|0:0,0:0:0:0:
420,279,65405,2,0,P|403:355|263:341,1,235.124993721485,2|0,3:2|0:0,0:0:0:0:
262,252,65792,5,8,0:2:0:0:
279,248,65986,1,0,0:0:0:0:
347,185,66179,2,0,P|355:210|357:229,1,33,0|0,3:2|0:0,0:0:0:0:
341,302,66566,5,2,0:0:0:0:
263,161,66760,2,0,L|183:175,1,53.6249975452424,2|0,1:2|0:0,0:0:0:0:
107,98,66953,2,0,L|165:103,1,53.6249975452424,2|0,1:2|0:0,0:0:0:0:
129,177,67147,1,0,0:0:0:0:
348,61,67340,6,0,B|309:83|309:83|280:260,1,198,10|0,0:2|0:0,0:0:0:0:
269,326,67727,1,2,3:2:0:0:
347,307,67921,1,2,3:2:0:0:
149,354,68115,6,0,P|291:372|387:397,1,197.99999395752,6|0,1:2|0:0,0:0:0:0:
469,269,68502,2,0,P|411:174|280:200,1,235.124993721485,2|0,3:2|0:0,0:0:0:0:
210,270,68889,6,0,B|198:196|198:196|166:180|166:180|149:83,1,198,8|0,0:2|0:0,0:0:0:0:
86,243,69276,2,0,P|102:248|119:251,1,33,0|0,3:2|0:0,0:0:0:0:
251,132,69663,5,2,0:0:0:0:
74,162,69856,2,0,L|81:95,1,53.6249975452424,0|0,1:2|0:0,0:0:0:0:
4,85,70050,2,0,L|164:68,1,160.874992635727,2|0,1:2|0:0,0:0:0:0:
374,83,70437,6,0,B|363:170|363:170|325:192|325:192|312:308,1,235.124993721485,10|0,0:2|0:0,0:0:0:0:
306,384,70824,1,0,3:2:0:0:
306,384,71018,1,2,3:2:0:0:
503,249,71211,5,6,1:2:0:0:
348,146,71405,2,0,P|390:218|409:321,1,156.749995814324,2|0,0:0|3:2,0:0:0:0:
391,374,71695,1,2,0:0:0:0:
70,199,71986,6,0,B|40:228|40:228|212:210,1,198,8|0,0:2|0:0,0:0:0:0:
248,132,72373,2,0,P|228:129|211:121,1,33,0|0,3:2|0:0,0:0:0:0:
158,74,72760,5,2,0:0:0:0:
382,137,72953,2,0,L|321:144,1,53.6249975452424,2|0,1:2|0:0,0:0:0:0:
305,217,73147,2,0,L|286:56,1,160.874992635727,2|0,1:2|0:0,0:0:0:0:
393,1,73534,6,0,B|358:20|358:20|512:54,1,198,10|0,0:2|0:0,0:0:0:0:
478,236,73921,1,2,3:2:0:0:
463,160,74115,1,2,3:2:0:0:
346,299,74308,6,0,B|301:315|241:294|260:255|211:230|151:249,1,197.99999395752,6|0,1:2|0:0,0:0:0:0:
0,286,74695,2,0,P|70:371|178:344,1,235.124993721485,2|0,3:2|0:0,0:0:0:0:
167,257,75082,5,8,0:2:0:0:
152,261,75276,1,0,0:0:0:0:
81,214,75469,2,0,P|89:190|90:171,1,33,0|0,3:2|0:0,0:0:0:0:
82,96,75856,5,2,0:0:0:0:
278,212,76050,2,0,L|203:193,1,53.6249975452424,2|0,1:2|0:0,0:0:0:0:
193,66,76243,2,0,L|177:141,1,53.6249975452424,2|0,1:2|0:0,0:0:0:0:
265,127,76437,1,0,0:0:0:0:
501,117,76631,6,0,B|495:90|495:90|349:117|349:117|345:96,1,198,10|0,0:2|0:0,0:0:0:0:
334,12,77018,1,2,3:2:0:0:
413,26,77211,1,2,3:2:0:0:
425,213,77405,6,0,B|380:197|320:218|339:257|290:282|230:263,1,197.99999395752,6|0,1:2|0:0,0:0:0:0:
84,140,77792,2,0,P|193:99|262:207,1,235.124993721485,2|0,3:2|0:0,0:0:0:0:
242,282,78179,5,8,0:2:0:0:
238,299,78373,1,0,0:0:0:0:
307,348,78566,2,0,P|310:374|316:392,1,33,0|0,3:2|0:0,0:0:0:0:
227,384,78953,5,2,0:0:0:0:
255,192,79147,2,0,L|173:188,1,53.6249975452424,2|0,1:2|0:0,0:0:0:0:
61,209,79340,2,0,L|118:197,1,53.6249975452424,2|0,1:2|0:0,0:0:0:0:
162,260,79534,1,0,0:0:0:0:
358,266,79727,6,0,B|337:262|337:262|364:116|364:116|337:110,1,198,10|0,0:2|0:0,0:0:0:0:
254,89,80114,1,2,3:2:0:0:
273,11,80308,1,2,3:2:0:0:
497,47,80502,6,0,B|512:93|487:142|448:123|427:183|443:228,1,197.99999395752,6|0,1:2|0:0,0:0:0:0:
512,384,80889,2,0,P|416:364|272:353,1,235.124993721485,2|0,3:2|0:0,0:0:0:0:
176,373,81276,6,0,B|165:276|165:276|170:269|170:269|159:165,1,198,8|0,0:2|0:0,0:0:0:0:
76,219,81663,2,0,P|81:235|84:252,1,33,0|0,3:2|0:0,0:0:0:0:
110,87,82050,5,2,0:0:0:0:
267,99,82243,2,0,L|321:104,1,53.6249975452424,0|0,1:2|0:0,0:0:0:0:
227,18,82437,2,0,L|247:197,1,160.874992635727,2|0,1:2|0:0,0:0:0:0:
318,248,82824,6,0,B|199:262|199:262|191:255|191:255|64:269,1,235.124993721485,10|0,0:2|0:0,0:0:0:0:
2,283,83211,1,0,3:2:0:0:
2,283,83405,1,2,3:2:0:0:
112,381,83598,5,4,1:2:0:0:
236,144,83792,2,0,P|209:217|200:295,1,156.749995814324,2|0,0:0|3:2,0:0:0:0:
235,368,84082,1,2,0:0:0:0:
55,106,84373,6,0,B|133:166|133:166|266:116,1,198,8|0,0:2|0:0,0:0:0:0:
306,55,84760,2,0,P|300:70|298:86,1,33,0|0,3:2|0:0,0:0:0:0:
248,233,85147,5,2,0:0:0:0:
416,214,85340,2,0,L|422:267,1,49.4999984893799,2|0,1:2|0:0,0:0:0:0:
322,172,85534,2,0,L|501:192,1,148.49999546814,2|0,1:2|0:0,0:0:0:0:
496,314,85921,6,0,B|439:359|439:359|340:322,1,148.49999546814,10|0,0:2|0:0,0:0:0:0:
288,299,86308,1,2,3:2:0:0:
267,375,86502,1,2,3:2:0:0:
170,227,86695,6,0,L|269:218,1,82.5,6|0,1:2|0:0,0:0:0:0:
366,256,87082,2,0,L|340:116,1,123.75,2|0,3:2|0:0,0:0:0:0:
348,122,87469,2,0,B|286:128|286:128|248:102,1,82.5,2|0,0:3|0:0,0:0:0:0:
207,65,87856,1,0,3:2:0:0:
207,66,88437,5,0,1:0:0:0:
408,18,88631,1,0,1:0:0:0:
408,18,89018,6,0,B|390:40|390:40|402:93,1,74.2499977340699,2|0,0:3|0:0,0:0:0:0:
427,159,89405,1,0,3:2:0:0:
347,149,89598,1,0,3:2:0:0:
267,139,89792,1,0,1:0:0:0:
267,139,90179,1,0,3:2:0:0:
267,139,90566,6,0,B|276:176|276:176|265:210,1,66,2|0,0:3|0:0,0:0:0:0:
232,275,90953,1,0,3:2:0:0:
232,275,91534,5,0,1:0:0:0:
353,231,91727,1,0,1:0:0:0:
353,231,92115,6,0,B|364:262|364:262|355:287,1,57.7499982376099,2|0,0:3|0:0,0:0:0:0:
318,356,92502,1,0,3:2:0:0:
396,370,92695,1,0,3:2:0:0:
478,384,92889,6,0,P|469:322|469:280,1,99,0|0,1:0|0:0,0:0:0:0:
483,271,93276,2,0,P|454:293|417:284,1,66,0|0,3:2|0:0,0:0:0:0:
433,193,93663,5,2,0:3:0:0:
357,175,93856,1,0,0:0:0:0:
375,99,94050,1,0,3:2:0:0:
451,117,94244,1,0,0:0:0:0:
352,26,94437,6,0,P|346:59|328:92,1,57.7499982376099,0|0,0:0|1:0,0:0:0:0:
267,28,94824,2,0,P|238:30|212:41,1,57.7499982376099,0|0,1:0|0:0,0:0:0:0:
177,114,95211,5,2,0:3:0:0:
195,190,95404,1,0,0:0:0:0:
119,208,95598,1,0,3:2:0:0:
101,132,95792,1,0,3:2:0:0:
209,200,95986,6,0,P|211:236|230:312,1,98.9999969787599,0|0,1:0|3:2,0:0:0:0:
399,205,96760,5,2,0:3:0:0:
451,261,96953,1,0,0:0:0:0:
413,328,97147,1,0,3:2:0:0:
338,313,97340,1,0,0:0:0:0:
274,354,97534,6,0,P|298:297|307:234,1,115.5
297,232,98308,5,2,0:0:0:0:
174,190,98502,1,2,0:0:0:0:
249,169,98695,1,2,0:0:0:0:
219,252,98889,1,2,0:0:0:0:
101,241,99082,2,0,B|101:192|71:162|51:177|18:144|21:86,1,156.749995814324,0|0,1:0|0:0,0:0:0:0:
26,32,99663,1,2,0:0:0:0:
128,54,99856,6,0,P|159:42|192:37,1,61.875002360344,2|2,0:0|0:0,0:0:0:0:
201,141,100244,2,0,P|232:166|286:157,1,92.812503540516,2|0,0:0|0:0,0:0:0:0:
284,144,100631,2,0,P|275:188|277:273,1,123.750004720688,2|0,0:0|0:0,0:0:0:0:
299,344,101211,1,0,0:0:0:0:
350,223,101405,6,0,P|372:213|414:210,1,53.6249975452424,2|2,0:0|0:0,0:0:0:0:
489,225,101792,2,0,P|484:176|486:134,1,71.4999967269899,2|2,0:0|0:0,0:0:0:0:
509,34,102179,2,0,B|482:31|458:47|469:63|443:80|401:70,1,107.249995090485,2|0,0:0|0:0,0:0:0:0:
340,42,102760,1,0,0:0:0:0:
236,103,102954,5,2,0:0:0:0:
267,176,103147,1,2,0:0:0:0:
188,166,103340,1,2,0:0:0:0:
141,231,103534,1,2,0:0:0:0:
260,338,103727,6,0,P|268:308|274:270,1,68.0625020771027,2|0,0:0|0:0,0:0:0:0:
262,263,104115,2,0,P|237:246|214:250,1,45.3750013847352
151,288,104502,5,2,0:0:0:0:
138,212,104695,1,2,0:0:0:0:
125,136,104889,2,0,P|146:121|199:122,1,68.0625020771027,2|0,0:0|0:0,0:0:0:0:
198,131,105276,6,0,P|197:85|228:50,1,78.3749979071618,2|0,0:0|0:0,0:0:0:0:
306,82,105663,2,0,P|310:119|295:150,1,70.1250013375282,2|0,0:0|0:0,0:0:0:0:
423,168,106050,6,0,P|395:168|369:178,1,53.6249975452424
265,225,106437,2,0,P|295:227|329:242,1,53.6249975452424
399,252,106825,6,0,P|385:278|377:306,1,57.7499982376099,2|0,0:0|0:0,0:0:0:0:
379,383,107405,1,0,0:0:0:0:
499,294,107599,6,0,P|491:261|489:214,1,61.875002360344,2|0,0:0|0:0,0:0:0:0:
500,228,107889,1,2,0:0:0:0:
512,222,107986,1,0,0:0:0:0:
446,167,108179,1,2,0:0:0:0:
511,66,108373,2,0,B|469:79|435:54|445:18|403:8|365:18,1,156.749995814324,2|2,0:0|0:0,0:0:0:0:
372,17,109147,6,0,P|372:47|355:80,1,53.6249975452424,2|0,0:0|0:0,0:0:0:0:
267,51,109534,2,0,P|265:21|282:-12,1,53.6249975452424
320,141,109921,5,2,0:0:0:0:
241,151,110115,1,0,0:0:0:0:
281,146,110308,1,0,0:0:0:0:
281,146,110695,5,2,0:0:0:0:
228,254,110889,1,2,0:0:0:0:
311,227,111082,1,2,0:0:0:0:
183,168,111276,1,2,0:0:0:0:
148,357,111469,6,0,P|229:302|290:305,1,156.749995814324,0|0,2:0|0:0,0:0:0:0:
358,330,112050,1,0,0:0:0:0:
410,237,112244,5,2,0:0:0:0:
488,254,112437,1,2,0:0:0:0:
436,311,112631,1,2,0:0:0:0:
463,181,112824,1,2,0:0:0:0:
324,170,113018,6,0,P|327:103|300:54,1,123.750004720688
236,8,113598,1,0,0:0:0:0:
210,129,113792,5,2,0:0:0:0:
117,140,113986,1,2,0:0:0:0:
25,152,114179,1,2,0:0:0:0:
69,252,114373,2,0,P|141:247|180:259,1,105.187502006292,2|0,0:0|0:0,0:0:0:0:
184,272,114760,5,2,0:0:0:0:
274,246,114953,2,0,P|263:291|256:337,2,92.812503540516,2|2|0,0:0|0:0|0:0,0:0:0:0:
301,153,115727,1,2,0:0:0:0:
348,90,115921,1,0,0:0:0:0:
355,102,116018,2,0,P|331:111|208:122,1,134.062493863106,2|0,0:0|0:0,0:0:0:0:
133,94,116695,5,2,0:0:0:0:
95,207,116889,2,0,P|129:193|166:190,1,61.875002360344,2|0,0:0|0:0,0:0:0:0:
159,204,117179,1,0,0:0:0:0:
165,218,117276,1,2,0:0:0:0:
187,324,117469,1,2,0:0:0:0:
372,322,117662,6,0,P|386:287|384:251,1,70.1250013375282,2|0,0:0|0:0,0:0:0:0:
289,239,118050,2,0,P|275:272|277:306,1,61.875002360344,2|0,0:0|0:0,0:0:0:0:
441,373,118437,6,0,P|472:363|505:362,1,53.6249975452424
372,322,118824,2,0,P|358:341|352:363,1,45.3750013847352
433,257,119211,2,0,P|409:242|379:233,1,57.7499982376099,2|0,0:0|0:0,0:0:0:0:
304,236,119791,1,2,0:0:0:0:
176,380,119985,6,0,P|163:331|162:300,1,78.3749979071618,2|0,0:0|0:0,0:0:0:0:
176,298,120275,1,2,0:0:0:0:
190,293,120372,1,0,0:0:0:0:
41,181,120565,2,0,P|83:197|161:200,1,105.187502006292,2|0,0:0|0:0,0:0:0:0:
245,101,121050,2,0,P|188:20|49:57,1,247.500009441376,2|0,0:0|0:0,0:0:0:0:
56,46,122211,5,0,0:0:0:0:
51,59,122307,1,2,0:0:0:0:
108,158,122501,1,2,0:0:0:0:
29,137,122694,1,2,0:0:0:0:
129,80,122889,1,2,0:0:0:0:
244,182,123082,6,0,P|217:238|219:299,1,105.187502006292,2|0,0:0|0:0,0:0:0:0:
227,292,123469,1,2,0:0:0:0:
312,252,123662,1,2,0:0:0:0:
205,104,123856,6,0,B|264:82|319:100|303:148|346:167|417:138,1,222.74999320221,4|0,1:2|0:0,0:0:0:0:
458,33,124631,5,8,0:0:0:0:
458,33,124824,1,0,0:0:0:0:
481,107,125018,1,0,3:2:0:0:
499,182,125211,2,0,P|486:222|480:264,1,74.2499977340699
491,359,125598,5,0,1:0:0:0:
382,326,125792,1,0,1:0:0:0:
60,384,126179,5,8,0:2:0:0:
72,307,126566,1,0,3:2:0:0:
60,384,126760,1,0,3:2:0:0:
84,230,126953,6,0,P|176:217|277:183,1,185.625007081032,0|0,1:0|0:0,0:0:0:0:
273,58,127727,5,8,0:2:0:0:
273,58,127920,1,0,0:0:0:0:
196,49,128114,1,0,3:2:0:0:
119,40,128308,2,0,P|124:73|125:110,1,61.875002360344
87,192,128695,5,0,1:0:0:0:
204,161,128889,1,0,1:0:0:0:
466,355,129276,6,0,B|393:346|393:346|385:316,1,92.812503540516,8|0,0:2|0:0,0:0:0:0:
377,316,129663,2,0,P|380:289|406:266,1,61.875002360344,0|0,3:2|3:2,0:0:0:0:
388,122,130050,6,0,P|323:117|272:97,1,105.187502006292,0|0,1:0|0:0,0:0:0:0:
228,207,130437,2,0,P|258:190|293:192,1,70.1250013375282,0|0,3:2|0:0,0:0:0:0:
108,83,130824,6,0,B|128:95|128:95|144:189,1,105.187502006292,8|0,0:2|0:0,0:0:0:0:
65,216,131211,2,0,P|56:249|50:284,1,70.1250013375282,0|0,3:2|0:0,0:0:0:0:
222,370,131598,5,0,0:0:0:0:
146,383,131792,1,0,1:0:0:0:
171,311,131986,2,0,P|156:260|155:243,1,57.7499982376099,0|0,1:0|0:0,0:0:0:0:
281,261,132373,5,8,0:2:0:0:
357,274,132567,1,0,0:0:0:0:
332,202,132761,2,0,P|347:151|348:134,1,57.7499982376099,0|0,3:2|3:2,0:0:0:0:
237,61,133147,6,0,L|298:52,1,57.7499982376099,0|0,1:0|0:0,0:0:0:0:
177,122,133534,2,0,L|169:182,1,57.7499982376099,0|0,3:2|0:0,0:0:0:0:
47,42,133921,2,0,B|63:26|63:26|158:44,1,115.49999647522,8|0,0:2|3:2,0:0:0:0:
154,43,134695,5,2,0:0:0:0:
230,153,134889,1,2,1:2:0:0:
96,163,135082,1,2,1:2:0:0:
161,119,135276,1,2,0:0:0:0:
129,271,135469,6,0,B|71:260|71:260|16:288,1,111.374996601105,10|0,0:2|0:0,0:0:0:0:
22,299,135856,1,2,3:2:0:0:
88,363,136050,1,2,3:2:0:0:
167,195,136244,6,0,P|283:191|418:172,1,235.124993721485,4|0,1:2|0:0,0:0:0:0:
446,309,137018,5,8,0:0:0:0:
446,309,137211,1,0,0:0:0:0:
369,297,137405,1,0,3:2:0:0:
292,286,137599,2,0,P|305:256|317:196,1,78.3749979071618
291,112,137986,5,0,1:0:0:0:
395,86,138179,1,0,1:0:0:0:
71,33,138566,5,8,0:2:0:0:
62,110,138954,1,0,3:2:0:0:
71,33,139147,1,0,3:2:0:0:
53,187,139340,6,0,P|87:276|109:383,1,198,0|0,1:0|0:0,0:0:0:0:
228,277,140115,5,8,0:2:0:0:
228,277,140308,1,0,0:0:0:0:
305,268,140502,1,0,3:2:0:0:
382,259,140696,2,0,P|377:292|376:337,1,66
489,383,141082,5,0,1:0:0:0:
458,248,141276,1,0,1:0:0:0:
128,161,141663,6,0,B|156:145|156:145|174:55,1,99,8|0,0:2|0:0,0:0:0:0:
152,72,142050,2,0,P|144:35|146:-2,1,66,0|0,3:2|3:2,0:0:0:0:
305,29,142437,6,0,P|351:42|423:45,1,111.374996601105,2|0,1:2|0:0,0:0:0:0:
475,118,142824,2,0,P|446:122|403:141,1,74.2499977340699,0|0,3:2|3:2,0:0:0:0:
237,354,143211,6,0,B|265:272|265:272|226:255,1,111.374996601105,10|0,0:2|0:0,0:0:0:0:
249,173,143598,2,0,P|238:144|240:96,1,74.2499977340699,0|0,3:2|3:2,0:0:0:0:
355,15,143986,5,0,3:2:0:0:
432,27,144180,1,0,1:0:0:0:
509,38,144374,2,0,P|499:68|491:132,1,74.2499977340699,0|0,1:0|3:2,0:0:0:0:
305,103,144760,5,8,0:2:0:0:
228,115,144954,1,0,3:2:0:0:
151,126,145148,2,0,P|161:156|169:220,1,74.2499977340699,0|0,3:2|3:2,0:0:0:0:
140,303,145534,5,0,1:0:0:0:
157,306,145727,1,0,3:2:0:0:
205,379,145921,1,0,1:0:0:0:
271,283,146115,1,0,3:2:0:0:
61,249,146308,5,8,1:2:0:0:
118,384,146502,1,0,3:2:0:0:
227,202,146695,1,0,1:0:0:0:
29,118,146889,1,2,1:2:0:0:
35,103,146986,1,2,0:2:0:0:
41,87,147082,5,2,0:2:0:0:
126,99,147276,1,2,0:0:0:0:
211,112,147469,2,0,L|315:98,1,86.6249973564149,2|0,0:0|0:0,0:0:0:0:
312,105,147856,6,0,L|304:48,1,57.7499982376099,2|0,0:0|0:0,0:0:0:0:
384,13,148244,1,2,2:0:0:0:
434,76,148437,1,2,2:0:0:0:
169,208,148631,6,0,P|248:248|256:372,1,197.99999395752,6|0,1:2|0:0,0:0:0:0:
88,384,149018,2,0,P|77:250|41:136,1,235.124993721485,2|0,3:2|0:0,0:0:0:0:
0,81,149405,5,8,0:2:0:0:
4,66,149599,1,0,0:0:0:0:
81,30,149792,2,0,P|107:32|126:40,1,33,0|0,3:2|0:0,0:0:0:0:
173,98,150179,5,2,0:0:0:0:
104,229,150373,2,0,L|121:279,1,53.6249975452424,2|0,1:2|0:0,0:0:0:0:
266,211,150566,2,0,L|260:264,1,53.6249975452424,2|0,1:2|0:0,0:0:0:0:
187,232,150760,1,0,0:0:0:0:
359,290,150953,6,0,B|336:384|336:384|188:362,1,198,10|0,0:2|0:0,0:0:0:0:
142,352,151341,1,2,3:2:0:0:
121,279,151534,1,2,3:2:0:0:
255,123,151727,6,0,P|308:193|431:180,1,197.99999395752,6|0,1:2|0:0,0:0:0:0:
512,64,152115,2,0,P|485:103|444:316,1,235.124993721485,2|0,3:2|0:0,0:0:0:0:
485,367,152502,5,8,0:2:0:0:
468,371,152695,1,0,0:0:0:0:
376,349,152889,2,0,P|384:374|386:393,1,33,0|0,3:2|0:0,0:0:0:0:
301,384,153276,5,2,0:0:0:0:
134,309,153470,2,0,L|120:389,1,53.6249975452424,2|0,1:2|0:0,0:0:0:0:
226,256,153663,2,0,L|221:198,1,53.6249975452424,2|0,1:2|0:0,0:0:0:0:
149,234,153857,1,0,0:0:0:0:
11,143,154050,6,0,B|37:49|37:49|184:76,1,198,10|0,0:2|0:0,0:0:0:0:
222,83,154437,1,2,3:2:0:0:
203,5,154631,1,2,3:2:0:0:
436,57,154824,6,0,P|365:109|378:232,1,197.99999395752,6|0,1:2|0:0,0:0:0:0:
512,322,155211,2,0,B|459:296|406:309|389:371|337:388|284:337,1,235.124993721485,2|0,3:2|0:0,0:0:0:0:
240,253,155598,6,0,B|217:235|217:235|361:218|361:218|338:254,1,198,8|0,0:2|0:0,0:0:0:0:
438,177,155986,2,0,P|443:193|446:210,1,33,0|0,3:2|0:0,0:0:0:0:
432,294,156373,5,2,0:0:0:0:
318,193,156566,2,0,L|326:127,1,53.6249975452424,0|0,1:2|0:0,0:0:0:0:
366,78,156760,2,0,L|346:257,1,160.874992635727,2|0,1:2|0:0,0:0:0:0:
242,297,157147,6,0,B|271:280|271:280|97:259|97:259|144:312,1,235.124993721485,10|0,0:2|0:0,0:0:0:0:
172,358,157534,1,0,3:2:0:0:
172,358,157727,1,2,3:2:0:0:
188,188,157921,5,6,1:2:0:0:
33,142,158115,2,0,P|71:214|90:317,1,156.749995814324,2|0,0:0|3:2,0:0:0:0:
66,364,158405,1,2,0:0:0:0:
409,314,158695,6,0,B|418:365|418:365|247:388,1,198,8|0,0:2|0:0,0:0:0:0:
321,287,159082,2,0,P|318:267|310:250,1,33,0|0,3:2|0:0,0:0:0:0:
259,196,159469,5,2,0:0:0:0:
444,40,159663,2,0,L|438:93,1,53.6249975452424,2|0,1:2|0:0,0:0:0:0:
392,231,159857,2,0,L|409:71,1,160.874992635727,2|0,1:2|0:0,0:0:0:0:
314,68,160244,6,0,B|305:119|305:119|162:88,1,198,10|0,0:2|0:0,0:0:0:0:
76,68,160631,1,2,3:2:0:0:
118,2,160824,1,2,3:2:0:0:
203,179,161018,6,0,B|230:318|175:237|201:374,1,197.99999395752,6|0,1:2|0:0,0:0:0:0:
460,266,161405,2,0,P|409:343|270:310,1,235.124993721485,2|0,3:2|0:0,0:0:0:0:
296,237,161792,5,8,0:2:0:0:
311,241,161986,1,0,0:0:0:0:
374,185,162179,2,0,P|373:164|367:144,1,33,0|0,3:2|0:0,0:0:0:0:
316,87,162566,5,2,0:0:0:0:
196,207,162760,2,0,L|121:192,1,53.6249975452424,2|0,1:2|0:0,0:0:0:0:
136,73,162953,2,0,L|211:54,1,53.6249975452424,2|0,1:2|0:0,0:0:0:0:
226,129,163147,1,0,0:0:0:0:
413,83,163340,6,0,B|395:162|395:162|360:179|360:179|342:265,1,198,10|0,0:2|0:0,0:0:0:0:
326,347,163728,1,2,3:2:0:0:
405,361,163921,1,2,3:2:0:0:
240,212,164115,6,0,B|102:230|196:257|57:275,1,197.99999395752,6|0,1:2|0:0,0:0:0:0:
0,120,164502,2,0,P|91:87|162:194,1,235.124993721485,2|0,3:2|0:0,0:0:0:0:
146,262,164889,5,8,0:2:0:0:
142,279,165082,1,0,0:0:0:0:
87,345,165276,2,0,P|93:370|93:389,1,33,0|0,3:2|0:0,0:0:0:0:
171,384,165663,5,2,0:0:0:0:
246,236,165856,2,0,L|242:318,1,53.6249975452424,2|0,1:2|0:0,0:0:0:0:
355,369,166050,2,0,L|291:365,1,53.6249975452424,2|0,1:2|0:0,0:0:0:0:
320,287,166244,1,0,0:0:0:0:
371,68,166437,6,0,B|384:146|384:146|416:166|416:166|429:254,1,198,10|0,0:2|0:0,0:0:0:0:
443,334,166824,1,2,3:2:0:0:
503,280,167018,1,2,3:2:0:0:
280,134,167211,6,0,B|247:270|306:192|274:327,1,197.99999395752,6|0,1:2|0:0,0:0:0:0:
97,380,167598,2,0,P|210:362|340:361,1,235.124993721485,2|0,3:2|0:0,0:0:0:0:
395,261,167986,6,0,B|496:250|496:250|472:349,1,198,8|0,0:2|0:0,0:0:0:0:
381,350,168373,2,0,P|365:345|348:342,1,33,0|0,3:2|0:0,0:0:0:0:
269,346,168760,5,2,0:0:0:0:
131,198,168953,2,0,L|139:261,1,53.6249975452424,0|0,1:2|0:0,0:0:0:0:
182,332,169147,2,0,L|158:153,1,160.874992635727,2|0,1:2|0:0,0:0:0:0:
240,86,169534,6,0,B|259:205|259:205|360:149,1,235.124993721485,10|0,0:2|0:0,0:0:0:0:
328,58,169921,1,0,3:2:0:0:
328,58,170115,1,2,3:2:0:0:
497,40,170308,5,4,1:2:0:0:
441,160,170502,2,0,P|469:233|477:311,1,156.749995814324,2|0,0:0|3:2,0:0:0:0:
442,380,170792,1,2,0:0:0:0:
125,363,171082,6,0,B|159:336|159:336|336:373,1,198,8|0,0:2|0:0,0:0:0:0:
363,282,171469,2,0,P|369:297|371:313,1,33,0|0,3:2|0:0,0:0:0:0:
281,280,171857,5,2,0:0:0:0:
298,70,172050,2,0,L|242:77,1,53.6249975452424,2|0,1:2|0:0,0:0:0:0:
127,123,172244,2,0,L|327:98,1,160.874992635727,2|0,1:2|0:0,0:0:0:0:
418,35,172631,6,0,B|391:69|391:69|428:246,1,198,10|0,0:2|0:0,0:0:0:0:
451,325,173018,1,2,3:2:0:0:
451,325,173211,1,2,3:2:0:0:
209,320,173405,6,0,P|229:244|341:205,1,197.99999395752,6|0,1:2|0:0,0:0:0:0:
348,384,173792,2,0,P|192:359|103:358,1,235.124993721485,2|0,3:2|0:0,0:0:0:0:
86,267,174179,6,0,B|46:277|46:277|24:108,1,198,10|0,0:2|0:0,0:0:0:0:
151,159,174566,1,2,3:2:0:0:
37,107,174760,1,0,0:0:0:0:
182,35,174953,5,6,0:0:0:0:
283,196,175147,2,0,L|293:135,1,53.6249975452424,0|0,1:2|0:0,0:0:0:0:
385,127,175340,2,0,L|218:109,1,160.874992635727,2|0,1:2|0:0,0:0:0:0:
183,234,175727,6,0,B|210:227|210:227|225:344,1,132,10|0,0:2|0:0,0:0:0:0:
77,362,176115,5,2,3:2:0:0:
96,365,176211,1,0,3:0:0:0:
115,368,176308,1,0,3:2:0:0:
322,361,176502,6,0,P|398:341|437:229,1,197.99999395752,6|0,1:2|0:0,0:0:0:0:
333,209,176889,1,2,3:2:0:0:
429,229,177082,1,0,0:0:0:0:
190,276,177276,6,0,B|200:181|200:181|192:173|192:173|206:48,1,198,10|0,0:2|0:0,0:0:0:0:
306,52,177663,1,2,3:2:0:0:
214,72,177856,1,0,0:0:0:0:
103,0,178050,5,6,0:0:0:0:
46,128,178244,2,0,L|99:119,1,53.6249975452424,0|0,1:2|0:0,0:0:0:0:
29,221,178437,2,0,L|11:54,1,160.874992635727,2|0,1:2|0:0,0:0:0:0:
122,105,178824,6,0,B|183:111|183:111|188:106|188:106|268:115,1,132,10|0,0:2|0:0,0:0:0:0:
381,235,179211,5,2,3:2:0:0:
376,219,179308,1,0,3:0:0:0:
390,198,179405,1,0,3:2:0:0:
393,181,179502,1,0,3:0:0:0:
378,160,179598,6,0,B|300:145|242:215|283:253|196:315|98:264,1,296.99999093628,6|0,1:2|0:0,0:0:0:0:
117,258,179986,2,0,P|110:190|178:200,1,156.749995814324,2|0,3:2|0:0,0:0:0:0:
378,384,180373,6,0,B|423:360|423:360|253:329,1,198,10|0,0:2|0:0,0:0:0:0:
260,341,180760,2,0,P|269:274|202:281,1,132,2|0,3:2|0:0,0:0:0:0:
170,363,181147,5,6,0:0:0:0:
109,154,181340,2,0,L|167:163,1,53.6249975452424,0|0,1:2|0:0,0:0:0:0:
229,204,181534,2,0,L|69:179,1,160.874992635727,2|0,1:2|0:0,0:0:0:0:
25,70,181921,6,0,B|42:100|42:100|60:3,1,132,10|0,0:2|0:0,0:0:0:0:
189,36,182308,5,2,3:2:0:0:
176,21,182404,1,0,3:0:0:0:
169,40,182501,1,0,3:2:0:0:
322,128,182695,6,0,P|261:201|166:195,1,197.99999395752,6|0,1:2|0:0,0:0:0:0:
94,20,183082,2,0,B|65:184|32:68|4:230,1,235.124993721485,2|0,3:2|0:0,0:0:0:0:
196,315,183469,6,0,B|170:341|170:341|76:326,1,132,10|0,0:2|0:0,0:0:0:0:
224,114,183856,2,0,B|250:254|278:155|302:294,1,198,2|0,3:2|0:0,0:0:0:0:
293,384,184244,5,2,0:0:0:0:
375,357,184437,1,2,0:0:0:0:
209,285,184631,2,0,L|191:390,1,86.6249973564149,2|0,0:0|0:0,0:0:0:0:
207,381,185018,6,0,L|149:375,1,57.7499982376099,2|0,0:0|0:0,0:0:0:0:
54,283,185405,1,2,0:0:0:0:
70,360,185598,1,2,0:0:0:0:
137,212,185792,6,0,P|146:149|156:110,1,98.9999969787599,6|2,1:2|0:0,0:0:0:0:
285,12,186566,2,0,P|303:72|310:112,1,98.9999969787599
310,107,187340,6,0,P|341:98|381:96,1,49.4999984893799,2|2,0:0|0:0,0:0:0:0:
328,199,187727,2,0,P|306:193|267:188,1,49.4999984893799,2|0,0:0|0:0,0:0:0:0:
424,158,188115,2,0,P|410:211|407:259,1,98.9999969787599,2|2,0:0|0:0,0:0:0:0:
406,254,188889,6,0,P|431:249|461:247,1,49.4999984893799,2|0,0:0|0:0,0:0:0:0:
399,341,189276,2,0,P|372:331|339:324,1,49.4999984893799,2|0,0:0|0:0,0:0:0:0:
272,332,189663,5,0,0:0:0:0:
276,349,189856,1,0,0:0:0:0:
144,326,190050,1,0,0:0:0:0:
211,286,190244,1,0,0:0:0:0:
68,294,190437,6,0,P|51:210|39:182,1,98.9999969787599,2|2,0:0|0:0,0:0:0:0:
166,206,191211,2,0,P|176:144|191:103,1,98.9999969787599,2|2,0:0|0:0,0:0:0:0:
187,109,191986,6,0,P|222:115|254:115,1,49.4999984893799,2|0,0:0|0:0,0:0:0:0:
301,191,192373,2,0,P|276:193|252:198,1,49.4999984893799,2|0,0:0|0:0,0:0:0:0:
325,105,192761,2,0,P|311:52|308:4,1,98.9999969787599
307,8,193534,6,0,P|331:7|361:2,1,49.4999984893799,2|0,0:0|0:0,0:0:0:0:
450,86,193921,2,0,P|412:77|378:74,1,49.4999984893799,2|0,0:0|0:0,0:0:0:0:
325,105,194308,5,2,0:0:0:0:
404,164,194502,2,0,P|396:187|386:268,1,98.9999969787599,0|2,0:0|0:0,0:0:0:0:
286,250,195082,6,0,P|295:264|307:298,1,49.4999984893799,2|2,0:0|0:0,0:0:0:0:
305,372,195469,1,0,0:0:0:0:
226,358,195663,2,0,P|177:360|113:371,1,98.9999969787599
51,384,196244,1,0,0:0:0:0:
51,384,196631,5,2,0:0:0:0:
12,307,196824,1,2,0:0:0:0:
131,280,197018,2,0,L|137:204,1,74.2499977340699,2|0,0:0|0:0,0:0:0:0:
74,122,197405,6,0,L|139:132,1,49.4999984893799,2|0,0:0|0:0,0:0:0:0:
183,43,197792,1,2,0:0:0:0:
204,121,197986,1,2,0:0:0:0:
299,111,198179,6,0,P|278:154|263:245,1,132,6|0,0:2|0:0,0:0:0:0:
316,293,199727,2,0,P|250:273|227:320,1,132,2|2,0:0|0:0,0:0:0:0:
38,208,201276,6,0,B|73:200|94:213|92:230|114:244|152:239,1,115.49999647522,2|0,0:0|0:0,0:0:0:0:
202,183,202824,2,0,P|172:258|165:301,1,115.49999647522,2|2,0:0|0:0,0:0:0:0:
310,293,204373,6,0,P|366:299|413:312,1,98.9999969787599,2|0,0:0|0:0,0:0:0:0:
458,251,205921,2,0,P|445:315|442:357,1,98.9999969787599,2|2,0:0|0:0,0:0:0:0:
353,201,207469,6,0,P|295:190|278:155,1,98.9999969787599,2|0,0:0|0:0,0:0:0:0:
