osu file format v14

[General]
AudioFilename: audio.mp3
AudioLeadIn: 0
PreviewTime: 60373
Countdown: 0
SampleSet: Soft
StackLeniency: 0.4
Mode: 0
LetterboxInBreaks: 0
WidescreenStoryboard: 1

[Editor]
Bookmarks: 12373,24760,37147,49534,61921,74308,86695,99082,111469,123856,136244,148631,161018,173405,185792,198179
DistanceSpacing: 1.6
BeatDivisor: 3
GridSize: 4
TimelineZoom: 2.700001

[Metadata]
Title:Violence
TitleUnicode:Violence
Artist:Tristam
ArtistUnicode:Tristam
Creator:elicz1
Version:Hard
Source:
Tags:maybe i'm done with the Altai Lazarus Xoul Gordon UndeadPhoneGuy alternative indie pop album 2020 english electronic dance music edm male vocals melodic dubstep piano im oxygen
BeatmapID:2787410
BeatmapSetID:1346009

[Difficulty]
HPDrainRate:4.5
CircleSize:3.6
OverallDifficulty:6.5
ApproachRate:7.7
SliderMultiplier:1.35
SliderTickRate:1

[Events]
//Background and Video events
0,0,"violencebg1.jpg",0,0
//Break Periods
2,87282,95191
//Storyboard Layer 0 (Background)
//Storyboard Layer 1 (Fail)
//Storyboard Layer 2 (Pass)
//Storyboard Layer 3 (Foreground)
//Storyboard Layer 4 (Overlay)
//Storyboard Sound Samples

[TimingPoints]
-14,387.096774193548,4,2,1,45,1,0
11211,-100,4,2,1,5,0,0
11598,-153.846153846154,4,2,1,45,0,0
13147,-181.818181818182,4,2,1,45,0,0
19340,-222.222222222223,4,2,1,45,0,0
20115,-285.714285714287,4,2,1,45,0,0
20889,-181.818181818182,4,2,1,45,0,0
24760,-153.846153846154,4,2,1,45,0,0
25340,-181.818181818182,4,2,1,45,0,0
27953,-181.818181818182,4,2,1,5,0,0
28050,-181.818181818182,4,2,1,45,0,0
28727,-181.818181818182,4,2,1,5,0,0
28824,-181.818181818182,4,2,1,45,0,0
31727,-222.222222222223,4,2,1,45,0,0
32502,-285.714285714287,4,2,1,45,0,0
33276,-181.818181818182,4,2,1,45,0,0
37147,-166.666666666667,4,2,1,50,0,0
44115,-200,4,2,1,50,0,0
44889,-250,4,2,1,50,0,0
46437,-181.818181818182,4,2,1,50,0,0
49534,-153.846153846154,4,2,1,60,0,0
55727,-142.857142857143,4,2,1,70,0,0
57276,-181.818181818182,4,2,1,70,0,0
58824,-166.666666666667,4,2,1,75,0,0
59211,-166.666666666667,4,2,1,65,0,0
59598,-166.666666666667,4,2,1,55,0,0
59986,-166.666666666667,4,2,1,45,0,0
60373,-153.846153846154,4,2,1,50,0,0
61050,-153.846153846154,4,2,1,5,0,0
61147,-153.846153846154,4,2,1,50,0,0
61921,-66.6666666666667,4,2,2,80,0,1
62018,-66.6666666666667,4,2,1,80,0,1
62308,-100,4,2,1,80,0,1
62695,-83.3333333333333,4,2,1,80,0,1
62986,-83.3333333333333,4,2,1,5,0,1
63082,-100,4,2,1,80,0,1
64244,-83.3333333333333,4,2,1,80,0,1
65018,-66.6666666666667,4,2,7,80,0,1
65115,-66.6666666666667,4,2,1,80,0,1
65405,-100,4,2,1,80,0,1
65792,-83.3333333333333,4,2,1,80,0,1
66082,-83.3333333333333,4,2,1,5,0,1
66179,-100,4,2,1,80,0,1
67340,-83.3333333333333,4,2,1,80,0,1
67631,-83.3333333333333,4,2,1,5,0,1
67727,-66.6666666666667,4,2,1,80,0,1
68115,-66.6666666666667,4,2,3,80,0,1
68211,-66.6666666666667,4,2,1,80,0,1
68889,-83.3333333333333,4,2,1,80,0,1
69179,-83.3333333333333,4,2,1,5,0,1
69276,-100,4,2,1,80,0,1
70437,-83.3333333333333,4,2,1,80,0,1
71018,-100,4,2,1,80,0,1
71211,-100,4,2,4,80,0,1
71308,-100,4,2,1,80,0,1
72760,-100,4,2,1,80,0,1
73437,-100,4,2,1,5,0,1
73534,-83.3333333333333,4,2,1,80,0,1
73921,-100,4,2,1,80,0,1
74308,-66.6666666666667,4,2,2,80,0,1
74405,-66.6666666666667,4,2,1,80,0,1
74695,-100,4,2,1,80,0,1
75082,-83.3333333333333,4,2,1,80,0,1
75373,-83.3333333333333,4,2,1,5,0,1
75469,-100,4,2,1,80,0,1
76631,-83.3333333333333,4,2,1,80,0,1
77405,-66.6666666666667,4,2,7,80,0,1
77502,-66.6666666666667,4,2,1,80,0,1
77792,-100,4,2,1,80,0,1
78179,-83.3333333333333,4,2,1,80,0,1
78469,-83.3333333333333,4,2,1,5,0,1
78566,-100,4,2,1,80,0,1
79727,-83.3333333333333,4,2,1,80,0,1
80502,-66.6666666666667,4,2,3,80,0,1
80598,-66.6666666666667,4,2,1,80,0,1
81276,-83.3333333333333,4,2,1,80,0,1
81566,-83.3333333333333,4,2,1,5,0,1
81663,-100,4,2,1,80,0,1
82824,-83.3333333333333,4,2,1,80,0,1
83405,-100,4,2,1,80,0,1
83598,-100,4,2,4,80,0,1
83695,-100,4,2,1,80,0,1
85147,-125,4,2,1,80,0,0
85824,-125,4,2,1,5,0,0
85921,-83.3333333333333,4,2,1,80,0,0
86308,-125,4,2,1,80,0,0
86695,-125,4,2,1,50,0,0
86792,-125,4,2,1,40,0,0
89792,-125,4,2,1,35,0,0
92889,-125,4,2,1,30,0,0
95985,-125,4,2,1,25,0,0
97921,-100,4,2,1,25,0,0
98308,-153.846153846154,4,2,1,45,0,0
99082,-153.846153846154,4,2,1,50,0,0
100534,-153.846153846154,4,2,1,5,0,0
100631,-166.666666666667,4,2,1,50,0,0
102179,-181.818181818182,4,2,1,50,0,0
103727,-200,4,2,1,50,0,0
105179,-200,4,2,1,5,0,0
105276,-153.846153846154,4,2,1,50,0,0
106050,-181.818181818182,4,2,1,50,0,0
106824,-250,4,2,1,50,0,0
107598,-153.846153846154,4,2,1,50,0,0
108373,-133.333333333333,4,2,1,50,0,0
109147,-153.846153846153,4,2,1,50,0,0
109921,-181.818181818181,4,2,1,50,0,0
111469,-142.857142857143,4,2,1,50,0,0
113018,-153.846153846154,4,2,1,50,0,0
114373,-142.857142857143,4,2,1,50,0,0
114663,-142.857142857143,4,2,1,5,0,0
114760,-142.857142857143,4,2,1,50,0,0
115244,-153.846153846154,4,2,1,50,0,0
115534,-153.846153846154,4,2,1,50,0,0
116018,-166.666666666667,4,2,1,50,0,0
116695,-181.818181818182,4,2,1,50,0,0
117663,-142.857142857143,4,2,1,50,0,0
118437,-166.666666666667,4,2,1,50,0,0
119211,-250,4,2,1,50,0,0
119986,-125,4,2,1,50,0,0
120856,-125,4,2,1,5,0,0
121050,-142.857142857143,4,2,1,50,0,0
121824,-142.857142857143,4,2,1,5,0,0
122211,-166.666666666667,4,2,1,50,0,0
123856,-142.857142857143,4,2,1,55,0,0
124631,-125,4,2,1,55,0,0
125018,-142.857142857143,4,2,1,55,0,0
126179,-125,4,2,1,55,0,0
126566,-142.857142857143,4,2,1,55,0,0
126953,-166.666666666667,4,2,1,55,0,0
127727,-142.857142857143,4,2,1,55,0,0
128115,-166.666666666667,4,2,1,55,0,0
129276,-142.857142857143,4,2,1,55,0,0
130050,-166.666666666667,4,2,1,55,0,0
130824,-142.857142857143,4,2,1,55,0,0
131211,-166.666666666667,4,2,1,55,0,0
131598,-200,4,2,1,55,0,0
133147,-166.666666666667,4,2,1,55,0,0
133921,-142.857142857143,4,2,1,55,0,0
136244,-133.333333333333,4,2,1,60,0,0
137018,-117.647058823529,4,2,1,60,0,0
137405,-133.333333333333,4,2,1,60,0,0
138566,-117.647058823529,4,2,1,60,0,0
138953,-133.333333333333,4,2,1,60,0,0
139340,-153.846153846153,4,2,1,60,0,0
140115,-133.333333333333,4,2,1,60,0,0
140502,-153.846153846153,4,2,1,60,0,0
142437,-133.333333333333,4,2,1,70,0,0
143986,-166.666666666667,4,2,1,70,0,0
145534,-153.846153846154,4,2,1,65,0,0
146308,-153.846153846154,4,2,1,70,0,0
147082,-142.857142857143,4,2,1,50,0,0
147760,-142.857142857143,4,2,1,5,0,0
147856,-142.857142857143,4,2,1,50,0,0
148631,-66.6666666666667,4,2,2,80,0,1
148727,-66.6666666666667,4,2,1,80,0,1
149018,-100,4,2,1,80,0,1
149405,-83.3333333333333,4,2,1,80,0,1
149696,-83.3333333333333,4,2,1,5,0,1
149792,-100,4,2,1,80,0,1
150953,-83.3333333333333,4,2,1,80,0,1
151727,-66.6666666666667,4,2,7,80,0,1
151824,-66.6666666666667,4,2,1,80,0,1
152115,-100,4,2,1,80,0,1
152502,-83.3333333333333,4,2,1,80,0,1
152792,-83.3333333333333,4,2,1,5,0,1
152889,-100,4,2,1,80,0,1
154050,-83.3333333333333,4,2,1,80,0,1
154824,-66.6666666666667,4,2,3,80,0,1
154921,-66.6666666666667,4,2,1,80,0,1
155598,-83.3333333333333,4,2,1,80,0,1
155889,-83.3333333333333,4,2,1,5,0,1
155986,-100,4,2,1,80,0,1
157147,-83.3333333333333,4,2,1,80,0,1
157728,-100,4,2,1,80,0,1
157921,-100,4,2,4,80,0,1
158018,-100,4,2,1,80,0,1
159469,-100,4,2,1,80,0,1
160147,-100,4,2,1,5,0,1
160244,-83.3333333333333,4,2,1,80,0,1
160631,-100,4,2,1,80,0,1
161018,-66.6666666666667,4,2,2,80,0,1
161115,-66.6666666666667,4,2,1,80,0,1
161405,-100,4,2,1,80,0,1
161792,-83.3333333333333,4,2,1,80,0,1
162083,-83.3333333333333,4,2,1,5,0,1
162179,-100,4,2,1,80,0,1
163340,-83.3333333333333,4,2,1,80,0,1
164115,-66.6666666666667,4,2,7,80,0,1
164211,-66.6666666666667,4,2,1,80,0,1
164502,-100,4,2,1,80,0,1
164889,-83.3333333333333,4,2,1,80,0,1
165179,-83.3333333333333,4,2,1,5,0,1
165276,-100,4,2,1,80,0,1
166437,-83.3333333333333,4,2,1,80,0,1
167212,-66.6666666666667,4,2,3,80,0,1
167308,-66.6666666666667,4,2,1,80,0,1
167986,-83.3333333333333,4,2,1,80,0,1
168276,-83.3333333333333,4,2,1,5,0,1
168373,-100,4,2,1,80,0,1
169534,-83.3333333333333,4,2,1,80,0,1
170115,-100,4,2,1,80,0,1
170308,-100,4,2,4,80,0,1
170405,-100,4,2,1,80,0,1
171856,-100,4,2,1,80,0,1
172534,-100,4,2,1,5,0,1
172631,-83.3333333333333,4,2,1,80,0,1
173018,-100,4,2,1,80,0,1
173405,-66.6666666666667,4,2,2,80,0,1
173502,-66.6666666666667,4,2,1,80,0,1
173792,-100,4,2,1,80,0,1
174179,-76.9230769230769,4,2,1,80,0,1
174566,-100,4,2,1,80,0,1
174953,-100,4,2,6,80,0,1
175050,-100,4,2,1,80,0,1
175727,-76.9230769230769,4,2,1,80,0,1
176502,-66.6666666666667,4,2,7,80,0,1
176598,-66.6666666666667,4,2,1,80,0,1
176889,-100,4,2,1,80,0,1
177276,-76.9230769230769,4,2,1,80,0,1
177663,-100,4,2,1,80,0,1
178050,-100,4,2,8,80,0,1
178147,-100,4,2,1,80,0,1
178824,-76.9230769230769,4,2,1,80,0,1
179598,-66.6666666666667,4,2,7,80,0,1
179695,-66.6666666666667,4,2,1,80,0,1
179986,-100,4,2,1,80,0,1
180373,-76.9230769230769,4,2,1,80,0,1
180760,-100,4,2,1,80,0,1
181147,-100,4,2,8,80,0,1
181244,-100,4,2,1,80,0,1
181921,-76.9230769230769,4,2,1,80,0,1
182695,-66.6666666666667,4,2,6,80,0,1
182792,-66.6666666666667,4,2,1,80,0,1
183469,-83.3333333333333,4,2,1,80,0,1
184244,-125,4,2,1,60,0,0
185792,-200,4,2,1,45,0,0
198179,-200,4,2,1,30,0,0
201276,-222.222222222222,4,2,1,30,0,0
204373,-250,4,2,1,30,0,0
207469,-500,4,2,1,30,0,0

[Colours]
Combo1 : 208,213,55
Combo2 : 117,170,45
Combo3 : 4,102,19
Combo4 : 19,213,184
Combo5 : 146,145,126

[HitObjects]
256,192,9276,12,0,11211,0:0:0:0:
276,167,11598,5,2,0:0:0:0:
287,88,11792,1,2,0:0:0:0:
366,101,11986,1,2,0:0:0:0:
354,179,12179,1,2,0:0:0:0:
434,216,12373,6,0,P|385:220|299:253,1,131.624993974686,0|0,1:2|0:0,0:0:0:0:
234,302,13147,6,0,P|229:263|217:224,1,74.2500022659302,2|2,0:0|0:0,0:0:0:0:
183,160,13727,2,0,P|237:144|301:153,1,111.375003398895,2|0,0:0|0:0,0:0:0:0:
328,223,14502,5,0,0:0:0:0:
383,165,14695,2,0,P|386:129|395:88,1,74.2500022659302,2|2,0:0|0:0,0:0:0:0:
423,17,15276,2,0,B|374:6|340:24|352:40|319:58|273:48,1,148.50000453186,2|0,0:0|0:0,0:0:0:0:
185,42,16244,5,2,0:0:0:0:
204,120,16437,1,2,0:0:0:0:
127,137,16631,1,2,0:0:0:0:
116,217,16824,2,0,P|176:231|194:288,1,111.375003398895,2|0,0:0|0:0,0:0:0:0:
189,355,17598,6,0,P|210:351|231:350,1,37.1250011329651,2|0,0:0|0:0,0:0:0:0:
279,294,17986,2,0,P|296:298|315:301,1,37.1250011329651,2|0,0:0|0:0,0:0:0:0:
360,367,18373,1,2,0:0:0:0:
404,298,18566,6,0,P|409:273|417:251,1,37.1250011329651,0|2,3:0|0:0,0:0:0:0:
355,207,18953,2,0,P|352:183|343:161,1,37.1250011329651
381,88,19340,6,0,L|347:93,1,30.3749990730286
285,50,19727,2,0,L|253:48,1,30.3749990730286
207,117,20115,6,0,L|203:172,1,47.2499985580445,0|0,3:0|0:0,0:0:0:0:
199,242,20695,1,0,0:0:0:0:
123,203,20889,6,0,P|88:204|57:220,2,55.6875016994477,2|2|2,0:0|0:0|0:0,0:0:0:0:
126,283,21662,2,0,P|143:315|151:351,1,74.2500022659302,2|2,3:2|0:0,0:0:0:0:
1,155,22436,6,0,L|12:67,1,74.2500022659302
143,44,23211,2,0,L|107:37,2,37.1250011329651,0|0|0,3:0|0:0|0:0,0:0:0:0:
140,188,23985,5,2,0:0:0:0:
190,249,24179,1,2,0:0:0:0:
264,224,24374,1,2,0:0:0:0:
216,163,24567,1,2,0:0:0:0:
317,166,24760,6,0,P|288:221|286:265,1,87.749995983124,0|0,1:2|0:0,0:0:0:0:
239,317,25340,6,0,P|257:318|275:324,1,37.1250011329651,2|2,0:0|0:0,0:0:0:0:
334,376,25727,2,0,P|352:373|369:367,1,37.1250011329651,2|2,0:0|0:0,0:0:0:0:
448,348,26115,2,0,B|433:326|434:297|462:288|466:258|451:226,1,111.375003398895,2|0,0:0|0:0,0:0:0:0:
368,169,27082,6,0,P|359:146|359:130,1,37.1250011329651,2|2,0:0|0:0,0:0:0:0:
378,56,27468,1,2,0:0:0:0:
299,64,27662,2,0,P|260:51|248:36,1,55.6875016994477,2|0,0:0|0:0,0:0:0:0:
234,45,28050,2,0,P|210:39|192:39,1,37.1250011329651,2|2,0:0|0:0,0:0:0:0:
125,79,28436,6,0,P|133:119|127:149,1,55.6875016994477,2|0,0:0|0:0,0:0:0:0:
119,143,28824,1,2,0:0:0:0:
42,121,29018,1,2,0:0:0:0:
30,201,29212,2,0,B|67:194|81:203|76:216|99:229|141:228,1,111.375003398895,2|0,0:0|0:0,0:0:0:0:
220,206,29986,6,0,P|213:231|212:255,1,37.1250011329651,2|2,0:0|0:0,0:0:0:0:
284,275,30374,2,0,P|293:291|299:308,1,37.1250011329651
255,375,30761,1,2,0:0:0:0:
343,375,30954,6,0,P|363:369|380:366,1,37.1250011329651,2|0,3:2|0:0,0:0:0:0:
417,297,31341,2,0,P|437:301|453:302,1,37.1250011329651,2|0,0:0|0:0,0:0:0:0:
480,224,31727,6,0,L|484:193,1,30.3749990730286
434,132,32115,2,0,L|430:101,1,30.3749990730286
462,25,32503,6,0,L|406:21,1,47.2499985580445,0|0,3:0|0:0,0:0:0:0:
338,15,33083,1,0,0:0:0:0:
256,53,33277,6,0,P|257:77|244:108,1,55.6875016994477,2|2,0:0|0:0,0:0:0:0:
232,116,33663,1,0,0:0:0:0:
293,168,33856,2,0,P|300:222|315:275,1,111.375003398895,2|2,0:0|0:0,0:0:0:0:
226,384,34824,6,0,L|278:377,2,37.1250011329651
93,269,35598,5,2,3:2:0:0:
102,346,35792,1,2,0:0:0:0:
84,256,35986,1,2,0:0:0:0:
23,309,36179,1,2,0:0:0:0:
2,221,36373,6,0,P|19:197|26:148,1,74.2500022659302,2|2,0:0|0:0,0:0:0:0:
1,81,36953,1,2,0:0:0:0:
99,107,37147,6,0,L|148:116,1,40.4999987640381,6|0,1:2|3:0,0:0:0:0:
207,71,37534,2,0,L|262:66,1,40.4999987640381,0|0,3:0|3:0,0:0:0:0:
327,59,37921,1,2,1:2:0:0:
327,59,38308,5,0,3:0:0:0:
307,136,38502,1,0,3:0:0:0:
393,163,38695,6,0,L|401:214,1,40.4999987640381,0|0,1:0|3:0,0:0:0:0:
356,270,39082,2,0,L|299:266,1,40.4999987640381,0|0,3:0|3:0,0:0:0:0:
239,263,39469,1,2,1:2:0:0:
239,263,39856,5,0,3:0:0:0:
255,341,40050,1,0,3:0:0:0:
161,359,40244,6,0,L|173:303,1,40.4999987640381,0|0,1:0|3:0,0:0:0:0:
122,257,40631,2,0,L|111:203,1,40.4999987640381,0|0,3:0|3:0,0:0:0:0:
92,145,41018,1,2,1:2:0:0:
92,145,41405,5,0,3:0:0:0:
157,97,41598,1,0,3:0:0:0:
116,12,41792,6,0,L|75:6,1,40.4999987640381,0|0,1:2|3:0,0:0:0:0:
17,60,42179,2,0,L|8:113,1,40.4999987640381,0|0,3:0|3:0,0:0:0:0:
0,189,42566,5,2,1:2:0:0:
8,199,42953,1,2,3:2:0:0:
98,177,43340,6,0,P|100:206|105:234,1,40.4999987640381,2|0,1:2|3:0,0:0:0:0:
176,247,43727,2,0,P|198:242|231:237,1,40.4999987640381,2|0,3:2|3:0,0:0:0:0:
307,272,44115,6,0,L|300:315,1,33.75,2|0,1:2|3:0,0:0:0:0:
240,353,44502,2,0,L|194:345,1,33.75,2|0,3:2|3:0,0:0:0:0:
220,260,44889,6,0,L|211:198,1,54,2|0,1:2|3:2,0:0:0:0:
76,193,45663,2,0,L|85:139,1,54,2|0,1:2|3:2,0:0:0:0:
212,77,46437,6,0,L|263:82,1,37.1250011329651,2|0,1:2|3:0,0:0:0:0:
334,16,46824,2,0,L|297:18,1,37.1250011329651,0|0,3:0|3:0,0:0:0:0:
403,71,47211,6,0,L|407:112,1,37.1250011329651,0|0,1:0|3:0,0:0:0:0:
327,186,47598,2,0,L|333:150,1,37.1250011329651,0|0,3:0|3:0,0:0:0:0:
413,229,47986,5,2,1:2:0:0:
484,196,48179,1,2,3:2:0:0:
411,245,48373,1,2,3:2:0:0:
482,277,48566,1,2,3:2:0:0:
427,349,48760,6,0,P|393:343|343:345,1,74.2500022659302,2|2,1:2|3:2,0:0:0:0:
275,363,49340,1,2,3:2:0:0:
260,267,49534,6,0,L|254:217,1,43.874997991562,6|0,1:2|3:0,0:0:0:0:
276,147,49921,2,0,L|216:141,1,43.874997991562,0|0,3:0|3:0,0:0:0:0:
157,138,50308,1,2,1:2:0:0:
157,138,50695,5,0,3:0:0:0:
174,59,50889,1,0,3:0:0:0:
88,24,51082,6,0,L|95:83,1,43.874997991562,0|0,1:0|3:0,0:0:0:0:
38,126,51469,2,0,L|33:185,1,43.874997991562,0|0,3:0|3:0,0:0:0:0:
28,249,51856,1,2,1:2:0:0:
28,249,52244,5,0,3:0:0:0:
103,228,52437,1,0,3:0:0:0:
145,305,52631,6,0,L|193:312,1,43.874997991562,0|0,1:0|3:0,0:0:0:0:
251,262,53018,2,0,L|242:203,1,43.874997991562,0|0,3:0|3:0,0:0:0:0:
230,144,53405,1,2,1:2:0:0:
230,144,53792,5,0,3:0:0:0:
151,150,53986,1,0,3:0:0:0:
185,62,54179,6,0,L|245:71,1,43.874997991562,0|0,1:2|3:0,0:0:0:0:
294,24,54566,2,0,L|354:19,1,43.874997991562,0|0,3:0|3:0,0:0:0:0:
419,10,54953,5,2,1:2:0:0:
421,24,55340,1,2,3:2:0:0:
483,126,55727,6,0,P|469:158|467:188,1,47.2499985580445,2|0,1:2|3:0,0:0:0:0:
437,270,56115,2,0,P|429:247|417:228,1,47.2499985580445,2|0,3:2|3:0,0:0:0:0:
345,289,56502,6,0,P|319:281|280:279,1,47.2499985580445,2|0,1:2|3:0,0:0:0:0:
227,209,56889,2,0,P|259:205|289:186,1,47.2499985580445,2|0,3:2|3:0,0:0:0:0:
205,128,57276,5,2,1:2:0:0:
128,104,57469,1,0,3:0:0:0:
146,181,57663,2,0,L|138:230,1,37.1250011329651,2|0,3:2|3:0,0:0:0:0:
121,314,58050,5,2,1:2:0:0:
43,332,58243,1,0,3:0:0:0:
66,255,58437,2,0,L|52:221,1,37.1250011329651,2|0,3:2|3:0,0:0:0:0:
98,144,58824,6,0,L|151:137,1,40.4999987640381,2|0,1:2|3:0,0:0:0:0:
210,218,59211,2,0,L|157:212,1,40.4999987640381,0|0,3:0|3:0,0:0:0:0:
257,124,59598,6,0,L|265:80,1,40.4999987640381,0|0,1:0|3:0,0:0:0:0:
178,30,59986,2,0,L|193:83,1,40.4999987640381,0|0,3:0|3:0,0:0:0:0:
328,29,60373,5,2,0:0:0:0:
402,59,60566,1,2,0:0:0:0:
368,129,60760,2,0,P|369:158|377:195,1,65.812496987343,2|0,0:0|0:0,0:0:0:0:
391,205,61147,2,0,P|361:206|337:213,1,43.874997991562,2|0,0:0|0:0,0:0:0:0:
306,277,61534,2,0,P|315:303|319:330,1,43.874997991562,2|2,3:2|3:2,0:0:0:0:
166,328,61921,6,0,P|116:351|72:344,1,101.250003862381,6|0,1:2|0:0,0:0:0:0:
72,251,62308,2,0,P|104:235|151:246,1,67.5,2|0,3:2|0:0,0:0:0:0:
305,238,62695,6,0,B|281:251|281:251|263:348,1,121.499996292114,8|0,0:2|0:0,0:0:0:0:
274,357,63082,2,0,L|350:367,1,67.5,0|0,3:2|0:0,0:0:0:0:
427,370,63469,5,2,0:0:0:0:
394,298,63663,1,2,1:2:0:0:
448,240,63856,2,0,L|460:150,1,67.5,2|0,1:2|0:0,0:0:0:0:
405,62,64244,6,0,B|385:92|385:92|256:106,1,161.999995056153,10|2,0:2|0:0,0:0:0:0:
204,162,64824,1,2,3:2:0:0:
115,93,65018,6,0,P|68:84|22:107,1,101.250003862381,6|0,1:2|0:0,0:0:0:0:
54,196,65405,2,0,P|94:197|131:175,1,67.5,2|0,3:2|0:0,0:0:0:0:
249,77,65792,6,0,B|240:134|240:134|233:138|233:138|224:201,1,121.499996292114,8|0,0:2|0:0,0:0:0:0:
234,205,66179,2,0,L|320:194,1,67.5,0|0,3:2|0:0,0:0:0:0:
380,187,66566,5,2,0:0:0:0:
355,263,66760,1,2,1:2:0:0:
416,315,66953,2,0,L|394:407,1,67.5,2|0,1:2|0:0,0:0:0:0:
266,379,67340,6,0,B|189:369|189:369|184:360|184:360|103:349,1,161.999995056153,10|0,0:2|0:0,0:0:0:0:
80,280,67921,1,2,3:2:0:0:
167,216,68115,6,0,B|175:150|143:112|109:134|80:91|85:34,1,202.500007724762,6|2,1:2|3:2,0:0:0:0:
364,34,68889,6,0,B|351:21|351:21|259:12|259:12|230:31,1,121.499996292114,8|0,0:2|0:0,0:0:0:0:
246,32,69276,2,0,L|254:112,1,67.5,0|0,3:2|0:0,0:0:0:0:
264,178,69663,5,2,0:0:0:0:
222,245,69856,1,0,1:2:0:0:
265,313,70050,2,0,L|200:331,1,67.5,2|0,1:2|0:0,0:0:0:0:
80,308,70437,6,0,B|62:292|62:292|50:180|50:180|73:145,1,161.999995056153,10|0,0:2|3:2,0:0:0:0:
123,105,71018,1,2,3:2:0:0:
190,184,71211,5,6,1:2:0:0:
234,116,71405,2,0,B|268:112|287:124|281:135|306:150|337:141,2,101.25,2|2|8,0:0|0:0|0:0,0:0:0:0:
435,92,72373,1,0,3:0:0:0:
484,345,72760,5,2,0:0:0:0:
388,286,72953,1,2,1:2:0:0:
317,370,73147,2,0,P|298:308|279:270,1,101.25,2|0,1:2|0:0,0:0:0:0:
268,270,73534,2,0,B|202:263|202:263|177:279,1,80.9999975280763,10|0,0:2|0:0,0:0:0:0:
165,361,73921,2,0,P|189:352|233:346,1,67.5,2|2,3:2|3:2,0:0:0:0:
364,267,74308,6,0,P|390:217|386:171,1,101.250003862381,6|0,1:2|0:0,0:0:0:0:
489,200,74695,2,0,P|471:171|471:137,1,67.5,2|0,3:2|0:0,0:0:0:0:
389,33,75082,6,0,B|405:55|405:55|308:39,1,121.499996292114,8|0,0:2|0:0,0:0:0:0:
301,50,75469,2,0,L|223:63,1,67.5,0|0,3:2|0:0,0:0:0:0:
154,80,75856,5,2,0:0:0:0:
185,152,76050,1,2,1:2:0:0:
110,182,76243,2,0,L|88:263,1,67.5,2|0,1:2|0:0,0:0:0:0:
65,370,76631,6,0,B|35:351|35:351|161:327,1,161.999995056153,10|2,0:2|0:0,0:0:0:0:
191,256,77211,1,2,3:2:0:0:
233,151,77405,6,0,P|289:153|328:180,1,101.250003862381,6|0,1:2|0:0,0:0:0:0:
301,70,77792,2,0,P|337:70|374:40,1,67.5,2|0,3:2|0:0,0:0:0:0:
469,118,78179,6,0,B|517:155|517:155|495:213,1,121.499996292114,8|0,0:2|0:0,0:0:0:0:
477,215,78566,2,0,L|488:289,1,67.5,0|0,3:2|0:0,0:0:0:0:
498,363,78953,5,2,0:0:0:0:
423,384,79147,1,2,1:2:0:0:
356,342,79340,2,0,L|291:327,1,67.5,2|0,1:2|0:0,0:0:0:0:
195,239,79727,6,0,B|131:192|131:192|160:115,1,161.999995056153,10|2,0:2|0:0,0:0:0:0:
230,152,80308,1,2,3:2:0:0:
311,242,80502,6,0,P|211:258|202:356,1,202.500007724762,6|2,1:2|3:2,0:0:0:0:
495,364,81276,6,0,B|500:312|500:312|485:294|485:294|492:233,1,121.499996292114,8|0,0:2|0:0,0:0:0:0:
499,234,81663,2,0,L|430:226,1,67.5,0|0,3:2|0:0,0:0:0:0:
354,216,82050,5,2,0:0:0:0:
382,142,82243,1,0,1:2:0:0:
354,68,82437,2,0,L|281:78,1,67.5,2|0,1:2|0:0,0:0:0:0:
154,21,82824,6,0,B|165:86|165:86|189:103|189:103|198:181,1,161.999995056153,10|0,0:2|3:2,0:0:0:0:
206,248,83405,1,2,3:2:0:0:
139,310,83598,5,4,1:2:0:0:
190,370,83792,2,0,P|241:350|291:339,2,101.25,2|2|8,0:0|0:0|0:0,0:0:0:0:
228,149,84760,1,0,3:0:0:0:
422,162,85147,5,2,0:0:0:0:
401,239,85340,1,2,1:2:0:0:
472,277,85534,2,0,P|457:328|461:365,1,81,2|0,1:2|0:0,0:0:0:0:
470,369,85921,2,0,L|376:359,1,80.9999975280763,10|0,0:2|0:0,0:0:0:0:
329,310,86308,2,0,P|307:323|269:332,1,54,2|2,3:2|3:2,0:0:0:0:
219,384,86695,6,0,P|194:374|167:370,2,54,6|0|2,1:2|0:0|3:2,0:0:0:0:
256,192,95986,12,0,97921,0:0:0:0:
37,173,98308,5,2,0:0:0:0:
56,97,98502,1,2,0:0:0:0:
131,77,98695,1,2,0:0:0:0:
186,131,98889,1,2,0:0:0:0:
146,211,99082,6,0,P|188:216|249:233,1,87.749995983124,0|0,1:2|0:0,0:0:0:0:
304,259,99663,1,2,0:0:0:0:
307,339,99856,2,0,P|327:332|349:328,1,43.874997991562,2|2,0:0|0:0,0:0:0:0:
422,294,100244,2,0,P|407:263|402:229,1,65.812496987343,2|0,0:0|0:0,0:0:0:0:
420,223,100631,6,0,B|418:186|434:166|453:171|465:142|461:106,1,121.499996292114,2|0,0:0|0:0,0:0:0:0:
439,36,101405,2,0,P|412:42|392:43,1,40.4999987640381,2|2,0:0|0:0,0:0:0:0:
321,41,101792,2,0,P|328:77|329:100,1,53.9999983520508,2|2,0:0|0:0,0:0:0:0:
261,144,102179,6,0,P|196:106|160:128,1,111.375003398895,2|0,0:0|0:0,0:0:0:0:
141,193,102953,2,0,P|152:224|157:245,1,37.1250011329651,2|2,0:0|0:0,0:0:0:0:
131,302,103340,1,2,0:0:0:0:
209,315,103534,1,2,0:0:0:0:
282,373,103727,6,0,P|290:326|311:269,1,101.25,2|0,0:0|0:0,0:0:0:0:
348,208,104502,1,2,0:0:0:0:
286,158,104695,1,2,0:0:0:0:
327,89,104889,2,0,P|314:53|304:36,1,50.625,2|2,0:0|0:0,0:0:0:0:
292,39,105276,6,0,P|267:44|248:45,1,43.874997991562,2|2,0:0|0:0,0:0:0:0:
211,113,105663,2,0,P|188:108|167:106,1,43.874997991562,2|0,0:0|0:0,0:0:0:0:
82,81,106050,6,0,L|90:125,1,37.1250011329651
35,174,106437,2,0,L|28:224,1,37.1250011329651
95,264,106824,6,0,L|158:256,1,54,2|0,0:0|0:0,0:0:0:0:
227,244,107405,1,0,0:0:0:0:
297,312,107598,6,0,P|303:281|320:248,2,65.812496987343,2|2|2,0:0|0:0|0:0,0:0:0:0:
354,368,108373,2,0,B|376:372|400:357|397:344|414:329|445:329,1,101.250003862381,2|2,0:0|0:0,0:0:0:0:
425,143,109147,6,0,L|409:240,1,87.749995983124
275,283,109921,2,0,L|315:289,2,37.1250011329651,2|0|0,0:0|0:0|0:0,0:0:0:0:
82,273,110695,5,2,0:0:0:0:
125,338,110889,1,2,0:0:0:0:
200,318,111082,1,2,0:0:0:0:
204,240,111276,1,2,0:0:0:0:
124,174,111469,6,0,B|177:174|197:149|182:134|216:112|251:114,1,141.749995674133,0|0,2:0|0:0,0:0:0:0:
311,157,112244,2,0,P|301:182|294:212,1,47.2499985580445,2|2,0:0|0:0,0:0:0:0:
337,267,112631,1,2,0:0:0:0:
411,240,112824,1,2,0:0:0:0:
405,326,113018,6,0,P|328:312|259:310,1,131.624993974686
196,323,113792,1,2,0:0:0:0:
213,247,113986,1,2,0:0:0:0:
139,216,114179,1,2,0:0:0:0:
138,129,114373,6,0,P|174:111|218:112,1,70.8749978370667,2|0,0:0|0:0,0:0:0:0:
213,120,114760,2,0,P|242:137|253:156,1,47.2499985580445,2|2,0:0|0:0,0:0:0:0:
361,133,115244,2,0,P|346:167|339:211,1,65.812496987343,2|2,0:0|0:0,0:0:0:0:
277,244,115727,1,2,0:0:0:0:
338,360,116018,2,0,B|373:363|393:348|386:333|412:321|436:325,1,101.249996910095,2|0,0:0|0:0,0:0:0:0:
493,263,116695,5,2,0:0:0:0:
450,195,116889,2,0,P|442:161|446:121,1,74.2500022659302,2|2,0:0|0:0,0:0:0:0:
395,58,117469,1,2,0:0:0:0:
353,134,117663,6,0,P|320:128|288:126,1,47.2499985580445,2|0,0:0|0:0,0:0:0:0:
246,76,118050,2,0,P|217:81|182:85,1,47.2499985580445,2|0,0:0|0:0,0:0:0:0:
154,154,118437,6,0,L|166:201,1,40.4999987640381
234,232,118824,2,0,L|229:279,1,40.4999987640381
173,341,119211,6,0,L|119:346,1,54,2|0,0:0|0:0,0:0:0:0:
41,356,119792,1,2,0:0:0:0:
74,269,119986,6,0,P|82:237|84:215,1,54,2|0,0:0|0:0,0:0:0:0:
74,206,120276,1,2,0:0:0:0:
62,197,120373,1,0,0:0:0:0:
90,122,120566,2,0,P|102:90|140:48,1,81,2|0,0:0|0:0,0:0:0:0:
197,101,121050,2,0,P|287:117|360:61,1,188.999994232178,2|0,0:0|0:0,0:0:0:0:
479,169,122211,5,0,0:0:0:0:
468,181,122308,2,0,P|471:205|481:239,1,40.4999987640381,2|2,0:0|0:0,0:0:0:0:
512,287,122695,1,2,0:0:0:0:
449,334,122889,1,2,0:0:0:0:
381,277,123082,6,0,P|350:267|297:269,1,80.9999975280763,2|2,0:0|0:0,0:0:0:0:
230,303,123663,1,2,0:0:0:0:
239,213,123856,6,0,B|198:203|167:224|173:235|150:266|105:257,1,141.749995674133,4|0,1:2|0:0,0:0:0:0:
24,165,124631,6,0,B|36:194|36:194|28:227,1,54,8|0,0:0|0:0,0:0:0:0:
2,291,125018,1,0,3:2:0:0:
81,276,125211,2,0,P|81:307|101:370,1,94.4999971160889,0|0,0:0|1:0,0:0:0:0:
176,347,125792,1,0,1:0:0:0:
176,347,126179,6,0,B|203:349|203:349|234:370,1,54,8|0,0:2|0:0,0:0:0:0:
291,318,126566,2,0,P|318:314|338:309,1,47.2499985580445,0|0,3:2|3:2,0:0:0:0:
414,353,126953,6,0,B|413:316|429:291|446:299|461:276|459:230,1,121.499996292114,0|0,1:0|0:0,0:0:0:0:
438,147,127727,6,0,B|413:155|413:155|380:151,1,47.2499985580445,8|0,0:2|0:0,0:0:0:0:
316,126,128115,1,0,3:2:0:0:
293,202,128308,2,0,P|325:213|335:265,1,80.9999975280763,0|0,0:0|1:0,0:0:0:0:
282,311,128889,1,0,1:0:0:0:
282,311,129276,6,0,B|256:308|256:308|226:323,1,47.2499985580445,8|0,0:2|0:0,0:0:0:0:
170,357,129663,1,0,3:2:0:0:
109,234,130050,6,0,P|102:215|102:195,1,40.4999987640381,0|0,1:0|0:0,0:0:0:0:
188,182,130437,2,0,P|194:202|194:222,1,40.4999987640381,0|0,3:2|0:0,0:0:0:0:
255,297,130824,6,0,B|278:293|278:293|303:310,1,47.2499985580445,8|0,0:2|0:0,0:0:0:0:
316,212,131211,2,0,P|290:210|270:199,1,40.4999987640381,0|0,3:2|0:0,0:0:0:0:
390,276,131598,5,0,0:0:0:0:
461,245,131792,1,0,1:0:0:0:
440,169,131986,2,0,L|430:129,1,33.75,0|0,1:0|0:0,0:0:0:0:
348,140,132373,5,8,0:2:0:0:
277,109,132567,1,0,0:0:0:0:
296,32,132761,2,0,L|306:-8,1,33.75,0|0,3:2|3:2,0:0:0:0:
385,45,133147,6,0,L|428:40,2,40.4999987640381,0|0|0,1:0|0:0|3:2,0:0:0:0:
288,190,133921,2,0,B|296:207|296:207|298:234,2,47.2499985580445,8|0|0,0:2|0:0|3:2,0:0:0:0:
361,355,134695,5,2,0:0:0:0:
395,283,134889,1,2,1:2:0:0:
471,308,135082,1,2,1:2:0:0:
436,379,135276,1,2,0:0:0:0:
345,347,135469,6,0,B|270:358|270:358|251:378,1,94.4999971160889,10|2,0:2|3:2,0:0:0:0:
199,316,136050,1,2,3:2:0:0:
269,241,136244,6,0,B|292:187|281:156|251:169|252:115|272:87,1,151.875005793572,4|0,1:2|0:0,0:0:0:0:
282,17,137018,6,0,B|252:14|252:14|221:30,1,57.3750010943413,8|0,0:0|0:0,0:0:0:0:
166,76,137405,1,0,3:2:0:0:
89,97,137598,2,0,P|101:126|106:208,1,101.250003862381,0|0,0:0|1:0,0:0:0:0:
181,229,138179,1,0,1:0:0:0:
181,229,138566,6,0,B|167:263|167:263|171:294,1,57.3750010943413,8|0,0:2|0:0,0:0:0:0:
227,339,138953,2,0,P|251:331|276:327,1,50.6250019311906,0|0,3:2|3:2,0:0:0:0:
362,358,139340,6,0,B|346:326|356:291|373:297|380:258|361:227,1,131.624993974686,0|0,1:0|0:0,0:0:0:0:
358,144,140115,6,0,B|386:148|386:148|413:135,1,50.6250019311906,8|0,0:2|0:0,0:0:0:0:
475,100,140502,1,0,3:2:0:0:
497,177,140695,2,0,P|496:210|478:266,1,87.749995983124,0|0,0:0|1:0,0:0:0:0:
413,303,141276,1,0,1:0:0:0:
413,303,141663,6,0,B|387:305|387:305|353:292,1,43.874997991562,8|0,0:2|0:0,0:0:0:0:
304,257,142050,1,0,3:2:0:0:
160,320,142437,6,0,P|158:346|147:369,1,50.6250019311906,2|0,1:2|3:2,0:0:0:0:
63,348,142824,2,0,P|64:323|75:300,1,50.6250019311906,0|0,3:2|3:2,0:0:0:0:
162,214,143211,6,0,L|100:224,1,50.6250019311906,10|0,0:2|3:2,0:0:0:0:
50,132,143598,2,0,L|107:142,1,50.6250019311906,0|0,3:2|3:2,0:0:0:0:
191,116,143986,5,0,3:2:0:0:
213,39,144179,1,0,1:0:0:0:
290,63,144373,2,0,L|279:113,1,40.4999987640381,0|0,1:0|3:2,0:0:0:0:
336,167,144760,5,8,0:2:0:0:
403,122,144953,1,0,3:2:0:0:
446,190,145147,2,0,L|452:237,1,40.4999987640381,0|0,3:2|3:2,0:0:0:0:
409,298,145534,6,0,L|353:286,1,43.874997991562,0|0,1:0|3:2,0:0:0:0:
287,277,145921,1,0,1:0:0:0:
314,353,146115,1,0,3:2:0:0:
213,320,146308,6,0,L|158:328,1,43.874997991562,8|0,1:2|3:2,0:0:0:0:
92,338,146695,1,0,1:0:0:0:
122,243,146889,1,0,1:0:0:0:
88,145,147082,5,2,0:0:0:0:
37,83,147276,1,2,0:0:0:0:
109,46,147469,2,0,P|152:49|180:58,1,70.8749978370667,2|0,0:0|0:0,0:0:0:0:
185,72,147856,2,0,P|193:107|182:128,1,47.2499985580445,2|0,0:0|0:0,0:0:0:0:
151,182,148244,2,0,P|140:210|134:234,1,47.2499985580445,2|2,0:0|0:0,0:0:0:0:
193,333,148631,6,0,P|259:338|305:303,1,101.250003862381,6|0,1:2|0:0,0:0:0:0:
370,253,149018,2,0,P|335:251|300:218,1,67.5,2|0,3:2|0:0,0:0:0:0:
223,144,149405,6,0,B|260:98|260:98|256:28,1,121.499996292114,8|0,0:2|0:0,0:0:0:0:
247,22,149792,2,0,L|323:32,1,67.5,0|0,3:2|0:0,0:0:0:0:
396,48,150179,5,2,0:0:0:0:
371,124,150373,1,2,1:2:0:0:
396,200,150566,2,0,L|375:279,1,67.5,2|0,1:2|0:0,0:0:0:0:
261,331,150953,6,0,B|199:277|199:277|115:303,1,161.999995056153,10|2,0:2|0:0,0:0:0:0:
93,375,151534,1,2,3:2:0:0:
1,293,151727,6,0,P|-15:248|0:199,1,101.250003862381,6|0,1:2|0:0,0:0:0:0:
107,125,152115,2,0,P|87:153|82:185,1,67.5,2|0,3:2|0:0,0:0:0:0:
219,193,152502,6,0,B|317:207|317:207|351:182,1,121.499996292114,8|0,0:2|0:0,0:0:0:0:
337,176,152889,2,0,L|326:90,1,67.5,0|0,3:2|0:0,0:0:0:0:
310,29,153276,5,2,0:0:0:0:
233,5,153469,1,2,1:2:0:0:
181,67,153663,2,0,L|89:89,1,67.5,2|0,1:2|0:0,0:0:0:0:
41,198,154050,6,0,B|26:309|26:309|54:348,1,161.999995056153,10|2,0:2|0:0,0:0:0:0:
112,292,154631,1,2,3:2:0:0:
205,344,154824,6,0,P|310:278|396:264,1,202.500007724762,6|2,1:2|3:2,0:0:0:0:
448,21,155598,6,0,B|472:47|472:47|462:106|462:106|487:136,1,121.499996292114,8|0,0:2|0:0,0:0:0:0:
495,128,155986,2,0,L|409:139,1,67.5,0|0,3:2|0:0,0:0:0:0:
346,152,156373,5,2,0:0:0:0:
376,226,156566,1,0,1:2:0:0:
323,287,156760,2,0,L|240:274,1,67.5,2|0,1:2|0:0,0:0:0:0:
133,293,157147,6,0,B|164:258|164:258|151:180|151:180|184:140,1,161.999995056153,10|0,0:2|3:2,0:0:0:0:
231,97,157728,1,2,3:2:0:0:
174,21,157921,5,6,1:2:0:0:
103,59,158115,2,0,P|40:36|-9:26,2,101.25,2|2|8,0:0|0:0|0:0,0:0:0:0:
250,198,159082,1,0,0:0:0:0:
460,16,159469,5,2,0:0:0:0:
366,76,159663,1,2,1:2:0:0:
258,0,159857,2,0,P|254:63|239:100,1,101.25,2|0,1:2|0:0,0:0:0:0:
224,103,160244,6,0,B|213:104|213:104|222:164|222:164|213:165,1,80.9999975280763,10|0,0:2|0:0,0:0:0:0:
147,211,160631,2,0,P|162:235|171:277,1,67.5,2|2,3:2|3:2,0:0:0:0:
296,260,161018,6,0,P|345:259|399:290,1,101.250003862381,6|0,1:2|0:0,0:0:0:0:
297,376,161405,2,0,P|326:360|359:361,1,67.5,2|0,3:2|0:0,0:0:0:0:
484,308,161792,6,0,B|492:251|492:251|498:247|498:247|507:185,1,121.499996292114,8|0,0:2|0:0,0:0:0:0:
493,182,162179,2,0,L|425:195,1,67.5,0|0,3:2|0:0,0:0:0:0:
349,208,162566,5,2,0:0:0:0:
279,172,162760,1,2,1:2:0:0:
214,220,162953,2,0,L|135:202,1,67.5,2|0,1:2|0:0,0:0:0:0:
42,144,163340,6,0,B|32:219|32:219|23:224|23:224|11:306,1,161.999995056153,10|2,0:2|0:0,0:0:0:0:
90,285,163921,1,0,0:0:0:0:
189,335,164115,6,0,P|196:286|227:247,1,101.250003862381,6|0,1:2|0:0,0:0:0:0:
310,342,164502,2,0,P|299:310|305:278,1,67.5,2|0,3:2|0:0,0:0:0:0:
365,155,164889,6,0,B|383:171|383:171|271:184,1,121.499996292114,8|0,0:2|0:0,0:0:0:0:
272,172,165276,2,0,L|283:98,1,67.5,0|0,3:2|0:0,0:0:0:0:
294,27,165663,5,2,0:0:0:0:
369,2,165857,1,2,1:2:0:0:
446,26,166050,2,0,L|464:98,1,67.5,2|0,1:2|0:0,0:0:0:0:
475,220,166437,6,0,B|497:199|497:199|355:183,1,161.999995056153,10|2,0:2|0:0,0:0:0:0:
368,264,167018,1,2,3:2:0:0:
256,247,167212,6,0,P|177:255|58:290,1,202.500007724762,6|2,1:2|3:2,0:0:0:0:
19,68,167986,6,0,B|57:20|57:20|129:49,1,121.499996292114,8|0,0:2|0:0,0:0:0:0:
120,55,168373,2,0,L|128:124,1,67.5,0|0,3:2|0:0,0:0:0:0:
138,202,168760,5,2,0:0:0:0:
210,165,168953,1,0,1:2:0:0:
289,181,169147,2,0,L|305:101,1,67.5,2|0,1:2|0:0,0:0:0:0:
394,56,169534,6,0,B|343:-7|343:-7|248:31,1,161.999995056153,10|0,0:2|3:2,0:0:0:0:
195,57,170115,1,2,3:2:0:0:
241,155,170308,5,4,1:2:0:0:
174,200,170502,2,0,P|171:252|156:301,2,101.25,2|2|8,0:0|0:0|0:0,0:0:0:0:
365,134,171469,1,0,0:0:0:0:
426,374,171856,5,2,0:0:0:0:
355,297,172050,1,2,1:2:0:0:
428,190,172244,2,0,P|365:186|328:171,1,101.25,2|0,1:2|0:0,0:0:0:0:
328,156,172631,6,0,B|318:142|318:142|341:76,1,80.9999975280763,10|0,0:2|0:0,0:0:0:0:
260,66,173018,2,0,P|236:81|194:90,1,67.5,2|2,3:2|3:2,0:0:0:0:
114,187,173405,6,0,P|161:213|233:200,1,101.250003862381,6|0,1:2|0:0,0:0:0:0:
66,308,173792,2,0,P|95:293|129:295,1,67.5,2|0,3:2|0:0,0:0:0:0:
257,375,174179,6,0,B|290:347|290:347|274:284,1,87.749995983124,10|0,0:2|0:0,0:0:0:0:
343,255,174566,2,0,P|377:261|421:264,1,67.5,2|0,3:2|0:0,0:0:0:0:
492,264,174953,5,6,0:0:0:0:
485,184,175147,1,0,1:2:0:0:
412,151,175340,2,0,L|390:33,1,101.25,2|0,1:2|0:0,0:0:0:0:
378,46,175727,6,0,B|335:60|335:60|286:13,1,87.749995983124,10|0,0:2|0:0,0:0:0:0:
191,61,176115,5,2,3:2:0:0:
193,73,176211,1,0,3:0:0:0:
196,85,176308,1,0,3:2:0:0:
220,204,176502,6,0,P|272:198|322:231,1,101.250003862381,6|0,1:2|0:0,0:0:0:0:
282,309,176889,2,0,P|248:312|218:298,1,67.5,2|0,3:2|0:0,0:0:0:0:
100,312,177276,6,0,B|113:328|113:328|122:237,1,87.749995983124,10|0,0:2|0:0,0:0:0:0:
57,210,177663,2,0,P|46:176|44:138,1,67.5,2|0,3:2|0:0,0:0:0:0:
74,69,178050,5,6,0:0:0:0:
148,38,178244,1,0,1:2:0:0:
221,72,178437,2,0,L|344:90,1,101.25,2|0,1:2|0:0,0:0:0:0:
334,73,178824,6,0,B|322:58|322:58|313:149,1,87.749995983124,10|0,0:2|0:0,0:0:0:0:
447,185,179211,5,2,3:2:0:0:
443,196,179308,1,0,3:0:0:0:
440,208,179405,2,0,L|454:276,1,43.874997991562,0|0,3:2|3:2,0:0:0:0:
443,264,179598,6,0,P|391:264|351:291,1,101.250003862381,6|0,1:2|0:0,0:0:0:0:
289,221,179986,2,0,P|334:229|361:254,1,67.5,2|0,3:2|0:0,0:0:0:0:
276,368,180373,6,0,B|255:384|255:384|179:371,1,87.749995983124,10|0,0:2|0:0,0:0:0:0:
181,295,180760,2,0,P|176:259|150:232,1,67.5,2|0,3:2|0:0,0:0:0:0:
91,196,181147,5,6,0:0:0:0:
132,127,181340,1,0,1:2:0:0:
210,137,181534,2,0,L|228:26,1,101.25,2|0,1:2|0:0,0:0:0:0:
209,41,181921,6,0,B|232:56|232:56|308:43,1,87.749995983124,10|0,0:2|0:0,0:0:0:0:
379,132,182308,5,2,3:2:0:0:
381,120,182404,1,0,3:0:0:0:
391,128,182502,1,0,3:2:0:0:
386,258,182695,6,0,P|428:218|480:229,2,101.250003862381,6|0|2,1:2|0:0|3:2,0:0:0:0:
202,124,183469,6,0,L|298:109,2,80.9999975280763,10|0|2,0:2|0:0|3:2,0:0:0:0:
48,271,184244,6,0,P|58:299|63:339,1,54,2|2,0:0|0:0,0:0:0:0:
138,347,184631,2,0,P|172:366|209:355,1,81,2|0,0:0|0:0,0:0:0:0:
218,342,185018,2,0,P|229:311|228:285,1,54,2|0,0:0|0:0,0:0:0:0:
213,213,185405,1,2,0:0:0:0:
284,175,185598,1,2,0:0:0:0:
343,239,185792,6,0,L|352:285,1,33.75,6|0,1:2|0:0,0:0:0:0:
373,347,186179,1,2,0:0:0:0:
493,320,186566,1,0,0:0:0:0:
373,347,186953,1,0,0:0:0:0:
459,246,187340,6,0,P|460:226|466:203,1,33.75,2|2,0:0|0:0,0:0:0:0:
406,158,187727,2,0,P|402:141|397:125,1,33.75,2|0,0:0|0:0,0:0:0:0:
333,79,188115,2,0,P|308:103|268:103,1,67.5,2|2,0:0|0:0,0:0:0:0:
224,45,188695,1,2,0:0:0:0:
136,58,188889,6,0,L|141:92,1,33.75,2|0,0:0|0:0,0:0:0:0:
205,139,189276,2,0,L|200:175,1,33.75,2|0,0:0|0:0,0:0:0:0:
180,250,189663,5,0,0:0:0:0:
195,329,189856,1,0,0:0:0:0:
274,311,190050,1,0,0:0:0:0:
257,234,190244,1,0,0:0:0:0:
317,166,190437,6,0,P|350:169|383:178,1,67.5,2|2,0:0|0:0,0:0:0:0:
478,299,191211,2,0,P|446:322|415:313,1,67.5,2|2,0:0|0:0,0:0:0:0:
370,260,191792,1,2,0:0:0:0:
433,204,191986,6,0,P|436:186|440:167,1,33.75,2|0,0:0|0:0,0:0:0:0:
376,123,192373,2,0,P|369:99|360:78,1,33.75,2|0,0:0|0:0,0:0:0:0:
302,34,192760,6,0,L|268:31,1,33.75
226,102,193147,2,0,L|182:107,1,33.75
133,171,193534,6,0,P|141:202|145:241,1,67.5,2|2,0:0|0:0,0:0:0:0:
90,368,194308,1,2,0:0:0:0:
152,317,194502,2,0,P|186:316|219:342,1,67.5,0|2,0:0|0:0,0:0:0:0:
298,332,195082,6,0,P|299:307|302:289,1,33.75,2|2,0:0|0:0,0:0:0:0:
323,224,195469,1,0,0:0:0:0:
383,276,195663,2,0,P|413:278|446:253,1,67.5
467,183,196244,1,0,0:0:0:0:
369,32,196631,6,0,P|373:59|386:104,1,67.5,2|2,0:0|0:0,0:0:0:0:
259,200,197405,2,0,P|294:230|320:226,1,67.5,2|2,0:0|0:0,0:0:0:0:
375,178,197986,1,2,0:0:0:0:
310,119,198179,6,0,B|271:124|241:118|246:89|208:85|181:90,1,135,6|0,0:2|0:0,0:0:0:0:
126,33,199727,2,0,P|141:100|153:176,1,135,2|2,0:0|0:0,0:0:0:0:
105,290,201276,6,0,P|166:274|200:324,1,121.499996292114,2|0,0:0|0:0,0:0:0:0:
137,362,202824,2,0,P|195:349|262:344,1,121.499996292114,2|2,0:0|0:0,0:0:0:0:
385,262,204373,6,0,P|362:182|370:154,1,108,2|0,0:0|0:0,0:0:0:0:
443,133,205921,2,0,P|369:123|325:112,1,108,2|2,0:0|0:0,0:0:0:0:
184,206,207469,6,0,P|247:209|269:176,1,108,2|0,0:0|0:0,0:0:0:0:
