osu file format v14

[General]
AudioFilename: audio.mp3
AudioLeadIn: 0
PreviewTime: 60373
Countdown: 0
SampleSet: Soft
StackLeniency: 0.7
Mode: 0
LetterboxInBreaks: 0
WidescreenStoryboard: 1

[Editor]
Bookmarks: 12373,24760,37147,49534,61921,74308,86695,99082,111469,123856,136244,148631,161018,173405,185792,198179,209018
DistanceSpacing: 1.6
BeatDivisor: 3
GridSize: 4
TimelineZoom: 2.700001

[Metadata]
Title:Violence
TitleUnicode:Violence
Artist:Tristam
ArtistUnicode:Tristam
Creator:elicz1
Version:Collab Normal
Source:
Tags:maybe i'm done with the Altai Lazarus Xoul Gordon UndeadPhoneGuy alternative indie pop album 2020 english electronic dance music edm male vocals melodic dubstep piano im oxygen
BeatmapID:2798775
BeatmapSetID:1346009

[Difficulty]
HPDrainRate:4
CircleSize:3
OverallDifficulty:5
ApproachRate:6
SliderMultiplier:0.999999904632569
SliderTickRate:1

[Events]
//Background and Video events
0,0,"violencebg1.jpg",0,0
//Break Periods
2,86895,98032
//Storyboard Layer 0 (Background)
//Storyboard Layer 1 (Fail)
//Storyboard Layer 2 (Pass)
//Storyboard Layer 3 (Foreground)
//Storyboard Layer 4 (Overlay)
//Storyboard Sound Samples

[TimingPoints]
-14,387.096774193548,4,2,1,45,1,0
11211,-100,4,2,1,5,0,0
12373,-100,4,2,1,45,0,0
37147,-100,4,2,1,50,0,0
49534,-100,4,2,1,60,0,0
55727,-100,4,2,1,70,0,0
58824,-100,4,2,1,75,0,0
59211,-100,4,2,1,65,0,0
59598,-100,4,2,1,55,0,0
59986,-100,4,2,1,45,0,0
60373,-100,4,2,1,50,0,0
61921,-83.3333333333333,4,2,2,80,0,1
62018,-83.3333333333333,4,2,1,80,0,1
65018,-83.3333333333333,4,2,7,80,0,1
65115,-83.3333333333333,4,2,1,80,0,1
68115,-83.3333333333333,4,2,3,80,0,1
68211,-83.3333333333333,4,2,1,80,0,1
71211,-83.3333333333333,4,2,4,80,0,1
71308,-83.3333333333333,4,2,1,80,0,1
74308,-83.3333333333333,4,2,2,80,0,1
74405,-83.3333333333333,4,2,1,80,0,1
77405,-83.3333333333333,4,2,7,80,0,1
77502,-83.3333333333333,4,2,1,80,0,1
80502,-83.3333333333333,4,2,3,80,0,1
80598,-83.3333333333333,4,2,1,80,0,1
83598,-83.3333333333333,4,2,4,80,0,1
83695,-83.3333333333333,4,2,1,80,0,1
85147,-100,4,2,1,80,0,0
86695,-100,4,2,1,50,0,0
86792,-100,4,2,1,40,0,0
89792,-100,4,2,1,35,0,0
92889,-100,4,2,1,30,0,0
95985,-100,4,2,1,25,0,0
98308,-100,4,2,1,45,0,0
99082,-100,4,2,1,50,0,0
123856,-100,4,2,1,55,0,0
136244,-100,4,2,1,60,0,0
142437,-100,4,2,1,70,0,0
145534,-100,4,2,1,65,0,0
146308,-100,4,2,1,70,0,0
147082,-100,4,2,1,50,0,0
148631,-83.3333333333333,4,2,2,80,0,1
148727,-100,4,2,1,80,0,1
149405,-76.9230769230769,4,2,1,80,0,1
150179,-83.3333333333333,4,2,1,80,0,1
150953,-76.9230769230769,4,2,1,80,0,1
151340,-83.3333333333333,4,2,1,80,0,1
151727,-83.3333333333333,4,2,7,80,0,1
151824,-83.3333333333333,4,2,1,80,0,1
152502,-76.9230769230769,4,2,1,80,0,1
153276,-83.3333333333333,4,2,1,80,0,1
154050,-76.9230769230769,4,2,1,80,0,1
154824,-83.3333333333333,4,2,3,80,0,1
154921,-83.3333333333333,4,2,1,80,0,1
155598,-76.9230769230769,4,2,1,80,0,1
156373,-83.3333333333333,4,2,1,80,0,1
157147,-76.9230769230769,4,2,1,80,0,1
157921,-83.3333333333333,4,2,4,80,0,1
158018,-83.3333333333333,4,2,1,80,0,1
160244,-76.9230769230769,4,2,1,80,0,1
161018,-83.3333333333333,4,2,2,80,0,1
161115,-83.3333333333333,4,2,1,80,0,1
161792,-76.9230769230769,4,2,1,80,0,1
162566,-83.3333333333333,4,2,1,80,0,1
163340,-76.9230769230769,4,2,1,80,0,1
163727,-83.3333333333333,4,2,1,80,0,1
164115,-83.3333333333333,4,2,7,80,0,1
164211,-83.3333333333333,4,2,1,80,0,1
164889,-76.9230769230769,4,2,1,80,0,1
165663,-83.3333333333333,4,2,1,80,0,1
166437,-76.9230769230769,4,2,1,80,0,1
167211,-83.3333333333333,4,2,3,80,0,1
167308,-83.3333333333333,4,2,1,80,0,1
167986,-76.9230769230769,4,2,1,80,0,1
168760,-83.3333333333333,4,2,1,80,0,1
169534,-76.9230769230769,4,2,1,80,0,1
170308,-83.3333333333333,4,2,4,80,0,1
170405,-83.3333333333333,4,2,1,80,0,1
172631,-76.9230769230769,4,2,1,80,0,1
173405,-83.3333333333333,4,2,2,80,0,1
173502,-83.3333333333333,4,2,1,80,0,1
174179,-76.9230769230769,4,2,1,80,0,1
174953,-76.9230769230769,4,2,6,80,0,1
175050,-76.9230769230769,4,2,1,80,0,1
176115,-83.3333333333333,4,2,1,80,0,1
176502,-83.3333333333333,4,2,7,80,0,1
176598,-83.3333333333333,4,2,1,80,0,1
177276,-76.9230769230769,4,2,1,80,0,1
178050,-83.3333333333333,4,2,8,80,0,1
178147,-83.3333333333333,4,2,1,80,0,1
178824,-76.9230769230769,4,2,1,80,0,1
179211,-83.3333333333333,4,2,1,80,0,1
179598,-83.3333333333333,4,2,7,80,0,1
179695,-83.3333333333333,4,2,1,80,0,1
180373,-76.9230769230769,4,2,1,80,0,1
181147,-76.9230769230769,4,2,8,80,0,1
181244,-76.9230769230769,4,2,1,80,0,1
182695,-83.3333333333333,4,2,6,80,0,1
182792,-83.3333333333333,4,2,1,80,0,1
183469,-76.9230769230769,4,2,1,80,0,1
184244,-100,4,2,1,60,0,0
185792,-100,4,2,1,45,0,0
198179,-100,4,2,1,30,0,0
207469,-125,4,2,1,30,0,0

[Colours]
Combo1 : 208,213,55
Combo2 : 117,170,45
Combo3 : 4,102,19
Combo4 : 19,213,184
Combo5 : 146,145,126

[HitObjects]
256,192,7727,12,0,11211,0:0:0:0:
1,97,12373,6,0,B|37:92|69:121|47:142|82:177|128:166,1,149.999985694885,2|0,1:2|0:0,0:0:0:0:
161,136,13147,2,0,P|207:123|265:114,1,99.9999904632569,2|0,0:0|0:0,0:0:0:0:
341,170,13921,2,0,L|344:222,1,49.9999952316285,0|0,3:0|0:0,0:0:0:0:
320,264,14308,1,0,0:0:0:0:
335,364,14695,2,0,P|385:372|439:387,1,99.9999904632569,2|0,0:0|0:0,0:0:0:0:
485,300,15469,6,0,P|488:200|497:149,1,149.999985694885,2|0,3:2|0:0,0:0:0:0:
475,105,16244,2,0,P|437:116|366:123,1,99.9999904632569,2|2,0:0|0:0,0:0:0:0:
298,61,17018,2,0,B|256:51|228:83|246:98|218:131|168:122,1,149.999985694885,2|0,3:2|0:0,0:0:0:0:
133,91,17792,2,0,P|131:132|119:191,1,99.9999904632569
77,280,18566,5,2,3:2:0:0:
177,291,18953,1,0,0:0:0:0:
277,302,19340,1,2,0:0:0:0:
377,312,19727,1,0,0:0:0:0:
462,272,20115,2,0,B|468:215|424:177|398:197|352:162|364:98,1,200,2|2,3:2|0:0,0:0:0:0:
375,14,21276,1,2,0:0:0:0:
463,59,21663,6,0,P|492:98|512:145,2,100,2|2|0,3:2|0:0|0:0,0:0:0:0:
375,14,22824,1,0,0:0:0:0:
315,94,23211,2,0,B|266:94|227:132|253:169|207:201|149:194,1,200,0|2,3:0|0:0,0:0:0:0:
64,155,24373,1,2,0:0:0:0:
25,247,24760,6,0,P|106:280|176:324,1,149.999985694885,2|2,1:2|0:0,0:0:0:0:
200,282,25534,2,0,P|247:293|284:262,1,99.9999904632569,2|2,0:0|0:0,0:0:0:0:
367,207,26308,2,0,P|364:167|370:140,1,49.9999952316285,0|0,3:0|0:0,0:0:0:0:
394,116,26695,1,0,0:0:0:0:
483,160,27082,2,0,P|498:210|503:258,1,99.9999904632569,2|2,0:0|0:0,0:0:0:0:
448,341,27856,6,0,B|409:347|376:333|391:301|353:279|314:291,1,149.999985694885,2|0,3:2|0:0,0:0:0:0:
287,330,28631,2,0,P|252:311|179:294,1,99.9999904632569,2|2,0:0|0:0,0:0:0:0:
94,305,29405,2,0,P|82:233|60:145,1,149.999985694885,2|2,3:2|0:0,0:0:0:0:
92,117,30179,2,0,P|121:114|195:93,1,99.9999904632569,2|0,0:0|0:0,0:0:0:0:
274,44,30953,5,2,3:2:0:0:
368,75,31340,1,0,0:0:0:0:
369,174,31727,1,2,0:0:0:0:
274,207,32115,1,0,0:0:0:0:
208,131,32502,2,0,P|186:181|158:285,1,149.999985694885,2|0,3:2|0:0,0:0:0:0:
178,319,33276,2,0,P|221:318|292:344,1,99.9999904632569,2|0,0:0|0:0,0:0:0:0:
365,291,34050,6,0,P|356:242|334:182,2,99.9999904632569,2|0|0,3:2|0:0|0:0,0:0:0:0:
459,322,35211,1,0,0:0:0:0:
480,224,35598,2,0,B|418:213|377:234|393:276|342:286|289:268,1,200,2|2,3:2|0:0,0:0:0:0:
131,23,37147,5,6,1:2:0:0:
73,105,37534,1,0,3:0:0:0:
99,201,37921,2,0,B|152:193|152:193|208:223,1,100,2|0,1:2|3:0,0:0:0:0:
266,147,38695,2,0,L|321:142,1,50,0|0,1:0|3:0,0:0:0:0:
354,175,39082,2,0,L|409:179,1,50,0|0,3:0|3:0,0:0:0:0:
443,210,39469,2,0,B|461:261|461:261|446:315,1,100,2|0,1:2|3:0,0:0:0:0:
364,354,40244,6,0,B|331:338|331:338|255:353,1,100,0|0,1:0|3:0,0:0:0:0:
178,308,41018,2,0,B|145:324|145:324|69:309,1,100,2|0,1:2|3:0,0:0:0:0:
26,229,41792,2,0,L|21:179,1,50,0|0,1:2|3:0,0:0:0:0:
50,138,42179,2,0,L|54:88,1,50,0|0,3:0|3:0,0:0:0:0:
85,49,42566,2,0,B|126:20|126:20|199:41,1,100,2|2,1:2|3:2,0:0:0:0:
254,93,43340,5,2,1:2:0:0:
254,93,43727,1,2,3:2:0:0:
357,74,44115,1,2,1:2:0:0:
357,74,44502,1,2,3:2:0:0:
442,125,44889,2,0,B|452:239,1,100,2|0,1:2|3:2,0:0:0:0:
386,300,45663,2,0,B|362:284|362:284|273:299,1,100,2|0,1:2|3:2,0:0:0:0:
192,281,46437,6,0,L|197:223,1,50,2|0,1:2|3:0,0:0:0:0:
179,183,46824,2,0,L|174:133,1,50,0|0,3:0|3:0,0:0:0:0:
189,85,47211,1,0,1:0:0:0:
102,34,47598,1,0,3:0:0:0:
31,104,47986,2,0,B|6:151|6:151|22:209,1,100,2|2,1:2|3:2,0:0:0:0:
60,291,48760,2,0,L|120:296,1,50,2|0,1:2|3:0,0:0:0:0:
155,273,49147,2,0,L|215:267,1,50,2|2,3:2|3:2,0:0:0:0:
247,243,49534,5,6,1:2:0:0:
329,299,49921,1,0,3:0:0:0:
421,262,50308,2,0,L|429:160,1,100,2|0,1:2|3:0,0:0:0:0:
434,62,51082,2,0,L|374:56,1,50,0|0,1:0|3:0,0:0:0:0:
340,32,51469,2,0,L|280:37,1,50,0|0,3:0|3:0,0:0:0:0:
242,21,51856,1,2,1:2:0:0:
177,97,52244,1,0,3:0:0:0:
239,175,52631,6,0,L|234:226,1,50,0|0,1:0|3:0,0:0:0:0:
212,269,53018,2,0,L|216:320,1,50,0|0,3:0|3:0,0:0:0:0:
196,364,53405,2,0,B|150:347|150:347|91:357,1,100,2|0,1:2|3:0,0:0:0:0:
17,299,54179,1,0,1:2:0:0:
32,200,54566,1,0,3:0:0:0:
45,100,54953,2,0,B|76:83|76:83|158:95,1,100,2|2,1:2|3:2,0:0:0:0:
227,140,55727,6,0,B|275:155|275:155|327:138,1,100,2|2,1:2|3:2,0:0:0:0:
321,39,56502,2,0,B|273:24|273:24|221:41,1,100,2|2,1:2|3:2,0:0:0:0:
139,92,57276,1,2,1:2:0:0:
139,92,57663,1,2,3:2:0:0:
122,193,58050,1,2,1:2:0:0:
122,193,58437,1,2,3:2:0:0:
102,291,58824,6,0,P|152:279|202:294,1,100,2|0,1:2|3:0,0:0:0:0:
277,231,59598,2,0,P|327:243|377:228,1,100,0|0,1:0|3:0,0:0:0:0:
452,169,60373,1,2,0:0:0:0:
452,169,61921,6,0,B|409:165|409:165|347:227|347:227|289:222,1,179.999994506836,6|0,1:2|0:0,0:0:0:0:
270,184,62695,2,0,P|236:143|165:127,1,119.999996337891,8|0,0:2|3:2,0:0:0:0:
66,181,63469,1,2,0:0:0:0:
66,181,63663,2,0,L|60:246,1,59.9999981689454,2|2,1:2|1:2,0:0:0:0:
118,347,64244,2,0,B|147:341|147:341|176:350,1,59.9999981689454,10|0,0:2|0:0,0:0:0:0:
224,330,64631,2,0,L|286:323,1,59.9999981689454,2|2,3:2|3:2,0:0:0:0:
322,286,65018,6,0,B|341:253|341:253|326:106,1,179.999977340699,6|0,1:2|0:0,0:0:0:0:
308,65,65792,2,0,P|344:29|408:43,1,119.999996337891,8|0,0:2|3:2,0:0:0:0:
487,138,66566,1,2,0:0:0:0:
487,138,66760,2,0,L|492:201,1,59.9999981689454,2|2,1:2|1:2,0:0:0:0:
441,319,67340,2,0,B|399:315|399:315|365:343|365:343|316:339,1,119.999996337891,10|2,0:2|3:2,0:0:0:0:
293,315,67921,1,2,3:2:0:0:
293,315,68115,6,0,L|277:123,1,179.999994506836,6|0,1:2|0:0,0:0:0:0:
249,95,68889,2,0,B|191:121|133:86,1,119.999996337891,8|0,0:2|3:2,0:0:0:0:
26,20,69663,1,2,0:0:0:0:
26,20,69856,2,0,L|32:89,1,59.9999981689454,0|2,1:2|1:2,0:0:0:0:
46,211,70437,2,0,B|8:264|8:264|26:339,1,119.999996337891,10|0,0:2|3:2,0:0:0:0:
66,346,71018,1,2,3:2:0:0:
66,346,71211,6,0,B|106:349|106:349|256:298,1,179.999994506836,6|0,1:2|0:0,0:0:0:0:
250,256,71986,2,0,P|284:231|346:274,1,119.999996337891,8|0,0:2|3:2,0:0:0:0:
432,357,72760,1,2,0:0:0:0:
432,357,72953,2,0,L|437:294,1,59.9999981689454,2|2,1:2|1:2,0:0:0:0:
494,191,73534,2,0,L|483:67,1,119.999996337891,10|2,0:2|3:2,0:0:0:0:
377,15,74308,6,0,B|283:8|308:99|209:91,1,179.999994506836,6|0,1:2|0:0,0:0:0:0:
173,75,75082,2,0,P|144:105|189:166,1,119.999996337891,8|0,0:2|3:2,0:0:0:0:
294,208,75856,1,2,0:0:0:0:
294,208,76050,2,0,L|288:267,1,59.9999981689454,2|2,1:2|1:2,0:0:0:0:
220,381,76631,1,10,0:2:0:0:
109,332,77018,2,0,B|81:325|81:325|45:336,1,59.9999981689454,2|2,3:2|3:2,0:0:0:0:
8,364,77405,6,0,B|40:307|40:307|32:174,1,179.999994506836,6|0,1:2|0:0,0:0:0:0:
9,146,78179,2,0,P|53:113|118:135,1,119.999996337891,8|0,0:2|3:2,0:0:0:0:
193,224,78953,1,2,0:0:0:0:
193,224,79147,2,0,L|260:230,1,59.9999981689454,2|2,1:2|1:2,0:0:0:0:
384,235,79727,2,0,B|376:204|376:204|384:168,1,59.9999981689454,10|0,0:2|0:0,0:0:0:0:
417,141,80115,2,0,B|425:110|425:110|417:74,1,59.9999981689454,2|2,3:2|3:2,0:0:0:0:
392,37,80502,6,0,L|199:53,1,179.999994506836,6|0,1:2|0:0,0:0:0:0:
168,27,81276,2,0,B|141:50|141:50|128:150,1,119.999996337891,8|0,0:2|3:2,0:0:0:0:
43,216,82050,1,2,0:0:0:0:
43,216,82244,2,0,L|49:275,1,59.9999981689454,0|2,1:2|1:2,0:0:0:0:
145,365,82824,2,0,B|185:348|185:348|266:364,1,119.999996337891,10|0,0:2|3:2,0:0:0:0:
372,321,83598,6,0,B|356:139,1,179.999994506836,4|0,1:2|0:0,0:0:0:0:
327,99,84373,2,0,P|331:67|416:72,1,119.999996337891,8|0,0:2|3:2,0:0:0:0:
480,128,85147,1,2,0:0:0:0:
480,128,85340,2,0,L|475:181,1,50,2|2,1:2|1:2,0:0:0:0:
399,243,85921,1,10,0:2:0:0:
308,202,86308,2,0,L|254:197,1,50,2|2,3:2|3:2,0:0:0:0:
213,221,86695,1,6,1:2:0:0:
392,360,99082,6,0,P|297:327|226:313,1,149.999985694885,2|2,0:0|0:0,0:0:0:0:
208,287,99856,2,0,P|197:257|181:230,2,49.9999952316285,2|2|2,0:0|0:0|0:0,0:0:0:0:
137,357,100631,1,2,0:0:0:0:
49,308,101018,5,0,0:0:0:0:
92,218,101405,2,0,P|102:189|109:155,2,49.9999952316285,2|2|2,0:0|0:0|0:0,0:0:0:0:
188,241,102179,6,0,P|261:230|386:198,1,200,2|2,0:0|0:0,0:0:0:0:
396,99,103340,5,2,0:0:0:0:
301,132,103727,2,0,B|298:170|325:199|345:181|381:198|378:251,1,149.999985694885,2|0,0:0|0:0,0:0:0:0:
391,295,104502,2,0,P|341:281|286:272,1,99.9999904632569,2|2,0:0|0:0,0:0:0:0:
196,296,105276,5,2,0:0:0:0:
105,253,105663,1,0,0:0:0:0:
74,157,106050,1,2,0:0:0:0:
132,75,106437,1,0,0:0:0:0:
231,72,106824,2,0,P|290:54|366:45,2,100,2|0|2,0:0|0:0|0:0,0:0:0:0:
190,163,107986,1,0,0:0:0:0:
257,236,108373,6,0,P|244:283|239:335,2,100,2|2|0,0:0|0:0|0:0,0:0:0:0:
190,163,109534,1,0,0:0:0:0:
271,105,109921,2,0,B|325:104|338:141|320:167|343:192|376:197,1,149.999985694885,2|0,0:0|0:0,0:0:0:0:
411,163,110695,2,0,P|438:156|476:154,1,49.9999952316285,2|2,0:0|0:0,0:0:0:0:
500,183,111082,1,2,0:0:0:0:
468,278,111469,6,0,P|396:306|399:338,1,99.9999904632569,2|0,0:0|0:0,0:0:0:0:
300,349,112244,2,0,P|266:342|236:338,1,49.9999952316285,2|2,0:0|0:0,0:0:0:0:
204,358,112631,2,0,P|181:328|162:309,1,49.9999952316285,2|0,0:0|0:0,0:0:0:0:
127,298,113018,1,2,0:0:0:0:
36,339,113405,1,0,0:0:0:0:
0,242,113792,2,0,P|11:193|29:146,1,100,2|2,0:0|0:0,0:0:0:0:
130,140,114566,6,0,B|173:144|200:114|186:94|215:66|253:70,1,149.999985694885,2|0,0:0|0:0,0:0:0:0:
291,101,115340,1,2,0:0:0:0:
381,58,115727,1,2,0:0:0:0:
445,134,116115,2,0,P|416:180|397:238,1,99.9999904632569,2|0,0:0|0:0,0:0:0:0:
376,319,116889,2,0,P|314:310|294:344,1,99.9999904632569,2|2,0:0|0:0,0:0:0:0:
203,296,117663,5,2,0:0:0:0:
105,316,118050,1,0,0:0:0:0:
85,218,118437,1,2,0:0:0:0:
183,200,118824,1,0,0:0:0:0:
215,105,119211,2,0,B|258:95|291:116|276:142|308:162|350:152,1,149.999985694885,2|2,0:0|0:0,0:0:0:0:
383,118,119985,2,0,P|392:82|409:38,2,74.9999928474427,2|2|2,0:0|0:0|0:0,0:0:0:0:
426,143,120760,6,0,P|456:193|473:238,2,99.9999904632569,2|0|0,0:0|0:0|0:0,0:0:0:0:
343,85,121921,1,0,0:0:0:0:
244,67,122308,6,0,P|256:42|267:13,2,49.9999952316285,2|2|2,0:0|0:0|0:0,0:0:0:0:
214,107,122889,1,2,0:0:0:0:
236,151,123082,2,0,P|279:155|312:201,1,99.9999904632569,2|2,0:0|0:0,0:0:0:0:
232,272,123856,5,4,1:2:0:0:
306,336,124244,1,0,3:2:0:0:
393,283,124631,2,0,B|442:297|442:297|490:266,1,100,8|0,0:0|3:2,0:0:0:0:
452,175,125405,2,0,L|459:117,1,50,0|0,0:0|1:0,0:0:0:0:
426,87,125792,2,0,L|364:93,1,50,0|0,1:0|0:0,0:0:0:0:
344,131,126179,2,0,B|292:144|292:144|240:94,1,100,8|0,0:2|3:2,0:0:0:0:
180,49,126953,5,0,1:0:0:0:
144,142,127340,1,0,3:0:0:0:
160,242,127727,2,0,B|230:229|230:229|256:261,1,100,8|0,0:2|3:2,0:0:0:0:
287,343,128502,2,0,L|355:357,1,49.9999952316285,0|0,0:0|1:0,0:0:0:0:
380,331,128889,2,0,L|390:277,1,50,0|0,1:0|0:0,0:0:0:0:
375,234,129276,2,0,B|445:247|445:247|471:215,1,100,8|0,0:2|3:2,0:0:0:0:
501,135,130050,5,0,1:0:0:0:
501,135,130437,1,0,3:2:0:0:
436,59,130824,1,8,0:2:0:0:
344,99,131211,1,0,3:2:0:0:
286,17,131598,2,0,P|231:12|172:0,1,100,0|0,0:0|1:0,0:0:0:0:
155,98,132373,2,0,B|178:116|178:116|194:204,1,100,8|0,0:2|3:2,0:0:0:0:
280,231,133147,6,0,L|272:293,1,50,0|0,1:0|0:0,0:0:0:0:
242,321,133534,2,0,L|170:332,1,50,0|0,3:2|0:0,0:0:0:0:
148,306,133921,1,8,0:2:0:0:
62,359,134308,1,0,3:2:0:0:
13,254,134695,6,0,P|7:220|-5:183,2,50,2|2|2,0:0|1:2|1:2,0:0:0:0:
66,269,135276,1,2,0:0:0:0:
110,231,135469,2,0,P|167:222|219:207,1,100,10|2,0:2|3:2,0:0:0:0:
239,115,136244,5,4,1:2:0:0:
251,16,136631,1,0,3:2:0:0:
350,28,137018,2,0,P|360:74|378:127,1,100,8|0,0:0|3:2,0:0:0:0:
401,221,137792,2,0,L|453:230,1,50,0|0,0:0|1:0,0:0:0:0:
486,196,138179,2,0,L|499:124,1,50,0|0,1:0|0:0,0:0:0:0:
466,106,138566,1,8,0:2:0:0:
505,14,138953,1,0,3:2:0:0:
405,4,139340,6,0,L|329:17,1,50,0|0,1:0|0:0,0:0:0:0:
325,53,139727,2,0,L|333:106,1,50,0|0,3:2|0:0,0:0:0:0:
307,146,140115,1,8,0:2:0:0:
207,138,140502,1,0,3:2:0:0:
193,237,140889,2,0,L|184:301,1,50,0|0,0:0|1:0,0:0:0:0:
157,328,141276,2,0,L|92:335,1,50,0|0,1:0|0:0,0:0:0:0:
80,292,141663,2,0,B|48:270|48:270|74:177,1,100,8|0,0:2|3:2,0:0:0:0:
102,118,142437,6,0,P|144:142|199:134,1,100,2|0,1:2|3:2,0:0:0:0:
228,43,143211,2,0,P|270:19|325:27,1,100,10|0,0:2|3:2,0:0:0:0:
367,120,143986,2,0,P|375:154|390:194,2,50,0|0|0,3:2|1:0|1:0,0:0:0:0:
421,36,144760,2,0,P|455:28|495:13,2,50,8|0|0,0:2|3:2|3:2,0:0:0:0:
317,32,145534,6,0,L|252:21,1,50,0|0,1:0|3:2,0:0:0:0:
224,49,145921,2,0,L|213:114,1,50,0|0,1:0|3:2,0:0:0:0:
218,148,146308,2,0,P|171:137|106:114,1,100,8|0,1:2|1:0,0:0:0:0:
80,149,146889,1,0,1:0:0:0:
83,205,147082,1,2,0:0:0:0:
83,205,148631,6,0,P|95:232|106:265,2,59.9999981689454,6|0|2,1:2|0:0|3:2,0:0:0:0:
94,75,149405,2,0,B|154:46|154:46|201:95,1,129.999994049073,8|0,0:2|3:2,0:0:0:0:
337,70,150179,1,2,0:0:0:0:
337,70,150373,2,0,P|376:61|408:57,1,59.9999981689454,2|2,1:2|1:2,0:0:0:0:
442,193,150953,2,0,B|409:206|409:206|370:169,1,64.9999970245363,10|0,0:2|0:0,0:0:0:0:
342,202,151340,2,0,P|326:255|312:283,1,59.9999981689454,2|2,3:2|3:2,0:0:0:0:
345,304,151727,6,0,P|294:298|221:291,1,119.999996337891,6|2,1:2|3:2,0:0:0:0:
89,245,152502,2,0,B|52:268|52:268|75:365,1,129.999994049073,8|0,0:2|3:2,0:0:0:0:
189,376,153276,5,2,0:0:0:0:
207,319,153469,1,2,1:2:0:0:
261,294,153663,1,2,1:2:0:0:
222,155,154050,6,0,B|199:192|199:192|102:169,1,129.999994049073,10|2,0:2|3:2,0:0:0:0:
100,116,154631,1,2,3:2:0:0:
55,75,154824,2,0,P|109:63|184:37,1,119.999996337891,6|2,1:2|3:2,0:0:0:0:
316,10,155598,2,0,B|365:15|365:15|384:42|384:42|435:49,1,129.999994049073,8|0,0:2|3:2,0:0:0:0:
477,178,156373,5,2,0:0:0:0:
477,178,156566,2,0,L|464:250,1,59.9999981689454,0|2,1:2|1:2,0:0:0:0:
346,315,157147,2,0,B|297:320|297:320|278:347|278:347|227:354,1,129.999994049073,10|0,0:2|3:2,0:0:0:0:
184,235,157921,5,6,1:2:0:0:
184,235,158115,2,0,P|165:185|134:135,2,89.9999972534181,2|2|8,0:0|0:0|0:2,0:0:0:0:
382,61,159469,5,2,0:0:0:0:
324,78,159663,1,2,1:2:0:0:
277,41,159856,1,2,1:2:0:0:
176,143,160244,6,0,B|121:104|121:104|56:135,1,129.999994049073,10|2,0:2|3:2,0:0:0:0:
86,261,161018,6,0,P|74:288|63:321,2,59.9999981689454,6|0|2,1:2|0:0|3:2,0:0:0:0:
221,305,161792,2,0,B|315:272|315:272|342:312,1,129.999994049073,8|0,0:2|3:2,0:0:0:0:
452,239,162566,1,2,0:0:0:0:
452,239,162760,2,0,P|443:200|439:168,1,59.9999981689454,2|2,1:2|1:2,0:0:0:0:
359,62,163340,2,0,B|308:72|308:72|287:38,1,64.9999970245363,10|0,0:2|0:0,0:0:0:0:
252,45,163727,2,0,P|236:98|222:126,1,59.9999981689454,2|2,3:2|3:2,0:0:0:0:
200,140,164115,6,0,P|264:151|335:171,1,119.999996337891,6|2,1:2|3:2,0:0:0:0:
239,285,164889,2,0,B|177:268|177:268|140:341,1,129.999994049073,8|0,0:2|3:2,0:0:0:0:
44,244,165663,5,2,0:0:0:0:
49,184,165856,1,2,1:2:0:0:
105,163,166050,1,2,1:2:0:0:
248,172,166437,6,0,B|310:189|310:189|347:116,1,129.999994049073,10|2,0:2|3:2,0:0:0:0:
330,75,167018,1,2,3:2:0:0:
279,42,167211,6,0,P|225:54|150:80,1,119.999996337891,6|2,1:2|3:2,0:0:0:0:
173,220,167986,2,0,B|227:278|227:278|202:333,1,129.999994049073,8|0,0:2|3:2,0:0:0:0:
332,368,168760,1,2,0:0:0:0:
332,368,168953,2,0,L|404:355,1,59.9999981689454,0|2,1:2|1:2,0:0:0:0:
464,234,169534,2,0,B|486:151|486:151|424:131,1,129.999994049073,10|0,0:2|3:2,0:0:0:0:
318,100,170308,5,4,1:2:0:0:
318,100,170502,2,0,P|337:50|368:1,2,89.9999972534181,2|2|8,0:0|0:0|0:2,0:0:0:0:
155,307,171856,5,2,0:0:0:0:
212,326,172050,1,2,1:2:0:0:
260,291,172244,1,2,1:2:0:0:
303,167,172631,6,0,B|259:174|259:174|226:147|226:147|182:154,1,129.999994049073,10|2,0:2|3:2,0:0:0:0:
170,33,173405,6,0,P|140:25|111:22,2,59.9999981689454,6|0|2,1:2|0:0|3:2,0:0:0:0:
297,59,174179,2,0,B|346:13|346:13|408:43,1,129.999994049073,10|2,0:2|3:2,0:0:0:0:
369,165,174953,5,6,0:0:0:0:
413,204,175147,1,0,1:2:0:0:
397,261,175340,1,2,1:2:0:0:
273,332,175727,6,0,B|245:311|245:311|208:324,1,64.9999970245363,10|0,0:2|0:0,0:0:0:0:
182,355,176115,2,0,P|154:348|123:345,1,59.9999981689454,2|0,3:2|3:2,0:0:0:0:
96,304,176502,6,0,P|75:211|59:174,1,119.999996337891,6|2,1:2|3:2,0:0:0:0:
129,60,177276,2,0,B|165:86|165:86|257:63,1,129.999994049073,10|2,0:2|3:2,0:0:0:0:
372,64,178050,2,0,P|358:92|349:131,1,59.9999981689454,6|0,0:0|1:2,0:0:0:0:
374,167,178437,1,2,1:2:0:0:
280,275,178824,2,0,B|299:264|299:264|358:282,1,64.9999970245363,10|0,0:2|0:0,0:0:0:0:
356,326,179211,2,0,P|387:317|421:312,1,59.9999981689454,2|0,3:2|3:2,0:0:0:0:
451,278,179598,6,0,P|465:228|507:148,1,119.999996337891,6|2,1:2|3:2,0:0:0:0:
387,71,180373,2,0,B|339:76|339:76|319:104|319:104|267:110,1,129.999994049073,10|2,0:2|3:2,0:0:0:0:
222,244,181147,5,6,0:0:0:0:
175,211,181340,1,0,1:2:0:0:
120,231,181534,1,2,1:2:0:0:
76,367,181921,6,0,B|123:361|123:361|143:333|143:333|195:327,1,129.999994049073,10|2,0:2|3:2,0:0:0:0:
304,366,182695,6,0,P|313:333|325:305,1,59.9999981689454,6|0,1:2|0:0,0:0:0:0:
367,279,183082,1,2,3:2:0:0:
299,181,183469,2,0,B|291:148|291:148|261:129,1,64.9999970245363,10|0,0:2|0:0,0:0:0:0:
212,137,183856,1,2,3:2:0:0:
236,25,184244,5,2,0:0:0:0:
423,32,185792,6,0,P|439:81|450:142,1,100,6|2,1:2|0:0,0:0:0:0:
488,219,186566,2,0,P|472:268|461:329,1,100
375,364,187340,1,2,0:0:0:0:
286,318,187727,1,2,0:0:0:0:
189,344,188115,2,0,B|165:325|165:325|167:246,1,100,2|2,0:0|0:0,0:0:0:0:
172,155,188889,6,0,B|130:142|79:181|94:220|49:259|-10:225,2,200,2|0|2,0:0|0:0|0:0,0:0:0:0:
262,196,190824,1,2,0:0:0:0:
262,196,191211,2,0,P|311:205|371:180,1,100,2|2,0:0|0:0,0:0:0:0:
437,128,191986,5,2,0:0:0:0:
437,128,192373,1,2,0:0:0:0:
424,33,192760,1,0,0:0:0:0:
424,33,193147,1,0,0:0:0:0:
328,2,193534,2,0,L|221:11,1,100,2|2,0:0|0:0,0:0:0:0:
128,19,194308,2,0,B|101:22|101:22|107:108,1,100,2|0,0:0|0:0,0:0:0:0:
131,193,195082,6,0,P|67:181|22:246,2,150,2|0|0,0:0|0:0|0:0,0:0:0:0:
190,273,196631,1,2,0:0:0:0:
288,289,197018,1,2,0:0:0:0:
358,217,197405,2,0,L|349:108,1,100,2|2,0:0|0:0,0:0:0:0:
378,21,198179,6,0,B|448:14|448:14|456:161,1,200,6|0,0:2|0:0,0:0:0:0:
331,300,199727,2,0,B|285:267|232:303|248:334|204:368|137:332,1,200,2|2,0:0|0:0,0:0:0:0:
85,271,200889,1,2,0:0:0:0:
85,271,201276,6,0,L|67:65,1,200,2|0,0:0|0:0,0:0:0:0:
264,38,202824,2,0,B|310:52|310:121|248:152|179:70,1,200,2|2,0:0|0:0,0:0:0:0:
88,52,203986,1,2,0:0:0:0:
88,52,204373,6,0,L|106:261,1,200,2|0,0:0|0:0,0:0:0:0:
260,376,205921,2,0,L|268:273,1,100,2|2,0:0|0:0,0:0:0:0:
233,182,206695,2,0,P|246:135|297:139,1,100,2|0,0:0|0:0,0:0:0:0:
382,174,207469,6,0,P|469:131|400:244,1,320,2|0,0:0|0:0,0:0:0:0:
