osu file format v14

[General]
AudioFilename: audio.mp3
AudioLeadIn: 0
PreviewTime: 57040
Countdown: 0
SampleSet: Soft
StackLeniency: 0.7
Mode: 0
LetterboxInBreaks: 0
WidescreenStoryboard: 1

[Editor]
Bookmarks: 74290
DistanceSpacing: 1.5
BeatDivisor: 4
GridSize: 4
TimelineZoom: 1.5

[Metadata]
Title:The Vine
TitleUnicode:The Vine
Artist:Tristam
ArtistUnicode:Tristam
Creator:vanucik5656
Version:Hard
Source:
Tags:EDM monstercat mcat electronic drumstep cut version
BeatmapID:1005627
BeatmapSetID:467431

[Difficulty]
HPDrainRate:4.5
CircleSize:4
OverallDifficulty:6
ApproachRate:7
SliderMultiplier:1.1
SliderTickRate:1

[Events]
//Background and Video events
0,0,"maxresdefaulttristam.jpg",0,0
//Break Periods
//Storyboard Layer 0 (Background)
//Storyboard Layer 1 (Fail)
//Storyboard Layer 2 (Pass)
//Storyboard Layer 3 (Foreground)
//Storyboard Sound Samples

[TimingPoints]
12040,375,4,2,1,10,1,0
12040,-125,4,2,1,10,0,0
36040,-111.111111111111,4,2,1,20,0,0
48040,-100,4,2,1,35,0,0
60040,-90.9090909090909,4,2,1,80,0,1
70352,-100,4,2,1,80,0,0
72040,-83.3333333333333,4,2,1,80,0,1
100540,-100,4,2,1,80,0,0
102040,-83.3333333333333,4,2,1,80,0,1
108040,-100,4,2,1,80,0,0

[Colours]
Combo1 : 211,254,203
Combo2 : 128,255,128
Combo3 : 0,157,0
Combo4 : 217,255,0

[HitObjects]
111,272,12040,6,0,B|160:311|228:287|228:287|287:327|287:327|352:299|352:299|377:331|408:345|408:345|406:273|433:211|433:211|354:239|294:183,1,616,2|0,0:0|0:0,0:0:0:0:
235,75,15040,6,0,B|152:111|56:81|56:81|137:106|142:193|142:193|93:178|47:188|3:232|3:292|27:351|76:358|109:353|109:353,1,616,2|0,0:0|0:0,0:0:0:0:
227,334,18040,6,0,B|312:287|393:344|393:344|385:286|396:240|425:204|466:200|505:211|527:237|535:275|518:310|482:334|452:342|424:319|412:281|389:252|361:241|323:239,1,616,2|0,0:0|0:0,0:0:0:0:
200,227,21040,6,0,B|115:240|109:329|109:329|57:279|54:200|121:176|102:72|102:72|166:112|204:46|285:120,1,616,2|8,0:0|0:0,0:0:0:0:
341,161,23852,1,8,0:0:0:0:
407,132,24040,6,0,B|442:113|448:73|448:73|438:191,1,176,10|0,0:0|0:0,0:0:0:0:
385,294,25165,2,0,P|313:313|297:226,2,176,2|2|0,0:0|0:0|0:0,0:0:0:0:
344,168,27040,6,0,B|273:125|219:191|219:191|219:145|183:107|140:93|85:110|62:158|59:199|64:245|91:290|140:290|172:365|172:365|217:342,1,616,2|0,0:0|0:0,0:0:0:0:
323,265,30040,6,0,P|405:239|490:275,1,176,2|0,0:0|0:0,0:0:0:0:
400,371,31165,2,0,L|210:342,2,176,2|2|0,0:0|0:0|0:0,0:0:0:0:
351,249,33040,6,0,B|323:195|251:167|201:174|153:183|115:212|88:248|69:299|69:299|119:146|37:42,1,616,2|0,0:0|0:0,0:0:0:0:
190,75,36040,6,0,L|301:68,1,98.9999969787599,2|0,0:0|0:0,0:0:0:0:
421,136,36790,2,0,L|310:143,1,98.9999969787599
255,175,37352,1,0,0:0:0:0:
221,241,37540,2,0,P|209:280|216:342,1,98.9999969787599
328,238,38290,2,0,P|334:189|321:141,1,98.9999969787599
269,88,38852,1,0,0:0:0:0:
200,117,39040,6,0,P|173:132|97:23,1,197.99999395752,2|0,0:0|0:0,0:0:0:0:
166,38,39977,2,0,L|221:29,1,49.4999984893799
285,53,40352,1,0,0:0:0:0:
355,77,40540,1,0,0:0:0:0:
345,224,40915,1,0,0:0:0:0:
204,176,41290,1,0,0:0:0:0:
218,323,41665,1,0,0:0:0:0:
366,314,42040,6,0,P|414:285|431:228,1,98.9999969787599,2|0,0:0|0:0,0:0:0:0:
325,140,42790,2,0,P|277:169|260:226,1,98.9999969787599,0|0,0:0|0:0,0:0:0:0:
205,256,43352,1,0,0:0:0:0:
137,224,43540,2,0,L|35:226,1,98.9999969787599,0|0,0:0|0:0,0:0:0:0:
31,152,44102,1,0,0:0:0:0:
52,80,44290,2,0,P|57:44|51:18,2,49.4999984893799,0|0|0,0:0|0:0|0:0,0:0:0:0:
104,132,44852,1,0,0:0:0:0:
173,159,45040,6,0,P|220:166|266:134,1,98.9999969787599,2|0,0:0|0:0,0:0:0:0:
376,45,45790,2,0,P|329:38|283:70,1,98.9999969787599,0|0,0:0|0:0,0:0:0:0:
344,111,46352,1,0,0:0:0:0:
418,117,46540,2,0,L|416:222,1,98.9999969787599,0|0,0:0|0:0,0:0:0:0:
351,349,47290,2,0,P|325:358|296:363,1,49.4999984893799,0|0,0:0|0:0,0:0:0:0:
229,361,47665,1,0,0:0:0:0:
73,307,48040,6,0,P|56:280|65:201,1,110,2|0,0:0|0:0,0:0:0:0:
187,99,48790,2,0,P|204:126|195:205,1,110,0|0,0:0|0:0,0:0:0:0:
128,156,49352,1,0,0:0:0:0:
111,74,49540,2,0,P|126:44|207:21,1,110,0|0,0:0|0:0,0:0:0:0:
261,64,50102,1,0,0:0:0:0:
334,27,50290,2,0,P|363:21|391:31,2,55,0|0|0,0:0|0:0|0:0,0:0:0:0:
358,105,50852,1,0,0:0:0:0:
309,171,51040,6,0,P|274:201|195:187,1,110,2|0,0:0|0:0,0:0:0:0:
55,149,51790,2,0,L|169:142,1,110,0|0,0:0|0:0,0:0:0:0:
245,123,52352,1,0,0:0:0:0:
309,171,52540,2,0,P|354:197|420:179,1,110,0|0,0:0|0:0,0:0:0:0:
245,211,53290,2,0,L|232:266,1,55,0|0,0:0|0:0,0:0:0:0:
307,299,53665,2,0,L|320:356,1,55,0|0,0:0|0:0,0:0:0:0:
237,364,54040,6,0,B|182:377|182:377|127:351,1,110,2|0,0:0|0:0,0:0:0:0:
63,310,54602,1,0,0:0:0:0:
107,239,54790,2,0,P|132:264|142:290,1,55,0|0,0:0|0:0,0:0:0:0:
222,291,55165,2,0,P|246:266|256:240,1,55,0|0,0:0|0:0,0:0:0:0:
311,189,55540,2,0,P|353:183|410:217,1,110,0|0,0:0|0:0,0:0:0:0:
431,295,56102,1,0,0:0:0:0:
351,316,56290,2,0,L|344:260,1,55,0|0,0:0|0:0,0:0:0:0:
311,189,56665,2,0,L|317:134,1,55,0|0,0:0|0:0,0:0:0:0:
256,192,57040,12,0,59290,0:0:0:0:
434,76,60040,6,0,L|362:81,1,60.5000018463135,6|0,0:0|0:0,0:0:0:0:
311,147,60415,2,0,L|242:151,1,60.5000018463135,0|0,0:0|0:0,0:0:0:0:
161,132,60790,2,0,P|148:101|149:65,2,60.5000018463135,8|0|0,0:0|0:0|0:0,0:0:0:0:
173,221,61352,1,0,0:0:0:0:
246,274,61540,6,0,P|284:280|313:274,1,60.5000018463135,2|0,0:0|0:0,0:0:0:0:
375,193,61915,2,0,P|337:187|307:191,1,60.5000018463135,0|0,0:0|0:0,0:0:0:0:
240,136,62290,1,8,0:0:0:0:
288,59,62477,1,0,0:0:0:0:
362,110,62665,2,0,P|400:121|437:117,1,60.5000018463135,0|0,0:0|0:0,0:0:0:0:
510,88,63040,6,0,L|498:216,1,121.000003692627,2|0,0:0|0:0,0:0:0:0:
424,261,63602,1,0,0:0:0:0:
343,219,63790,2,0,P|307:212|274:214,1,60.5000018463135,8|0,0:0|0:0,0:0:0:0:
207,262,64165,1,0,0:0:0:0:
136,205,64352,6,0,P|129:169|131:141,2,60.5000018463135,2|2|0,0:0|0:0|0:0,0:0:0:0:
213,157,64915,2,0,P|215:114|207:88,1,60.5000018463135,2|0,0:0|0:0,0:0:0:0:
300,194,65290,1,8,0:0:0:0:
390,187,65477,1,0,0:0:0:0:
470,143,65665,2,0,P|489:111|498:84,1,60.5000018463135,0|0,0:0|0:0,0:0:0:0:
398,72,66040,6,0,P|358:76|327:67,1,60.5000018463135,6|0,0:0|0:0,0:0:0:0:
252,40,66415,2,0,P|215:33|179:42,1,60.5000018463135,0|0,0:0|0:0,0:0:0:0:
219,123,66790,2,0,P|256:130|292:121,2,60.5000018463135,8|0|0,0:0|0:0|0:0,0:0:0:0:
130,102,67352,1,0,0:0:0:0:
169,198,67540,6,0,P|196:210|226:210,1,60.5000018463135,2|0,0:0|0:0,0:0:0:0:
316,196,67915,2,0,P|346:196|373:208,1,60.5000018463135,0|0,0:0|0:0,0:0:0:0:
356,297,68290,1,8,0:0:0:0:
356,297,68477,1,0,0:0:0:0:
275,339,68665,1,0,0:0:0:0:
184,334,68852,1,0,0:0:0:0:
115,274,69040,6,0,P|100:239|122:161,1,121.000003692627,2|0,0:0|0:0,0:0:0:0:
189,221,69602,1,0,0:0:0:0:
263,169,69790,2,0,P|304:171|330:165,2,60.5000018463135,8|0|0,0:0|0:0|0:0,0:0:0:0:
206,108,70352,6,0,P|178:103|151:102,1,55,2|0,0:0|0:0,0:0:0:0:
74,132,70727,1,0,0:0:0:0:
4,87,70915,2,0,L|2:24,1,55,0|2,0:0|0:0,0:0:0:0:
84,27,71290,2,0,P|125:36|147:31,1,55,8|0,0:0|0:0,0:0:0:0:
219,23,71665,1,0,0:0:0:0:
312,197,72040,6,0,P|269:221|190:184,1,131.99999597168,6|0,0:0|0:0,0:0:0:0:
128,120,72602,1,0,0:0:0:0:
94,213,72790,2,0,P|106:250|128:278,1,65.9999979858399,8|0,0:0|0:0,0:0:0:0:
201,335,73165,1,0,0:0:0:0:
298,349,73352,1,0,0:0:0:0:
390,312,73540,6,0,L|468:294,1,65.9999979858399,2|0,0:0|0:0,0:0:0:0:
406,210,73915,2,0,L|475:195,1,65.9999979858399,0|0,0:0|0:0,0:0:0:0:
398,127,74290,2,0,P|352:145|324:230,1,131.99999597168,8|0,0:0|0:0,0:0:0:0:
263,297,74852,1,0,0:0:0:0:
170,260,75040,6,0,L|159:187,1,65.9999979858399,2|0,0:0|0:0,0:0:0:0:
249,151,75415,2,0,L|259:79,1,65.9999979858399,0|0,0:0|0:0,0:0:0:0:
356,76,75790,2,0,P|370:113|369:141,1,65.9999979858399,8|0,0:0|0:0,0:0:0:0:
338,233,76165,1,0,0:0:0:0:
390,316,76352,6,0,P|419:306|447:277,2,65.9999979858399,2|0|0,0:0|0:0|0:0,0:0:0:0:
289,318,76915,2,0,L|211:308,1,65.9999979858399,2|0,0:0|0:0,0:0:0:0:
135,264,77290,1,8,0:0:0:0:
199,188,77477,1,0,0:0:0:0:
118,129,77665,2,0,P|99:100|96:65,1,65.9999979858399,0|0,0:0|0:0,0:0:0:0:
193,86,78040,6,0,P|248:92|292:154,1,131.99999597168,6|0,0:0|0:0,0:0:0:0:
257,243,78602,1,0,0:0:0:0:
294,334,78790,2,0,L|358:352,1,65.9999979858399,8|0,0:0|0:0,0:0:0:0:
449,314,79165,2,0,L|513:332,1,65.9999979858399,0|0,0:0|0:0,0:0:0:0:
480,238,79540,6,0,P|448:231|412:241,1,65.9999979858399,2|0,0:0|0:0,0:0:0:0:
326,254,79915,2,0,P|293:263|255:263,1,65.9999979858399,0|0,0:0|0:0,0:0:0:0:
168,299,80290,2,0,P|164:331|169:368,2,65.9999979858399,8|0|0,0:0|0:0|0:0,0:0:0:0:
184,201,80852,1,0,0:0:0:0:
276,164,81040,6,0,P|308:155|346:153,1,65.9999979858399,2|0,0:0|0:0,0:0:0:0:
399,233,81415,2,0,P|433:240|472:237,1,65.9999979858399,0|0,0:0|0:0,0:0:0:0:
505,147,81790,2,0,P|472:145|439:152,2,65.9999979858399,8|0|0,0:0|0:0|0:0,0:0:0:0:
468,55,82352,1,2,0:0:0:0:
377,95,82540,6,0,P|339:105|303:103,1,65.9999979858399,2|0,0:0|0:0,0:0:0:0:
216,81,82915,2,0,P|185:92|153:115,1,65.9999979858399,0|0,0:0|0:0,0:0:0:0:
126,204,83290,1,8,0:0:0:0:
166,293,83477,2,0,P|209:333|297:334,1,131.99999597168,0|0,0:0|0:0,0:0:0:0:
378,330,84040,6,0,L|384:257,1,65.9999979858399,6|0,0:0|0:0,0:0:0:0:
318,188,84415,2,0,L|311:117,1,65.9999979858399,0|0,0:0|0:0,0:0:0:0:
213,109,84790,1,8,0:0:0:0:
147,183,84977,1,0,0:0:0:0:
49,165,85165,2,0,P|33:129|33:98,1,65.9999979858399,0|0,0:0|0:0,0:0:0:0:
97,27,85540,6,0,P|118:71|120:92,1,65.9999979858399,2|0,0:0|0:0,0:0:0:0:
147,183,85915,2,0,P|168:212|203:235,1,65.9999979858399,0|0,0:0|0:0,0:0:0:0:
286,198,86290,1,8,0:0:0:0:
319,290,86477,1,0,0:0:0:0:
409,249,86665,2,0,P|443:239|476:240,1,65.9999979858399,0|0,0:0|0:0,0:0:0:0:
464,363,87040,6,0,L|397:353,1,65.9999979858399,2|0,0:0|0:0,0:0:0:0:
319,290,87415,2,0,L|235:304,1,65.9999979858399,0|0,0:0|0:0,0:0:0:0:
165,229,87790,2,0,P|128:225|97:234,2,65.9999979858399,8|0|0,0:0|0:0|0:0,0:0:0:0:
264,222,88352,1,2,0:0:0:0:
354,180,88540,2,0,P|387:162|414:125,1,65.9999979858399,2|0,0:0|0:0,0:0:0:0:
370,48,88915,2,0,P|333:40|289:51,1,65.9999979858399,2|0,0:0|0:0,0:0:0:0:
237,116,89290,2,0,P|204:115|171:105,1,65.9999979858399,8|0,0:0|0:0,0:0:0:0:
109,182,89665,1,0,0:0:0:0:
164,264,89852,1,0,0:0:0:0:
102,341,90040,6,0,P|66:349|37:342,1,65.9999979858399,6|0,0:0|0:0,0:0:0:0:
3,249,90415,2,0,P|39:241|68:248,1,65.9999979858399,0|0,0:0|0:0,0:0:0:0:
164,264,90790,2,0,L|243:265,1,65.9999979858399,8|0,0:0|0:0,0:0:0:0:
323,297,91165,1,0,0:0:0:0:
414,259,91352,1,0,0:0:0:0:
448,165,91540,6,0,P|454:129|410:46,1,131.99999597168,2|0,0:0|0:0,0:0:0:0:
314,59,92102,1,0,0:0:0:0:
247,132,92290,2,0,P|219:151|188:166,1,65.9999979858399,8|0,0:0|0:0,0:0:0:0:
99,123,92665,2,0,P|68:132|34:135,1,65.9999979858399,0|0,0:0|0:0,0:0:0:0:
69,42,93040,6,0,P|130:40|178:90,1,131.99999597168,2|0,0:0|0:0,0:0:0:0:
199,184,93602,1,0,0:0:0:0:
290,145,93790,2,0,P|319:127|357:117,1,65.9999979858399,8|0,0:0|0:0,0:0:0:0:
443,148,94165,1,0,0:0:0:0:
443,148,94352,1,2,0:0:0:0:
417,239,94540,6,0,P|364:251|345:248,1,65.9999979858399,2|0,0:0|0:0,0:0:0:0:
260,215,94915,2,0,P|213:214|189:222,1,65.9999979858399,2|0,0:0|0:0,0:0:0:0:
117,281,95290,1,8,0:0:0:0:
295,366,95665,1,0,0:0:0:0:
385,190,96040,6,0,P|386:148|379:121,1,65.9999979858399,6|0,0:0|0:0,0:0:0:0:
283,111,96415,2,0,P|277:68|267:45,1,65.9999979858399,0|0,0:0|0:0,0:0:0:0:
189,108,96790,2,0,P|195:151|205:174,2,65.9999979858399,8|0|0,0:0|0:0|0:0,0:0:0:0:
95,74,97352,1,0,0:0:0:0:
38,155,97540,6,0,P|39:186|51:228,1,65.9999979858399,2|0,0:0|0:0,0:0:0:0:
146,241,97915,2,0,P|158:270|186:298,1,65.9999979858399,0|0,0:0|0:0,0:0:0:0:
264,237,98290,2,0,P|271:194|266:167,1,65.9999979858399,8|0,0:0|0:0,0:0:0:0:
226,81,98665,1,0,0:0:0:0:
168,161,98852,1,0,0:0:0:0:
267,172,99040,6,0,P|304:178|336:171,1,65.9999979858399,2|0,0:0|0:0,0:0:0:0:
421,129,99415,2,0,P|454:131|485:144,1,65.9999979858399,0|0,0:0|0:0,0:0:0:0:
484,243,99790,2,0,P|448:238|424:220,2,65.9999979858399,8|0|0,0:0|0:0|0:0,0:0:0:0:
477,342,100352,1,0,0:0:0:0:
394,338,100540,5,0,0:0:0:0:
285,213,100915,1,0,0:0:0:0:
162,321,101290,2,0,P|130:324|104:316,1,55,8|0,0:0|0:0,0:0:0:0:
62,249,101665,1,0,0:0:0:0:
69,167,101852,1,0,0:0:0:0:
163,138,102040,6,0,P|171:171|184:211,1,65.9999979858399,6|0,0:0|0:0,0:0:0:0:
279,218,102415,2,0,L|300:291,1,65.9999979858399,0|0,0:0|0:0,0:0:0:0:
391,313,102790,2,0,P|397:281|389:246,2,65.9999979858399,8|0|0,0:0|0:0|0:0,0:0:0:0:
312,372,103352,1,0,0:0:0:0:
215,346,103540,6,0,P|179:347|145:330,1,65.9999979858399,2|0,0:0|0:0,0:0:0:0:
68,276,103915,2,0,P|85:247|116:223,1,65.9999979858399,0|0,0:0|0:0,0:0:0:0:
200,180,104290,2,0,P|216:209|221:248,2,65.9999979858399,8|0|0,0:0|0:0|0:0,0:0:0:0:
147,96,104852,1,0,0:0:0:0:
66,152,105040,6,0,P|50:188|70:279,1,131.99999597168,2|0,0:0|0:0,0:0:0:0:
147,333,105602,1,0,0:0:0:0:
241,302,105790,2,0,P|279:303|306:309,1,65.9999979858399,8|0,0:0|0:0,0:0:0:0:
394,354,106165,1,0,0:0:0:0:
256,192,106540,12,4,108040,0:0:0:0:
