osu file format v14

[General]
AudioFilename: audio.mp3
AudioLeadIn: 0
PreviewTime: 53793
Countdown: 0
SampleSet: None
StackLeniency: 0.4
Mode: 0
LetterboxInBreaks: 0
WidescreenStoryboard: 0

[Editor]
Bookmarks: 91034,120827,187034
DistanceSpacing: 1
BeatDivisor: 4
GridSize: 4
TimelineZoom: 1.8

[Metadata]
Title:Sinking Cities
TitleUnicode:Sinking Cities
Artist:Tristam
ArtistUnicode:Tristam
Creator:FaiVillager
Version:Down
Source:
Tags:
BeatmapID:1368933
BeatmapSetID:646038

[Difficulty]
HPDrainRate:3.8
CircleSize:4.7
OverallDifficulty:8.8
ApproachRate:9.6
SliderMultiplier:1.8
SliderTickRate:1

[Events]
//Background and Video events
0,0,"1.jpeg",0,0
//Break Periods
2,95793,97034
2,99103,100344
2,109034,110275
2,112344,113586
//Storyboard Layer 0 (Background)
//Storyboard Layer 1 (Fail)
//Storyboard Layer 2 (Pass)
//Storyboard Layer 3 (Foreground)
//Storyboard Sound Samples

[TimingPoints]
0,413.793103448276,4,2,0,30,1,0
53793,-66.6666666666667,4,1,0,30,0,0
54620,-83.3333333333333,4,1,0,30,0,0
56275,-66.6666666666667,4,1,0,30,0,0
57103,-83.3333333333333,4,1,0,30,0,0
62896,-66.6666666666667,4,1,0,30,0,0
63724,-83.3333333333333,4,1,0,30,0,0
69517,-66.6666666666667,4,1,0,30,0,0
70344,-83.3333333333333,4,1,0,30,0,0
76137,-66.6666666666667,4,1,0,30,0,0
77793,-83.3333333333333,4,1,0,30,0,0
82758,-66.6666666666667,4,1,0,30,0,0
83586,-83.3333333333333,4,1,0,30,0,0
87724,-66.6666666666667,4,1,0,30,0,0
89379,-83.3333333333333,4,1,0,30,0,0
92689,-100,4,2,0,30,0,0
94344,-133.333333333333,4,2,0,30,0,0
120413,-83.3333333333333,4,2,0,30,0,0
120827,-83.3333333333333,4,1,0,30,0,0
121655,-66.6666666666667,4,1,0,30,0,0
125793,-83.3333333333333,4,1,0,30,0,0
129103,-66.6666666666667,4,1,0,30,0,0
129931,-83.3333333333333,4,1,0,30,0,0
130758,-66.6666666666667,4,1,0,30,0,0
134068,-83.3333333333333,4,1,0,30,0,0
134896,-66.6666666666667,4,1,0,30,0,0
138206,-83.3333333333333,4,1,0,30,0,0
142344,-66.6666666666667,4,1,0,30,0,0
143172,-83.3333333333333,4,1,0,30,0,0
144000,-66.6666666666667,4,1,0,30,0,0
148137,-83.3333333333333,4,1,0,30,0,0
148965,-66.6666666666667,4,1,0,30,0,0
149793,-83.3333333333333,4,1,0,30,0,0
153931,-66.6666666666667,4,1,0,30,0,0
160551,-100,4,2,0,30,0,0
173793,-133.333333333333,4,2,0,30,0,0

[Colours]
Combo1 : 17,170,136
Combo2 : 0,0,128
Combo3 : 141,123,196

[HitObjects]
101,126,0,5,0,0:0:0:0:
397,270,1655,5,0,0:0:0:0:
101,126,3310,5,0,0:0:0:0:
397,270,4965,5,0,0:0:0:0:
101,126,6620,5,0,0:0:0:0:
397,270,8275,5,0,0:0:0:0:
122,259,9931,5,0,0:0:0:0:
158,341,10137,1,0,0:0:0:0:
219,190,10344,5,0,0:0:0:0:
214,279,10551,1,0,0:0:0:0:
327,149,10758,5,0,0:0:0:0:
363,231,10965,1,0,0:0:0:0:
447,93,11172,5,0,0:0:0:0:
439,182,11379,1,0,0:0:0:0:
316,51,11586,6,0,L|323:110,2,45
241,163,11896,6,0,L|247:113,2,45
174,62,12206,5,0,0:0:0:0:
129,70,12310,1,0,0:0:0:0:
85,78,12413,1,0,0:0:0:0:
44,155,12517,5,0,0:0:0:0:
88,162,12620,1,0,0:0:0:0:
132,170,12724,1,0,0:0:0:0:
183,235,12827,6,0,L|185:290,1,45
77,280,13034,2,0,L|74:336,1,45
296,356,13241,6,0,P|343:296|316:195,1,180
91,94,14068,2,0,L|272:59,1,180
464,82,14896,6,0,B|458:173|458:173|376:231,1,180
174,243,15517,1,0,0:0:0:0:
315,78,15724,2,0,B|242:86|242:86|215:107|215:107|116:119,1,180
25,346,16551,6,0,L|218:358,1,180
460,196,17379,2,0,P|394:185|325:210,2,135
401,276,18206,6,0,L|393:94,1,180
393,96,18827,1,0,0:0:0:0:
218,207,19034,2,0,P|145:200|76:102,1,180
402,50,19862,6,0,B|428:136|428:136|400:240,1,180
187,356,20689,2,0,B|191:291|191:291|167:245|167:245|170:163,1,180
261,50,21517,6,0,P|162:27|90:84,1,180
127,250,22137,1,0,0:0:0:0:
261,50,22344,2,0,P|162:27|90:84,1,180
63,345,23172,5,0,0:0:0:0:
80,256,23379,1,0,0:0:0:0:
185,316,23586,5,0,0:0:0:0:
173,226,23793,1,0,0:0:0:0:
286,258,24000,5,0,0:0:0:0:
305,170,24206,1,0,0:0:0:0:
420,200,24413,5,0,0:0:0:0:
402,111,24620,1,0,0:0:0:0:
298,27,24827,6,0,L|234:26,2,45
193,101,25137,6,0,L|248:105,2,45
279,193,25448,5,0,0:0:0:0:
279,193,25551,2,0,L|216:200,1,45
126,283,25758,5,0,0:0:0:0:
170,291,25862,1,0,0:0:0:0:
213,299,25965,1,0,0:0:0:0:
274,347,26068,6,0,L|410:304,1,135
470,283,26482,5,0,0:0:0:0:
401,87,26689,2,0,L|396:185,1,90
401,87,27103,2,0,L|396:185,1,90
401,87,27517,2,0,L|396:185,1,90
401,87,27931,2,0,L|396:185,1,90
252,136,28344,6,0,L|263:257,1,90
252,136,28758,2,0,L|263:257,1,90
252,136,29172,2,0,L|263:257,1,90
252,136,29586,2,0,L|263:257,1,90
105,200,30000,6,0,L|45:84,1,90
19,235,30413,2,0,L|60:314,1,90
174,126,30827,6,0,L|114:10,1,90
174,126,31241,2,0,L|114:10,1,90
174,126,31655,2,0,L|114:10,1,90
174,126,32068,2,0,L|114:10,1,90
174,126,32482,2,0,L|114:10,1,90
19,235,32896,2,0,L|60:314,1,90
256,199,33310,6,0,L|241:306,1,90
387,275,33724,2,0,L|372:382,1,90
387,275,34137,2,0,L|372:382,1,90
387,275,34551,2,0,L|372:382,1,90
229,186,34965,6,0,L|217:83,1,90
229,186,35379,2,0,L|217:83,1,90
412,20,35793,2,0,L|397:119,1,90
229,186,36206,2,0,L|217:83,1,90
103,43,36620,5,0,0:0:0:0:
71,254,36827,5,0,0:0:0:0:
107,171,37034,1,0,0:0:0:0:
251,341,37241,5,0,0:0:0:0:
222,255,37448,1,0,0:0:0:0:
396,273,37655,5,0,0:0:0:0:
403,183,37862,1,0,0:0:0:0:
293,64,38068,6,0,L|303:123,2,45
213,235,38379,6,0,L|223:170,2,45
121,95,38689,5,0,0:0:0:0:
121,95,38793,2,0,L|132:163,1,45
39,237,39000,5,0,0:0:0:0:
59,277,39103,1,0,0:0:0:0:
79,317,39206,1,0,0:0:0:0:
161,356,39310,6,0,L|194:206,1,135
207,151,39724,5,0,0:0:0:0:
411,54,39931,2,0,L|411:155,1,90
411,54,40344,2,0,L|411:155,1,90
411,54,40758,2,0,L|411:155,1,90
411,54,41172,2,0,L|411:155,1,90
266,333,41586,6,0,L|262:224,1,90
266,333,42000,2,0,L|262:224,1,90
266,333,42413,2,0,L|262:224,1,90
266,333,42827,2,0,L|262:224,1,90
266,333,43241,2,0,L|262:224,1,90
126,308,43655,6,0,L|27:338,1,90
266,333,44068,6,0,L|262:224,1,90
150,236,44482,2,0,L|146:127,1,90
325,268,44896,2,0,L|321:159,1,90
75,195,45310,2,0,L|71:86,1,90
230,45,45724,1,0,0:0:0:0:
177,194,45931,1,0,0:0:0:0:
235,281,46137,1,0,0:0:0:0:
166,333,46344,1,0,0:0:0:0:
338,181,46551,6,0,L|471:165,1,90
338,181,46965,2,0,L|471:165,1,90
338,181,47379,2,0,L|471:165,1,90
338,181,47793,2,0,L|471:165,1,90
338,181,48206,2,0,L|471:165,1,90
152,145,48620,6,0,L|207:50,1,90
205,296,49034,6,0,L|112:298,2,90
406,257,49655,5,0,0:0:0:0:
163,168,49862,1,0,0:0:0:0:
410,137,50068,5,0,0:0:0:0:
171,237,50275,1,0,0:0:0:0:
339,56,50482,5,0,0:0:0:0:
225,288,50689,1,0,0:0:0:0:
228,36,50896,5,0,0:0:0:0:
298,284,51103,1,0,0:0:0:0:
84,161,51310,5,0,0:0:0:0:
98,203,51413,1,0,0:0:0:0:
112,245,51517,1,0,0:0:0:0:
126,287,51620,1,0,0:0:0:0:
191,200,51724,5,0,0:0:0:0:
205,158,51827,1,0,0:0:0:0:
219,116,51931,1,0,0:0:0:0:
233,74,52034,1,0,0:0:0:0:
282,186,52137,5,0,0:0:0:0:
297,227,52241,1,0,0:0:0:0:
328,259,52344,1,0,0:0:0:0:
370,276,52448,1,0,0:0:0:0:
468,127,52551,5,0,0:0:0:0:
423,129,52655,1,0,0:0:0:0:
383,150,52758,1,0,0:0:0:0:
356,185,52862,1,0,0:0:0:0:
256,192,52965,12,0,53586,0:0:0:0:
137,126,53793,6,0,L|159:47,1,67.5000025749208
375,126,54000,2,0,L|353:47,1,67.5000025749208
168,196,54206,1,0,0:0:0:0:
344,196,54310,1,0,0:0:0:0:
256,304,54413,1,0,0:0:0:0:
84,335,54620,6,0,B|95:313|106:272|72:229|72:229|95:175|95:175|35:109|35:109|47:48|116:30,1,377.999988464356
231,58,55448,6,0,L|331:68,1,53.9999983520508
484,58,55655,2,0,L|384:68,1,53.9999983520508
229,134,55862,2,0,L|329:144,1,53.9999983520508
482,134,56068,2,0,L|382:144,1,53.9999983520508
285,278,56275,6,0,P|369:340|424:260,1,202.500007724762
231,190,56689,2,0,L|206:263,1,67.5000025749208
495,263,56896,2,0,L|473:199,1,67.5000025749208
312,92,57103,5,0,0:0:0:0:
392,92,57206,1,0,0:0:0:0:
312,92,57310,1,0,0:0:0:0:
392,92,57413,1,0,0:0:0:0:
312,92,57517,2,0,L|240:92,1,53.9999983520508
392,92,57724,2,0,L|446:92,1,53.9999983520508
152,35,57931,5,0,0:0:0:0:
237,200,58034,1,0,0:0:0:0:
96,92,58137,1,0,0:0:0:0:
181,257,58241,1,0,0:0:0:0:
238,91,58344,5,0,0:0:0:0:
261,78,58396,1,0,0:0:0:0:
288,76,58448,1,0,0:0:0:0:
314,83,58500,1,0,0:0:0:0:
337,98,58551,1,0,0:0:0:0:
360,110,58603,1,0,0:0:0:0:
387,112,58655,1,0,0:0:0:0:
413,105,58706,1,0,0:0:0:0:
435,90,58758,6,0,L|418:258,2,161.999995056153
314,215,59586,6,0,P|230:222|149:114,1,215.999993408203
342,39,60206,1,0,0:0:0:0:
430,181,60413,2,0,B|405:302|405:302|360:342,1,161.999995056153
295,298,60827,5,0,0:0:0:0:
281,295,60879,1,0,0:0:0:0:
267,292,60931,1,0,0:0:0:0:
253,289,60982,1,0,0:0:0:0:
239,286,61034,1,0,0:0:0:0:
225,283,61086,1,0,0:0:0:0:
211,280,61137,1,0,0:0:0:0:
197,277,61189,1,0,0:0:0:0:
183,274,61241,6,0,P|230:208|55:205,1,377.999988464356
90,280,62068,6,0,L|93:346,1,53.9999983520508
274,333,62275,2,0,L|277:280,1,53.9999983520508
180,310,62482,2,0,L|183:376,1,53.9999983520508
364,363,62689,2,0,L|366:309,1,53.9999983520508
347,162,62896,6,0,B|248:70|248:70|189:120,1,202.500007724762
253,216,63310,2,0,P|259:258|248:294,1,67.5000025749208
91,282,63517,2,0,P|85:248|92:216,1,67.5000025749208
161,70,63724,6,0,L|213:99,1,53.9999983520508
227,70,63931,2,0,L|279:99,1,53.9999983520508
293,70,64137,2,0,L|345:99,1,53.9999983520508
359,70,64344,2,0,L|411:99,1,53.9999983520508
339,238,64551,5,0,0:0:0:0:
308,313,64655,1,0,0:0:0:0:
204,313,64758,1,0,0:0:0:0:
173,238,64862,1,0,0:0:0:0:
366,176,64965,5,0,0:0:0:0:
308,232,65068,1,0,0:0:0:0:
204,232,65172,1,0,0:0:0:0:
146,176,65275,1,0,0:0:0:0:
387,127,65379,5,0,0:0:0:0:
309,150,65482,1,0,0:0:0:0:
203,150,65586,1,0,0:0:0:0:
125,127,65689,1,0,0:0:0:0:
395,72,65793,5,0,0:0:0:0:
315,72,65896,1,0,0:0:0:0:
197,72,66000,1,0,0:0:0:0:
117,72,66103,1,0,0:0:0:0:
40,168,66206,5,0,0:0:0:0:
40,168,66310,2,0,L|59:234,2,53.9999983520508
147,254,66620,2,0,L|166:320,2,53.9999983520508
248,191,66931,2,0,L|267:257,1,53.9999983520508
377,336,67137,5,0,0:0:0:0:
495,270,67241,1,0,0:0:0:0:
362,246,67344,1,0,0:0:0:0:
480,180,67448,2,0,L|473:127,1,53.9999983520508
348,149,67655,2,0,L|341:96,1,53.9999983520508
120,71,67862,6,0,P|110:121|116:144,2,71.9999978027344
35,193,68275,6,0,L|48:21,1,161.999995056153
240,33,68689,6,0,L|277:83,1,53.9999983520508
173,211,68896,2,0,L|210:261,1,53.9999983520508
350,84,69103,2,0,L|387:134,1,53.9999983520508
283,262,69310,2,0,L|320:312,1,53.9999983520508
118,311,69517,6,0,P|60:265|100:145,1,202.500007724762
216,61,69931,2,0,L|296:61,1,67.5000025749208
283,262,70137,2,0,L|203:262,1,67.5000025749208
343,149,70344,5,0,0:0:0:0:
396,210,70448,1,0,0:0:0:0:
343,149,70551,1,0,0:0:0:0:
396,210,70655,1,0,0:0:0:0:
343,149,70758,2,0,L|295:88,1,53.9999983520508
396,210,70965,2,0,L|444:271,1,53.9999983520508
262,258,71172,5,0,0:0:0:0:
96,341,71275,1,0,0:0:0:0:
248,160,71379,1,0,0:0:0:0:
82,243,71482,1,0,0:0:0:0:
238,338,71586,5,0,0:0:0:0:
264,341,71637,1,0,0:0:0:0:
291,336,71689,1,0,0:0:0:0:
314,323,71741,1,0,0:0:0:0:
334,305,71793,1,0,0:0:0:0:
357,292,71844,1,0,0:0:0:0:
384,287,71896,1,0,0:0:0:0:
411,291,71948,1,0,0:0:0:0:
432,307,72000,6,0,L|416:185,1,107.999996704102
288,83,72413,2,0,L|302:190,1,107.999996704102
196,335,72827,6,0,P|114:316|77:244,1,161.999995056153
120,152,73241,1,0,0:0:0:0:
205,217,73344,2,0,L|259:209,2,53.9999983520508
223,108,73655,2,0,L|400:80,1,161.999995056153
468,72,74068,5,0,0:0:0:0:
464,85,74120,1,0,0:0:0:0:
460,98,74172,1,0,0:0:0:0:
456,111,74224,1,0,0:0:0:0:
452,123,74275,1,0,0:0:0:0:
448,136,74327,1,0,0:0:0:0:
444,149,74379,1,0,0:0:0:0:
440,162,74431,1,0,0:0:0:0:
437,174,74482,6,0,B|279:202|279:202|250:248|250:248|78:286,1,377.999988464356
13,169,75310,6,0,L|35:92,1,53.9999983520508
203,11,75517,2,0,L|188:62,1,53.9999983520508
80,208,75724,2,0,L|102:131,1,53.9999983520508
270,50,75931,2,0,L|255:101,1,53.9999983520508
212,290,76137,6,0,P|284:344|367:278,1,202.500007724762
336,150,76551,2,0,P|285:220|295:277,1,135.000005149842
434,72,76965,6,0,L|410:1,1,67.5000025749208
346,62,77172,2,0,L|275:86,1,67.5000025749208
336,150,77379,2,0,L|360:221,1,67.5000025749208
424,160,77586,2,0,L|495:136,1,67.5000025749208
346,62,77793,5,0,0:0:0:0:
279,55,77896,1,0,0:0:0:0:
223,94,78000,1,0,0:0:0:0:
156,87,78103,1,0,0:0:0:0:
346,62,78206,5,0,0:0:0:0:
281,98,78310,1,0,0:0:0:0:
256,169,78413,1,0,0:0:0:0:
191,206,78517,1,0,0:0:0:0:
346,62,78620,5,0,0:0:0:0:
313,135,78724,1,0,0:0:0:0:
336,214,78827,1,0,0:0:0:0:
304,288,78931,1,0,0:0:0:0:
346,62,79034,5,0,0:0:0:0:
364,147,79137,1,0,0:0:0:0:
434,201,79241,1,0,0:0:0:0:
453,286,79344,1,0,0:0:0:0:
304,288,79448,5,0,0:0:0:0:
304,288,79551,2,0,L|244:320,2,53.9999983520508
140,238,79862,2,0,L|80:270,2,53.9999983520508
219,103,80172,2,0,L|159:135,1,53.9999983520508
72,33,80379,5,0,0:0:0:0:
57,139,80482,1,0,0:0:0:0:
43,246,80586,1,0,0:0:0:0:
138,295,80689,2,0,L|131:353,1,53.9999983520508
244,247,80896,2,0,L|237:305,1,53.9999983520508
360,292,81103,5,0,0:0:0:0:
471,253,81206,1,0,0:0:0:0:
360,224,81310,1,0,0:0:0:0:
471,185,81413,1,0,0:0:0:0:
360,156,81517,1,0,0:0:0:0:
471,117,81620,1,0,0:0:0:0:
360,88,81724,1,0,0:0:0:0:
471,49,81827,1,0,0:0:0:0:
360,20,81931,6,0,B|267:12|267:12|217:32|217:32|124:22,1,215.999993408203
18,215,82551,1,0,0:0:0:0:
255,291,82758,6,0,P|284:210|154:168,1,202.500007724762
176,324,83172,2,0,B|228:369|228:369|314:366,1,135.000005149842
411,293,83586,6,0,P|426:278|467:262,1,53.9999983520508
311,228,83793,2,0,P|296:213|255:197,1,53.9999983520508
423,213,84000,2,0,P|438:198|479:182,1,53.9999983520508
323,148,84206,2,0,P|308:133|267:117,1,53.9999983520508
156,22,84413,5,0,0:0:0:0:
105,85,84517,1,0,0:0:0:0:
162,141,84620,1,0,0:0:0:0:
111,204,84724,1,0,0:0:0:0:
168,260,84827,2,0,B|215:294|215:294|333:279,1,161.999995056153
411,176,85241,6,0,L|430:102,1,53.9999983520508
254,107,85448,2,0,L|240:159,1,53.9999983520508
354,123,85655,2,0,L|373:49,1,53.9999983520508
197,54,85862,2,0,L|183:106,1,53.9999983520508
147,242,86068,6,0,P|83:269|30:250,1,107.999996704102
16,96,86379,2,0,L|77:125,1,53.9999983520508
197,54,86586,1,0,0:0:0:0:
246,75,86689,1,0,0:0:0:0:
295,96,86793,1,0,0:0:0:0:
383,54,86896,2,0,P|453:82|461:171,1,161.999995056153
396,203,87310,5,0,0:0:0:0:
393,216,87362,1,0,0:0:0:0:
390,229,87413,1,0,0:0:0:0:
387,242,87465,1,0,0:0:0:0:
384,255,87517,1,0,0:0:0:0:
382,268,87568,1,0,0:0:0:0:
379,281,87620,1,0,0:0:0:0:
377,294,87672,1,0,0:0:0:0:
372,310,87724,6,0,B|252:326|252:326|210:312|210:312|160:317,1,202.500007724762
105,257,88137,2,0,B|219:244|219:244|266:261|266:261|306:237,1,202.500007724762
256,166,88551,2,0,P|260:99|380:46,1,202.500007724762
429,93,88965,2,0,B|370:131|370:131|227:101,1,202.500007724762
148,38,89379,6,0,P|85:75|88:160,1,161.999995056153
145,288,89793,2,0,L|128:372,1,53.9999983520508
271,233,90000,2,0,L|254:317,1,53.9999983520508
319,359,90206,6,0,B|360:146|360:146|406:117|406:117|419:41,1,323.999990112305
225,42,91034,5,0,0:0:0:0:
438,296,91862,5,0,0:0:0:0:
349,333,92689,5,0,0:0:0:0:
327,268,92793,1,0,0:0:0:0:
305,204,92896,1,0,0:0:0:0:
270,321,93000,5,0,0:0:0:0:
248,256,93103,1,0,0:0:0:0:
226,192,93206,1,0,0:0:0:0:
191,309,93310,5,0,0:0:0:0:
169,244,93413,1,0,0:0:0:0:
147,180,93517,1,0,0:0:0:0:
112,297,93620,5,0,0:0:0:0:
90,232,93724,1,0,0:0:0:0:
68,168,93827,1,0,0:0:0:0:
97,77,93931,6,0,L|182:89,1,45
216,24,94137,2,0,L|301:36,1,45
466,142,94344,6,0,P|491:219|398:306,2,202.500007724762
150,269,97655,6,0,B|44:186|44:186|20:117,2,202.500007724762
252,76,100965,6,0,B|318:116|279:198|377:259,2,202.500007724762
176,232,102620,6,0,P|137:256|7:171,1,202.500007724762
71,34,103448,5,0,0:0:0:0:
129,116,103655,1,0,0:0:0:0:
247,24,103862,5,0,0:0:0:0:
242,124,104068,1,0,0:0:0:0:
375,79,104275,6,0,L|449:73,1,67.5000025749208
416,212,104689,2,0,L|348:217,1,67.5000025749208
217,97,105103,1,0,0:0:0:0:
165,184,105310,1,0,0:0:0:0:
227,263,105517,2,0,L|230:346,1,67.5000025749208
361,177,105931,6,0,L|373:193,8,16.8750006437302
114,243,106758,6,0,L|104:272,8,16.8750006437302
246,347,107586,6,0,L|465:365,2,202.500007724762
303,65,110896,6,0,L|87:94,2,202.500007724762
411,187,114206,6,0,P|391:242|308:262,1,135.000005149842
204,228,114827,2,0,P|141:246|116:306,1,135.000005149842
196,306,115448,1,0,0:0:0:0:
426,337,115862,5,0,0:0:0:0:
426,337,116482,5,0,0:0:0:0:
479,222,116689,2,0,L|477:147,1,67.5000025749208
333,221,117103,2,0,L|334:288,1,67.5000025749208
196,313,117517,5,0,0:0:0:0:
102,352,117724,1,0,0:0:0:0:
27,213,117931,5,0,0:0:0:0:
126,227,118137,1,0,0:0:0:0:
96,85,118344,5,0,0:0:0:0:
96,85,118551,1,0,0:0:0:0:
194,62,118758,5,0,0:0:0:0:
194,62,118965,1,0,0:0:0:0:
256,149,119172,6,0,P|325:165|391:64,1,202.500007724762
194,62,120000,6,0,L|174:180,1,101.250003862381
104,207,120413,6,0,L|87:291,1,53.9999983520508
186,331,120620,1,0,0:0:0:0:
259,295,120724,1,0,0:0:0:0:
320,346,120827,6,0,P|392:341|423:205,1,215.999993408203
201,80,121655,6,0,L|116:91,1,67.5000025749208
311,80,121862,2,0,L|396:91,1,67.5000025749208
181,159,122068,2,0,L|96:170,1,67.5000025749208
331,159,122275,2,0,L|416:170,1,67.5000025749208
271,302,122482,6,0,B|215:339|215:339|63:303,1,202.500007724762
19,172,122896,2,0,L|87:188,1,67.5000025749208
213,152,123103,2,0,L|247:159,2,33.7500012874604
85,88,123310,6,0,P|121:19|241:21,1,202.500007724762
428,97,123724,2,0,B|370:128|370:128|281:112,1,135.000005149842
155,134,124137,5,0,0:0:0:0:
103,330,124241,1,0,0:0:0:0:
249,176,124344,1,0,0:0:0:0:
197,372,124448,1,0,0:0:0:0:
85,183,124551,5,0,0:0:0:0:
72,159,124603,1,0,0:0:0:0:
68,132,124655,1,0,0:0:0:0:
73,105,124706,1,0,0:0:0:0:
85,82,124758,1,0,0:0:0:0:
104,63,124810,1,0,0:0:0:0:
128,51,124862,1,0,0:0:0:0:
155,47,124913,1,0,0:0:0:0:
181,53,124965,6,0,L|258:83,1,67.5000025749208
444,53,125172,2,0,L|367:83,1,67.5000025749208
186,151,125379,2,0,L|263:181,1,67.5000025749208
439,151,125586,2,0,L|362:181,1,67.5000025749208
126,225,125793,6,0,L|287:291,1,161.999995056153
408,336,126206,2,0,P|440:283|428:219,1,107.999996704102
328,96,126620,6,0,B|242:33|242:33|169:38,1,161.999995056153
79,45,127034,5,0,0:0:0:0:
89,53,127086,1,0,0:0:0:0:
99,61,127137,1,0,0:0:0:0:
109,69,127189,1,0,0:0:0:0:
119,77,127241,1,0,0:0:0:0:
129,85,127293,1,0,0:0:0:0:
139,93,127344,1,0,0:0:0:0:
149,101,127396,1,0,0:0:0:0:
161,111,127448,6,0,P|186:175|82:288,1,215.999993408203
38,58,128275,2,0,B|116:41|116:41|166:57,1,107.999996704102
280,143,128689,2,0,B|202:160|202:160|152:144,1,107.999996704102
404,58,129103,6,0,P|449:144|380:225,1,202.500007724762
251,328,129517,2,0,L|388:315,1,135.000005149842
307,219,129931,5,0,0:0:0:0:
307,219,130034,1,0,0:0:0:0:
229,198,130137,1,0,0:0:0:0:
229,198,130241,1,0,0:0:0:0:
270,128,130344,5,0,0:0:0:0:
270,128,130448,1,0,0:0:0:0:
192,107,130551,1,0,0:0:0:0:
192,107,130655,1,0,0:0:0:0:
151,177,130758,5,0,0:0:0:0:
353,152,130862,1,0,0:0:0:0:
120,272,130965,1,0,0:0:0:0:
322,247,131068,1,0,0:0:0:0:
192,107,131172,5,0,0:0:0:0:
166,97,131224,1,0,0:0:0:0:
139,97,131275,1,0,0:0:0:0:
114,106,131327,1,0,0:0:0:0:
93,122,131379,1,0,0:0:0:0:
78,145,131431,1,0,0:0:0:0:
72,171,131483,1,0,0:0:0:0:
74,198,131534,1,0,0:0:0:0:
85,222,131586,6,0,L|125:279,1,67.5000025749208
263,206,131793,2,0,L|303:263,1,67.5000025749208
332,58,132000,2,0,L|372:115,1,67.5000025749208
448,214,132206,2,0,L|486:215,2,33.7500012874604
337,319,132413,6,0,L|411:323,2,67.5000025749208
278,168,132724,2,0,L|352:172,2,67.5000025749208
165,269,133034,1,0,0:0:0:0:
67,242,133137,1,0,0:0:0:0:
72,140,133241,2,0,L|-45:108,2,67.5000025749208
93,358,133551,2,0,L|-24:326,2,67.5000025749208
165,269,133862,2,0,L|230:286,1,67.5000025749208
500,181,134068,6,0,P|477:129|309:140,1,215.999993408203
164,290,134896,6,0,P|126:272|96:241,1,67.5000025749208
348,290,135103,2,0,P|386:272|416:241,1,67.5000025749208
181,210,135310,2,0,P|166:182|161:135,1,67.5000025749208
331,210,135517,2,0,P|346:182|351:135,1,67.5000025749208
256,72,135724,6,0,L|256:280,1,202.500007724762
152,340,136137,2,0,L|152:204,1,135.000005149842
89,81,136551,5,0,0:0:0:0:
187,55,136655,1,0,0:0:0:0:
89,81,136758,1,0,0:0:0:0:
187,55,136862,1,0,0:0:0:0:
89,81,136965,2,0,L|23:98,1,67.5000025749208
187,55,137172,2,0,L|252:37,1,67.5000025749208
368,141,137379,5,0,0:0:0:0:
392,341,137482,1,0,0:0:0:0:
442,91,137586,1,0,0:0:0:0:
466,291,137689,1,0,0:0:0:0:
303,216,137793,5,0,0:0:0:0:
276,210,137844,1,0,0:0:0:0:
250,215,137896,1,0,0:0:0:0:
227,230,137948,1,0,0:0:0:0:
209,250,138000,1,0,0:0:0:0:
186,265,138051,1,0,0:0:0:0:
160,270,138103,1,0,0:0:0:0:
134,265,138155,1,0,0:0:0:0:
112,249,138206,6,0,L|71:128,1,107.999996704102
224,26,138620,2,0,L|258:128,1,107.999996704102
341,331,139034,6,0,B|423:356|423:356|495:315,1,161.999995056153
422,121,139448,2,0,P|397:186|414:252,1,107.999996704102
490,52,139862,2,0,L|311:44,1,161.999995056153
229,39,140275,5,0,0:0:0:0:
214,47,140327,1,0,0:0:0:0:
199,55,140379,1,0,0:0:0:0:
184,63,140431,1,0,0:0:0:0:
170,71,140482,1,0,0:0:0:0:
156,79,140534,1,0,0:0:0:0:
142,87,140585,1,0,0:0:0:0:
128,95,140637,1,0,0:0:0:0:
114,103,140689,6,0,P|180:210|123:275,1,215.999993408203
293,331,141517,6,0,L|361:320,1,53.9999983520508
436,230,141724,2,0,L|504:219,1,53.9999983520508
279,212,141931,2,0,L|347:201,1,53.9999983520508
422,111,142137,2,0,L|490:100,1,53.9999983520508
295,37,142344,6,0,B|207:59|207:59|192:86|192:86|81:120,1,202.500007724762
34,232,142758,2,0,P|41:276|73:313,1,67.5000025749208
248,228,142965,2,0,P|241:184|209:147,1,67.5000025749208
153,344,143172,6,0,L|224:355,1,53.9999983520508
222,320,143379,2,0,L|293:331,1,53.9999983520508
291,296,143586,2,0,L|362:307,1,53.9999983520508
360,272,143793,2,0,L|431:283,1,53.9999983520508
445,125,144000,5,0,0:0:0:0:
271,22,144103,1,0,0:0:0:0:
357,170,144206,1,0,0:0:0:0:
183,67,144310,1,0,0:0:0:0:
248,205,144413,5,0,0:0:0:0:
238,230,144465,1,0,0:0:0:0:
221,250,144517,1,0,0:0:0:0:
198,265,144568,1,0,0:0:0:0:
172,272,144620,1,0,0:0:0:0:
145,271,144672,1,0,0:0:0:0:
120,261,144724,1,0,0:0:0:0:
99,244,144775,1,0,0:0:0:0:
83,222,144827,6,0,L|51:152,1,67.5000025749208
129,21,145034,2,0,L|157:82,1,67.5000025749208
327,208,145241,2,0,L|295:138,1,67.5000025749208
373,7,145448,2,0,L|401:68,1,67.5000025749208
466,278,145655,5,0,0:0:0:0:
368,303,145758,1,0,0:0:0:0:
269,329,145862,1,0,0:0:0:0:
172,356,145965,1,0,0:0:0:0:
73,276,146068,5,0,0:0:0:0:
172,302,146172,1,0,0:0:0:0:
269,329,146275,1,0,0:0:0:0:
368,249,146379,5,0,0:0:0:0:
269,275,146482,1,0,0:0:0:0:
172,302,146586,1,0,0:0:0:0:
73,222,146689,5,0,0:0:0:0:
172,248,146793,1,0,0:0:0:0:
269,275,146896,2,0,L|348:301,1,67.5000025749208
425,180,147103,2,0,L|504:206,1,67.5000025749208
331,49,147310,5,0,0:0:0:0:
197,30,147413,1,0,0:0:0:0:
308,122,147517,1,0,0:0:0:0:
174,103,147620,1,0,0:0:0:0:
285,195,147724,1,0,0:0:0:0:
151,176,147827,1,0,0:0:0:0:
262,268,147931,1,0,0:0:0:0:
128,249,148034,1,0,0:0:0:0:
239,341,148137,6,0,L|353:352,1,107.999996704102
506,266,148551,2,0,L|392:277,1,107.999996704102
217,183,148965,6,0,P|175:266|257:344,1,202.500007724762
301,204,149379,2,0,P|292:137|218:97,1,135.000005149842
45,95,149793,6,0,L|108:109,3,53.9999983520508
149,187,150206,2,0,L|86:201,3,53.9999983520508
29,279,150620,5,0,0:0:0:0:
122,333,150724,1,0,0:0:0:0:
198,256,150827,1,0,0:0:0:0:
291,310,150931,1,0,0:0:0:0:
367,233,151034,2,0,P|402:151|352:81,1,161.999995056153
229,37,151448,6,0,L|167:65,1,53.9999983520508
86,170,151655,2,0,L|24:198,1,53.9999983520508
266,124,151862,2,0,L|204:152,1,53.9999983520508
123,257,152069,2,0,L|61:285,1,53.9999983520508
173,347,152275,6,0,L|326:283,1,161.999995056153
373,164,152689,2,0,L|253:215,1,107.999996704102
448,239,153103,2,0,P|477:142|435:78,1,161.999995056153
332,97,153517,5,0,0:0:0:0:
318,96,153568,1,0,0:0:0:0:
304,95,153620,1,0,0:0:0:0:
290,94,153672,1,0,0:0:0:0:
276,93,153724,1,0,0:0:0:0:
262,92,153775,1,0,0:0:0:0:
248,91,153827,1,0,0:0:0:0:
234,90,153879,1,0,0:0:0:0:
220,88,153931,6,0,L|97:76,2,90.0000034332277
87,268,154344,2,0,L|210:256,2,90.0000034332277
378,334,154758,5,0,0:0:0:0:
457,104,154896,1,0,0:0:0:0:
219,151,155034,1,0,0:0:0:0:
134,334,155172,5,0,0:0:0:0:
55,104,155310,1,0,0:0:0:0:
293,151,155448,1,0,0:0:0:0:
256,324,155586,6,0,P|334:355|418:279,1,202.500007724762
382,97,156000,2,0,L|291:86,1,67.5000025749208
190,210,156206,2,0,L|257:218,1,67.5000025749208
123,48,156413,6,0,B|72:179|72:179|91:243,1,202.500007724762
217,348,156827,2,0,B|268:217|268:217|249:153,1,202.500007724762
206,40,157241,5,0,0:0:0:0:
272,50,157344,1,0,0:0:0:0:
338,61,157448,1,0,0:0:0:0:
404,71,157551,1,0,0:0:0:0:
512,126,157655,5,0,0:0:0:0:
446,136,157758,1,0,0:0:0:0:
380,147,157862,1,0,0:0:0:0:
314,157,157965,1,0,0:0:0:0:
219,210,158068,5,0,0:0:0:0:
219,210,158172,1,0,0:0:0:0:
311,249,158275,1,0,0:0:0:0:
311,249,158379,1,0,0:0:0:0:
220,293,158482,5,0,0:0:0:0:
220,293,158586,1,0,0:0:0:0:
312,332,158689,1,0,0:0:0:0:
312,332,158793,1,0,0:0:0:0:
396,276,158896,6,0,L|487:270,2,90.0000034332277
332,187,159310,6,0,L|478:178,1,135.000005149842
407,96,159620,2,0,L|272:104,1,135.000005149842
149,48,159931,5,0,0:0:0:0:
92,131,160034,1,0,0:0:0:0:
158,206,160137,2,0,L|153:265,7,33.7500012874604
151,284,160551,6,0,L|349:250,1,180
337,37,161379,2,0,P|245:30|190:103,1,180
348,344,162206,6,0,B|382:261|382:261|366:163,1,180
256,84,162827,1,0,0:0:0:0:
164,344,163034,2,0,B|130:261|130:261|146:163,1,180
319,84,163862,6,0,L|506:127,1,180
293,216,164689,2,0,P|271:283|289:339,2,120
375,280,165517,6,0,L|188:254,1,180
196,255,166137,1,0,0:0:0:0:
234,54,166344,2,0,P|139:22|58:67,1,180
54,320,167172,6,0,B|142:342|142:342|234:299,1,180
458,64,168000,2,0,B|370:42|370:42|278:85,1,180
145,251,168827,6,0,P|86:192|112:91,1,180
256,276,169448,1,0,0:0:0:0:
367,251,169655,2,0,P|426:192|400:91,1,180
124,105,170482,6,0,L|76:294,1,180
388,279,171310,2,0,L|436:90,1,180
176,326,172137,5,0,0:0:0:0:
249,145,172551,2,0,P|214:96|154:89,1,90
140,170,172862,2,0,L|180:208,1,45
143,307,173068,1,0,0:0:0:0:
187,298,173172,1,0,0:0:0:0:
230,289,173275,1,0,0:0:0:0:
312,334,173379,2,0,P|369:346|413:325,1,90
438,93,173793,6,0,L|284:68,1,135.000005149842
84,185,174620,2,0,L|232:162,1,135.000005149842
442,288,175448,6,0,P|384:312|309:289,1,135.000005149842
183,143,176068,1,0,0:0:0:0:
68,314,176275,2,0,P|139:267|212:282,1,135.000005149842
387,341,177103,6,0,L|399:197,1,135.000005149842
243,115,177931,2,0,P|181:128|131:108,2,90.0000034332277
195,59,178758,6,0,L|203:216,1,135.000005149842
201,193,179379,1,0,0:0:0:0:
54,333,179586,2,0,P|124:338|180:298,1,135.000005149842
376,86,180413,6,0,L|386:247,1,135.000005149842
133,138,181241,2,0,L|124:272,1,135.000005149842
335,169,182068,6,0,L|491:194,1,135.000005149842
353,26,182689,1,0,0:0:0:0:
172,74,182896,2,0,L|23:90,1,135.000005149842
107,331,183724,6,0,P|181:315|229:261,1,135.000005149842
405,53,184551,2,2,P|331:69|283:123,1,135.000005149842
256,328,185379,5,0,0:0:0:0:
77,233,185793,2,0,L|165:222,1,67.5000025749208
212,213,186103,2,0,L|262:207,1,33.7500012874604
325,197,186310,1,0,0:0:0:0:
354,212,186413,1,0,0:0:0:0:
384,227,186517,1,0,0:0:0:0:
456,307,186620,6,0,L|309:324,1,135.000005149842
