osu file format v14

[General]
AudioFilename: audio.mp3
AudioLeadIn: 0
PreviewTime: 112987
Countdown: 0
SampleSet: Soft
StackLeniency: 0.3
Mode: 0
LetterboxInBreaks: 0
WidescreenStoryboard: 0

[Editor]
Bookmarks: 14209,28431,42653,56875,71097,85320,99542,113764,127986,142208,156431,170653
DistanceSpacing: 0.1
BeatDivisor: 4
GridSize: 16
TimelineZoom: 2.2

[Metadata]
Title:Ruthless
TitleUnicode:Ruthless
Artist:Tristam
ArtistUnicode:Tristam
Creator:elicz1
Version:Promise
Source:
Tags:Some Hero Altai UndeadPhoneGuy cd alternative indie pop album english electronic dance music edm male vocals wluwd with love until we die chill ep
BeatmapID:3082006
BeatmapSetID:1504441

[Difficulty]
HPDrainRate:5.5
CircleSize:4.3
OverallDifficulty:8
ApproachRate:8.7
SliderMultiplier:2
SliderTickRate:1

[Events]
//Background and Video events
0,0,"okfine.jpg",0,0
//Break Periods
//Storyboard Layer 0 (Background)
//Storyboard Layer 1 (Fail)
//Storyboard Layer 2 (Pass)
//Storyboard Layer 3 (Foreground)
//Storyboard Layer 4 (Overlay)
//Storyboard Sound Samples

[TimingPoints]
7098,444.444444444444,4,2,1,65,1,0
13320,-200,4,2,1,40,0,0
13764,-200,4,2,1,45,0,0
13986,-200,4,2,1,50,0,0
14209,-200,4,2,1,55,0,0
16875,-200,4,2,1,40,0,0
17320,-200,4,2,1,45,0,0
17542,-200,4,2,1,50,0,0
17764,-200,4,2,1,55,0,0
20431,-200,4,2,1,40,0,0
20875,-200,4,2,1,45,0,0
21097,-200,4,2,1,50,0,0
21320,-200,4,2,1,55,0,0
23986,-200,4,2,1,40,0,0
24431,-200,4,2,1,45,0,0
24653,-200,4,2,1,50,0,0
24875,-200,4,2,1,55,0,0
27986,-200,4,2,1,55,0,0
28209,-200,4,2,1,60,0,0
28431,-133.333333333333,4,2,1,65,0,0
31542,-133.333333333333,4,2,1,55,0,0
31764,-133.333333333333,4,2,1,60,0,0
31986,-133.333333333333,4,2,1,65,0,0
35097,-133.333333333333,4,2,1,55,0,0
35320,-133.333333333333,4,2,1,60,0,0
35542,-133.333333333333,4,2,1,65,0,0
38653,-133.333333333333,4,2,1,55,0,0
38875,-133.333333333333,4,2,1,60,0,0
39097,-133.333333333333,4,2,1,65,0,0
40875,-133.333333333333,4,2,1,35,0,0
41986,-133.333333333333,4,2,1,70,0,0
42653,-57.1428571428571,4,2,1,85,0,1
43097,-66.6666666666667,4,2,1,85,0,1
49764,-57.1428571428571,4,2,1,85,0,1
50209,-66.6666666666667,4,2,1,85,0,1
56875,-57.1428571428571,4,2,1,85,0,1
57320,-66.6666666666667,4,2,1,85,0,1
69320,-100,4,2,1,75,0,0
69542,-100,4,2,1,70,0,0
69764,-133.333333333333,4,2,1,65,0,0
69986,-133.333333333333,4,2,1,60,0,0
70209,-66.6666666666667,4,2,1,70,0,0
70653,-66.6666666666667,4,2,1,60,0,0
70875,-66.6666666666667,4,2,1,55,0,0
71097,-80,4,2,1,75,0,0
73764,-44.4444444444445,4,2,1,85,0,1
74209,-57.1428571428571,4,2,1,85,0,1
74653,-100,4,2,1,85,0,0
75097,-80,4,2,1,75,0,0
77764,-111.111111111111,4,2,1,75,0,0
78209,-80,4,2,1,75,0,0
80875,-44.4444444444445,4,2,1,85,0,1
81320,-57.1428571428571,4,2,1,85,0,1
81764,-100,4,2,1,85,0,0
82209,-80,4,2,1,75,0,0
84431,-133.333333333333,4,2,1,40,0,0
84653,-133.333333333333,4,2,1,45,0,0
84875,-133.333333333333,4,2,1,50,0,0
85097,-133.333333333333,4,2,1,55,0,0
85320,-133.333333333333,4,2,1,60,0,0
87986,-133.333333333333,4,2,1,40,0,0
88209,-133.333333333333,4,2,1,45,0,0
88431,-133.333333333333,4,2,1,50,0,0
88653,-133.333333333333,4,2,1,55,0,0
88875,-133.333333333333,4,2,1,60,0,0
91542,-133.333333333333,4,2,1,40,0,0
91764,-133.333333333333,4,2,1,45,0,0
91986,-133.333333333333,4,2,1,50,0,0
92209,-133.333333333333,4,2,1,55,0,0
92431,-133.333333333333,4,2,1,60,0,0
94875,-133.333333333333,4,2,1,40,0,0
95320,-133.333333333333,4,2,1,45,0,0
95542,-133.333333333333,4,2,1,50,0,0
95764,-133.333333333333,4,2,1,55,0,0
95986,-133.333333333333,4,2,1,60,0,0
99542,-133.333333333333,4,2,1,45,0,0
111986,-100,4,2,1,65,0,0
112209,-100,4,2,1,60,0,0
112431,-133.333333333333,4,2,1,55,0,0
112653,-133.333333333333,4,2,1,50,0,0
112875,-133.333333333333,4,2,1,45,0,0
113097,-133.333333333333,4,2,1,70,0,0
113764,-57.1428571428571,4,2,1,85,0,1
114209,-66.6666666666667,4,2,1,85,0,1
120875,-57.1428571428571,4,2,1,85,0,1
121320,-66.6666666666667,4,2,1,85,0,1
127986,-57.1428571428571,4,2,1,85,0,1
128431,-66.6666666666667,4,2,1,85,0,1
140431,-66.6666666666667,4,2,1,75,0,0
140653,-66.6666666666667,4,2,1,70,0,0
140875,-66.6666666666667,4,2,1,65,0,0
141320,-66.6666666666667,4,2,1,70,0,0
141764,-66.6666666666667,4,2,1,60,0,0
142208,-80,4,2,1,75,0,0
144875,-44.4444444444445,4,2,1,85,0,1
145320,-57.1428571428571,4,2,1,85,0,1
145764,-100,4,2,1,85,0,0
146209,-80,4,2,1,75,0,0
148875,-111.111111111111,4,2,1,75,0,0
149320,-80,4,2,1,75,0,0
151986,-44.4444444444445,4,2,1,85,0,1
152431,-57.1428571428571,4,2,1,85,0,1
152875,-100,4,2,1,85,0,0
153320,-80,4,2,1,75,0,0
170653,-500,4,2,1,50,0,0
171542,-500,4,2,1,5,0,0
171570,-500,4,2,1,50,0,0
171986,-500,4,2,1,5,0,0
172014,-500,4,2,1,50,0,0
172431,-500,4,2,1,5,0,0
172459,-500,4,2,1,50,0,0
175097,-500,4,2,1,5,0,0
175125,-500,4,2,1,50,0,0
175542,-500,4,2,1,5,0,0
175570,-500,4,2,1,50,0,0
175986,-500,4,2,1,5,0,0
176014,-500,4,2,1,50,0,0
176431,-500,4,2,2,35,0,0
176875,-500,4,2,1,50,0,0
178653,-500,4,2,1,5,0,0
178681,-500,4,2,1,50,0,0
179097,-500,4,2,1,5,0,0
179125,-500,4,2,1,50,0,0
179542,-500,4,2,1,5,0,0
179570,-500,4,2,1,50,0,0
182209,-500,4,2,1,5,0,0
182237,-500,4,2,1,50,0,0
182653,-500,4,2,1,5,0,0
182681,-500,4,2,1,50,0,0
183097,-500,4,2,1,5,0,0

[Colours]
Combo1 : 230,115,66
Combo2 : 119,92,226
Combo3 : 247,91,119
Combo4 : 82,112,228

[HitObjects]
33,346,13320,5,2,2:2:0:0:
76,371,13542,1,2,2:2:0:0:
142,347,13764,1,2,2:2:0:0:
163,274,13986,1,2,2:2:0:0:
295,203,14209,6,0,P|284:238|279:261,1,50,2|0,1:2|2:2,2:2:0:0:
215,212,14653,2,0,P|221:195|228:163,1,50,0|0,2:2|2:2,2:2:0:0:
295,203,15097,1,0,2:2:0:0:
295,203,15320,1,0,2:2:0:0:
215,212,15542,1,0,2:2:0:0:
215,212,15764,1,0,2:2:0:0:
295,203,15986,2,0,P|284:238|279:261,1,50,0|0,2:2|2:2,2:2:0:0:
295,325,16431,2,0,B|317:336|317:336|328:305,1,50,0|0,2:2|2:2,2:2:0:0:
60,232,16875,5,2,2:2:0:0:
30,194,17097,1,2,2:2:0:0:
32,123,17320,1,2,2:2:0:0:
93,71,17542,1,2,2:2:0:0:
266,125,17764,6,0,P|312:112|367:99,1,100,2|2,2:2|2:2,2:2:0:0:
402,41,18320,1,2,2:2:0:0:
402,41,18431,1,2,2:2:0:0:
334,196,18653,2,0,P|387:207|438:222,1,100,2|2,2:2|2:2,2:2:0:0:
490,180,19320,1,2,2:2:0:0:
396,333,19542,6,0,P|390:307|378:272,1,50,0|0,2:2|2:2,2:2:0:0:
339,226,19986,2,0,B|347:202|347:202|369:213,1,50,0|0,2:2|2:2,2:2:0:0:
423,60,20431,5,2,2:2:0:0:
381,82,20653,1,2,2:2:0:0:
309,101,20875,1,2,2:2:0:0:
229,99,21097,2,0,P|238:60|247:-3,1,100,2|2,2:2|2:2,2:2:0:0:
291,199,21764,6,0,P|294:170|309:97,1,100,0|0,2:2|2:2,2:2:0:0:
264,43,22431,1,0,2:2:0:0:
333,10,22653,1,0,2:2:0:0:
333,10,22875,1,0,2:2:0:0:
216,171,23097,6,0,P|192:175|167:182,1,50,0|0,2:2|2:2,2:2:0:0:
126,246,23542,2,0,B|134:269|134:269|156:258,1,50,0|0,2:2|2:2,2:2:0:0:
0,50,23986,5,2,2:2:0:0:
19,95,24209,1,2,2:2:0:0:
36,165,24431,1,2,2:2:0:0:
52,239,24653,1,2,2:2:0:0:
256,312,24875,6,0,P|211:303|153:293,1,100,2|2,2:2|2:2,2:2:0:0:
130,229,25431,1,2,2:2:0:0:
130,229,25542,1,2,2:2:0:0:
308,159,25764,2,0,P|256:172|195:190,1,100,2|2,2:2|2:2,2:2:0:0:
158,137,26431,1,2,2:2:0:0:
245,264,26653,6,0,P|248:245|257:215,1,50,0|0,2:2|2:2,2:2:0:0:
324,175,27097,2,0,B|347:183|347:183|336:205,1,50,0|0,2:2|2:2,2:2:0:0:
143,122,27542,5,0,2:2:0:0:
143,122,27764,1,0,2:2:0:0:
173,55,27986,1,2,3:2:0:0:
339,12,28209,1,2,3:2:0:0:
382,178,28431,1,2,1:2:0:0:
452,202,28653,1,2,2:2:0:0:
452,202,28875,1,2,2:2:0:0:
387,80,29097,2,0,P|364:154|326:315,1,225.000008583069,2|2,2:2|2:2,2:2:0:0:
304,226,29986,2,0,P|350:238|359:270,1,75.0000028610231,2|0,2:2|2:2,2:2:0:0:
359,260,30653,1,0,2:2:0:0:
422,221,31097,5,0,2:2:0:0:
422,221,31320,1,0,2:2:0:0:
359,260,31542,1,2,3:2:0:0:
194,218,31764,1,2,3:2:0:0:
151,384,31986,1,2,1:2:0:0:
109,323,32209,2,0,P|77:330|-12:353,1,112.500004291535,2|0,2:2|2:2,2:2:0:0:
60,202,32653,2,0,B|60:208|71:160|-17:115|-78:236|41:291,1,225.000008583069,2|2,2:2|2:2,2:2:0:0:
19,364,33542,1,2,2:2:0:0:
19,364,33764,1,0,2:2:0:0:
19,364,34209,1,0,2:2:0:0:
93,340,34653,5,0,2:2:0:0:
93,340,34875,1,0,2:2:0:0:
19,364,35097,1,2,3:2:0:0:
58,210,35320,1,2,3:2:0:0:
98,57,35542,1,2,1:2:0:0:
36,16,35764,1,2,2:2:0:0:
36,16,35986,1,2,2:2:0:0:
180,167,36209,2,0,P|292:144|410:124,1,225.000008583069,2|2,2:2|2:2,2:2:0:0:
363,54,37097,2,0,P|324:75|309:173,1,150.000005722046,2|0,2:2|2:2,2:2:0:0:
308,171,37764,1,0,2:2:0:0:
377,139,38209,5,0,2:2:0:0:
377,139,38431,1,2,2:2:0:0:
308,171,38653,1,2,3:2:0:0:
155,131,38875,1,2,3:2:0:0:
1,92,39097,1,2,1:2:0:0:
21,165,39320,1,2,2:2:0:0:
21,165,39542,1,2,2:2:0:0:
252,68,39764,2,0,P|221:177|196:287,1,225.000008583069,2|2,2:2|2:2,2:2:0:0:
128,249,40653,2,0,P|148:219|184:216,1,75.0000028610231,2|0,2:2|3:2,2:2:0:0:
248,346,41320,5,8,3:2:0:0:
248,346,41542,1,0,3:2:0:0:
442,126,41986,5,2,2:2:0:0:
476,270,42209,1,10,3:2:0:0:
459,198,42431,1,2,2:2:0:0:
30,278,42653,6,0,P|157:305|288:342,1,262.500002503395,6|0,1:2|2:2,2:2:0:0:
340,211,43097,2,0,B|300:218|300:218|285:265,1,75.0000028610231,10|0,3:2|2:2,2:2:0:0:
358,286,43320,1,0,1:2:0:0:
249,155,43542,1,2,2:2:0:0:
249,155,43764,1,2,2:2:0:0:
114,321,43986,2,0,B|138:236,1,75.0000028610231,10|0,3:2|2:2,2:2:0:0:
86,194,44209,1,2,2:2:0:0:
314,0,44431,6,0,B|322:60|240:104|231:38|147:79|156:163,1,225.000008583069,2|0,1:2|2:2,2:2:0:0:
264,258,44875,2,0,B|295:231|295:231|284:183,1,75.0000028610231,10|0,3:2|2:2,2:2:0:0:
212,196,45097,1,2,1:2:0:0:
323,127,45320,1,2,2:2:0:0:
323,127,45542,1,2,2:2:0:0:
469,304,45764,2,0,L|447:217,1,75.0000028610231,8|0,3:2|2:2,2:2:0:0:
486,168,45986,1,0,2:2:0:0:
296,365,46209,5,2,1:2:0:0:
176,347,46431,1,0,2:2:0:0:
194,226,46653,1,10,3:2:0:0:
314,244,46875,1,0,1:2:0:0:
181,70,47097,6,0,B|213:97|213:97|194:150,1,75.0000028610231,2|0,2:2|2:2,2:2:0:0:
127,154,47320,2,0,B|95:127|95:127|115:76,1,75.0000028610231,2|0,2:2|2:2,2:2:0:0:
229,6,47542,1,10,3:2:0:0:
229,6,47764,1,0,2:2:0:0:
370,160,47986,5,2,1:2:0:0:
490,142,48209,1,0,2:2:0:0:
472,21,48431,1,10,3:2:0:0:
351,50,48653,1,2,1:2:0:0:
351,50,48764,1,2,2:2:0:0:
351,50,48875,1,2,2:2:0:0:
138,153,49097,5,2,2:2:0:0:
283,187,49320,1,10,3:2:0:0:
210,170,49542,1,2,2:2:0:0:
499,326,49764,6,0,P|405:338|198:378,1,262.500002503395,6|0,1:2|2:2,2:2:0:0:
105,281,50209,2,0,B|146:268|146:268|175:322,1,75.0000028610231,10|0,3:2|2:2,2:2:0:0:
114,359,50431,1,0,1:2:0:0:
269,281,50653,1,2,2:2:0:0:
269,281,50875,1,2,2:2:0:0:
85,96,51097,2,0,L|102:171,1,75.0000028610231,10|0,3:2|2:2,2:2:0:0:
176,187,51320,1,2,2:2:0:0:
447,11,51542,6,0,P|400:175|385:246,1,225.000008583069,2|0,1:2|2:2,2:2:0:0:
499,335,51986,2,0,B|459:345|459:345|429:294,1,75.0000028610231,10|0,3:2|2:2,2:2:0:0:
494,257,52209,1,2,1:2:0:0:
338,352,52431,1,2,2:2:0:0:
239,172,52653,2,0,P|286:161|328:144,1,75.0000028610231,2|0,2:2|2:2,2:2:0:0:
419,200,52875,1,8,3:2:0:0:
419,200,53097,2,0,P|383:207|335:224,1,75.0000028610231,2|0,2:2|2:2,2:2:0:0:
114,52,53320,6,0,P|106:87|129:115,1,75.0000028610231,2|0,1:2|2:2,2:2:0:0:
207,97,53542,2,0,P|212:60|191:32,1,75.0000028610231,2|0,2:2|2:2,2:2:0:0:
59,180,53764,1,10,3:2:0:0:
59,180,53986,1,0,1:2:0:0:
200,359,54209,5,2,2:2:0:0:
58,321,54431,1,2,2:2:0:0:
58,321,54542,1,2,2:2:0:0:
58,321,54653,1,10,3:2:0:0:
128,337,54875,1,2,2:2:0:0:
339,220,55097,6,0,P|331:255|354:283,1,75.0000028610231,2|0,1:2|2:2,2:2:0:0:
432,265,55320,2,0,P|437:228|416:200,1,75.0000028610231,2|0,2:2|2:2,2:2:0:0:
305,364,55542,1,10,3:2:0:0:
305,364,55764,1,0,1:2:0:0:
42,250,55986,6,0,P|101:230|226:197,1,150.000005722046,2|0,2:2|2:2,2:2:0:0:
320,293,56320,1,2,2:2:0:0:
320,293,56431,1,10,3:2:0:0:
244,269,56653,1,2,2:2:0:0:
437,0,56875,6,0,B|460:55|391:138|359:60|281:142|320:226,1,262.500002503395,6|0,1:2|2:2,2:2:0:0:
451,264,57320,2,0,B|413:276|413:276|391:244,1,75.0000028610231,10|0,3:2|2:2,2:2:0:0:
438,186,57542,1,0,1:2:0:0:
391,347,57764,1,2,2:2:0:0:
391,347,57986,1,2,2:2:0:0:
223,161,58209,2,0,L|248:245,1,75.0000028610231,10|0,3:2|2:2,2:2:0:0:
315,253,58431,1,2,2:2:0:0:
16,379,58653,6,0,P|30:307|70:153,1,225.000008583069,2|0,1:2|2:2,2:2:0:0:
0,27,59097,2,0,B|-12:66|-12:66|20:87,1,75.0000028610231,10|0,3:2|2:2,2:2:0:0:
79,37,59320,1,2,1:2:0:0:
138,200,59542,1,2,2:2:0:0:
138,200,59764,1,2,2:2:0:0:
186,179,59875,1,2,2:2:0:0:
225,167,59986,1,10,3:2:0:0:
257,159,60097,1,2,2:2:0:0:
284,155,60209,1,2,2:2:0:0:
454,363,60431,5,2,1:2:0:0:
317,334,60653,1,0,2:2:0:0:
410,229,60875,1,10,3:2:0:0:
395,303,61097,1,0,1:2:0:0:
161,205,61320,6,0,B|148:241|148:241|175:267,1,75.0000028610231,2|0,2:2|2:2,2:2:0:0:
252,246,61542,2,0,B|263:208|263:208|237:183,1,75.0000028610231,2|0,2:2|2:2,2:2:0:0:
122,324,61764,1,10,3:2:0:0:
122,324,61986,1,0,2:2:0:0:
27,155,62209,5,2,1:2:0:0:
164,126,62431,1,0,2:2:0:0:
71,21,62653,1,10,3:2:0:0:
87,101,62875,1,2,1:2:0:0:
87,101,62986,1,2,2:2:0:0:
87,101,63097,1,2,2:2:0:0:
261,177,63320,5,2,2:2:0:0:
306,36,63542,1,10,3:2:0:0:
284,106,63764,1,2,2:2:0:0:
485,327,63986,6,0,P|396:307|232:282,1,225.000008583069,6|0,1:2|2:2,2:2:0:0:
112,346,64431,2,0,B|120:308|120:308|162:296,1,75.0000028610231,10|0,3:2|2:2,2:2:0:0:
188,367,64653,1,0,1:2:0:0:
67,251,64875,1,2,2:2:0:0:
67,251,65097,1,2,2:2:0:0:
269,122,65320,2,0,L|243:206,1,75.0000028610231,10|0,3:2|2:2,2:2:0:0:
183,230,65542,1,2,2:2:0:0:
0,65,65764,6,0,P|99:44|232:23,1,225.000008583069,2|0,1:2|2:2,2:2:0:0:
377,79,66209,2,0,B|340:87|340:87|313:54,1,75.0000028610231,10|0,3:2|2:2,2:2:0:0:
365,0,66431,1,2,1:2:0:0:
179,110,66653,1,2,2:2:0:0:
179,110,66875,1,2,2:2:0:0:
360,322,67097,2,0,L|313:149,1,150.000005722046,8|2,3:2|2:2,2:2:0:0:
69,322,67542,6,0,P|109:327|155:338,1,75.0000028610231,2|0,1:2|2:2,2:2:0:0:
165,236,67764,2,0,P|125:231|79:220,1,75.0000028610231,2|0,2:2|2:2,2:2:0:0:
5,371,67986,1,10,3:2:0:0:
5,371,68209,1,0,1:2:0:0:
267,328,68431,5,2,2:2:0:0:
230,186,68653,1,2,2:2:0:0:
230,186,68764,1,2,2:2:0:0:
230,186,68875,1,10,3:2:0:0:
245,256,69097,1,2,2:2:0:0:
310,30,69320,5,2,1:2:0:0:
363,23,69431,1,2,2:2:0:0:
404,49,69542,1,2,2:2:0:0:
421,89,69653,1,2,2:2:0:0:
428,120,69764,1,2,2:2:0:0:
448,139,69875,1,2,2:2:0:0:
471,145,69986,1,2,2:2:0:0:
494,142,70097,1,2,2:2:0:0:
505,131,70209,6,0,P|401:151|343:263,1,225.000008583069,2|0,2:2|2:2,2:2:0:0:
195,283,70653,1,2,2:2:0:0:
243,286,70764,1,2,2:2:0:0:
275,311,70875,1,2,2:2:0:0:
285,339,70986,1,2,2:2:0:0:
286,363,71097,6,0,P|253:368|111:395,1,125,6|0,1:2|2:2,2:2:0:0:
17,227,71542,2,0,B|50:220|50:220|73:263,1,62.5,8|0,3:2|2:2,2:2:0:0:
18,305,71764,1,0,1:2:0:0:
113,171,71986,1,0,2:2:0:0:
113,171,72209,1,0,2:2:0:0:
322,295,72431,2,0,L|287:154,1,125,8|0,3:2|2:2,2:2:0:0:
447,36,72875,6,0,P|425:129|416:198,1,125,0|0,1:2|2:2,2:2:0:0:
505,116,73320,1,8,3:2:0:0:
505,116,73542,1,0,1:2:0:0:
51,54,73764,6,0,P|80:150|115:314,1,225.000008583069,2|0,2:2|2:2,2:2:0:0:
175,313,74097,1,0,2:2:0:0:
175,313,74209,2,0,P|240:292|350:269,1,175.00000166893,10|0,3:2|2:2,2:2:0:0:
390,208,74542,1,0,2:2:0:0:
390,208,74653,2,0,P|377:168|363:100,1,100,6|0,1:2|2:2,2:2:0:0:
107,119,75097,6,0,B|120:90|120:90|150:87,1,62.5,8|0,3:2|2:2,2:2:0:0:
171,163,75320,1,0,1:2:0:0:
53,51,75542,1,0,2:2:0:0:
53,51,75764,1,0,2:2:0:0:
28,269,75986,2,0,L|170:241,1,125,8|0,3:2|2:2,2:2:0:0:
384,361,76431,6,0,P|312:344|249:331,1,125,0|0,1:2|2:2,2:2:0:0:
338,269,76875,1,8,3:2:0:0:
338,269,77097,1,0,1:2:0:0:
198,62,77320,6,0,P|181:120|258:152,1,125,2|0,2:2|2:2,2:2:0:0:
299,125,77653,1,0,2:2:0:0:
299,125,77764,2,0,P|308:79|248:58,1,89.9999972534181,10|0,3:2|2:2,2:2:0:0:
0,303,78209,6,0,P|59:315|150:343,1,125,6|0,1:2|2:2,2:2:0:0:
138,179,78653,2,0,B|110:202|110:202|123:248,1,62.5,8|0,3:2|2:2,2:2:0:0:
193,232,78875,1,0,1:2:0:0:
42,168,79097,1,0,2:2:0:0:
42,168,79320,1,0,2:2:0:0:
216,0,79542,2,0,L|183:145,1,125,8|0,3:2|2:2,2:2:0:0:
314,363,79986,6,0,P|302:300|281:226,1,125,0|0,1:2|2:2,2:2:0:0:
226,313,80431,1,8,3:2:0:0:
226,313,80653,1,0,1:2:0:0:
493,25,80875,6,0,P|401:32|354:162,1,225.000008583069,2|0,2:2|2:2,2:2:0:0:
273,148,81209,1,0,2:2:0:0:
273,148,81320,2,0,P|253:217|336:287,1,175.00000166893,10|0,3:2|2:2,2:2:0:0:
334,361,81653,1,0,2:2:0:0:
334,361,81764,2,0,P|377:365|410:308,1,100,6|0,1:2|2:2,2:2:0:0:
488,157,82209,6,0,B|453:163|453:163|443:214,1,62.5,8|0,3:2|2:2,2:2:0:0:
512,233,82431,1,0,1:2:0:0:
384,121,82653,1,0,2:2:0:0:
384,121,82875,1,0,2:2:0:0:
246,325,83097,2,0,L|272:186,1,125,8|0,3:2|2:2,2:2:0:0:
80,71,83542,5,0,1:2:0:0:
80,71,84431,5,2,2:2:0:0:
123,46,84653,1,2,2:2:0:0:
189,70,84875,1,2,2:2:0:0:
210,143,85097,1,2,2:2:0:0:
367,225,85320,6,0,P|355:169|337:101,1,112.500004291535,0|2,3:2|2:2,2:2:0:0:
388,59,85764,1,2,2:2:0:0:
388,59,85986,1,0,3:2:0:0:
280,172,86209,1,2,2:2:0:0:
448,214,86431,2,0,P|439:173|429:133,1,75.0000028610231,2|0,2:2|3:2,2:2:0:0:
314,317,86875,1,0,2:2:0:0:
314,317,87097,2,0,P|297:242|273:151,1,150.000005722046,2|2,3:2|2:2,2:2:0:0:
315,106,87764,1,0,3:2:0:0:
199,248,87986,5,2,2:2:0:0:
48,148,88320,1,2,2:2:0:0:
48,148,88431,2,0,P|66:215|78:276,1,112.500004291535,2|0,3:2|2:2,2:2:0:0:
132,303,88875,5,2,3:2:0:0:
0,260,89209,1,2,2:2:0:0:
0,260,89320,2,0,P|15:322|23:363,1,75.0000028610231,0|2,2:2|3:2,2:2:0:0:
172,138,89764,2,0,P|190:205|202:266,1,112.500004291535,2|0,2:2|2:2,2:2:0:0:
267,279,90209,1,2,3:2:0:0:
267,279,90431,1,2,2:2:0:0:
78,200,90653,1,2,3:2:0:0:
78,200,91097,2,0,P|86:236|94:273,1,75.0000028610231,2|0,2:2|3:2,2:2:0:0:
234,30,91542,5,2,2:2:0:0:
218,78,91764,1,2,2:2:0:0:
204,149,91986,1,2,3:2:0:0:
207,226,92209,2,0,P|247:215|295:205,1,75.0000028610231,2|0,2:2|3:2,2:2:0:0:
180,362,92764,5,2,2:2:0:0:
180,362,92875,2,0,P|218:350|281:334,1,75.0000028610231,2|0,2:2|3:2,2:2:0:0:
299,281,93320,1,2,2:2:0:0:
421,368,93542,2,0,P|461:357|509:347,1,75.0000028610231,2|0,2:2|3:2,2:2:0:0:
512,279,93986,1,0,2:2:0:0:
309,190,94209,2,0,P|381:170|468:151,1,150.000005722046,2|2,3:2|2:2,2:2:0:0:
331,352,94875,5,2,3:2:0:0:
286,335,95097,1,2,2:2:0:0:
215,315,95320,1,2,2:2:0:0:
138,304,95542,2,0,P|79:317|21:333,1,112.500004291535,2|2,3:2|2:2,2:2:0:0:
0,264,95986,5,2,3:2:0:0:
140,149,96209,2,0,P|86:160|33:175,1,75.0000028610231,2|0,2:2|2:2,2:2:0:0:
230,316,96653,1,2,3:2:0:0:
230,316,96764,1,2,2:2:0:0:
230,316,96875,2,0,P|160:331|91:350,1,112.500004291535,2|0,2:2|2:2,2:2:0:0:
79,281,97320,1,2,3:2:0:0:
79,281,97542,1,2,2:2:0:0:
310,178,97764,2,0,P|231:195|153:217,1,150.000005722046,2|2,3:2|2:2,2:2:0:0:
104,171,98431,1,0,3:2:0:0:
104,171,98653,1,0,2:2:0:0:
156,44,98875,5,2,2:2:0:0:
113,19,99097,1,2,3:2:0:0:
47,43,99320,1,2,2:2:0:0:
26,116,99542,1,2,3:2:0:0:
26,116,99986,1,2,2:2:0:0:
436,312,103097,5,2,2:2:0:0:
436,312,103542,1,2,2:2:0:0:
70,340,106653,5,2,2:2:0:0:
70,340,107097,1,2,2:2:0:0:
415,61,110209,5,2,2:2:0:0:
415,61,110653,1,2,2:2:0:0:
145,364,111986,5,2,2:2:0:0:
127,309,112097,1,2,2:2:0:0:
140,259,112209,1,2,2:2:0:0:
177,229,112320,1,2,2:2:0:0:
216,222,112431,1,2,2:2:0:0:
248,234,112542,1,2,2:2:0:0:
267,256,112653,1,2,2:2:0:0:
275,277,112764,1,2,2:2:0:0:
274,297,112875,1,2,2:2:0:0:
34,231,113097,5,2,2:2:0:0:
17,159,113320,1,2,2:2:0:0:
0,87,113542,1,2,2:2:0:0:
416,0,113764,6,0,P|380:126|353:254,1,262.500002503395,6|0,1:2|2:2,2:2:0:0:
481,332,114209,2,0,B|441:325|441:325|426:278,1,75.0000028610231,10|0,3:2|2:2,2:2:0:0:
498,254,114431,1,0,1:2:0:0:
380,372,114653,1,2,2:2:0:0:
380,372,114875,1,2,2:2:0:0:
219,188,115097,2,0,B|243:273,1,75.0000028610231,10|0,3:2|2:2,2:2:0:0:
191,315,115320,1,2,2:2:0:0:
387,184,115542,6,0,P|353:83|247:72,1,225.000008583069,2|0,1:2|2:2,2:2:0:0:
85,158,115986,2,0,B|107:126|107:126|159:137,1,75.0000028610231,10|0,3:2|2:2,2:2:0:0:
142,211,116209,1,2,1:2:0:0:
171,43,116431,1,2,2:2:0:0:
171,43,116653,1,0,2:2:0:0:
294,241,116875,2,0,L|204:262,1,75.0000028610231,8|0,3:2|2:2,2:2:0:0:
463,23,117097,6,0,P|394:66|411:135,1,150.000005722046,2|0,2:2|1:2,2:2:0:0:
481,140,117542,2,0,P|514:111|508:74,1,75.0000028610231,2|0,2:2|2:2,2:2:0:0:
266,12,117764,5,8,3:2:0:0:
266,12,117986,2,0,P|277:52|288:83,1,75.0000028610231,2|0,1:2|2:2,2:2:0:0:
222,144,118209,2,0,P|198:57|173:-10,1,150.000005722046,2|0,2:2|2:2,2:2:0:0:
6,201,118653,6,0,P|6:164|34:141,1,75.0000028610231,10|0,3:2|2:2,2:2:0:0:
78,230,118875,2,0,P|106:207|106:170,1,75.0000028610231,2|0,2:2|2:2,2:2:0:0:
26,366,119097,6,0,P|137:334|303:302,1,225.000008583069,2|0,1:2|2:2,2:2:0:0:
366,197,119542,2,0,P|298:216|197:236,1,150.000005722046,10|0,3:2|1:2,2:2:0:0:
171,291,119986,1,2,2:2:0:0:
449,372,120209,5,2,2:2:0:0:
483,228,120431,1,10,3:2:0:0:
466,300,120653,1,2,2:2:0:0:
174,15,120875,6,0,P|209:141|238:269,1,262.500002503395,6|0,1:2|2:2,2:2:0:0:
43,323,121320,2,0,B|62:287|62:287|123:303,1,75.0000028610231,10|0,3:2|2:2,2:2:0:0:
100,372,121542,1,0,1:2:0:0:
146,201,121764,1,2,2:2:0:0:
146,201,121986,1,2,2:2:0:0:
339,343,122209,2,0,L|264:326,1,75.0000028610231,10|0,3:2|2:2,2:2:0:0:
206,373,122431,1,2,2:2:0:0:
0,152,122653,6,0,B|67:144|98:83|43:67|82:-2|159:1,1,225.000008583069,2|0,1:2|2:2,2:2:0:0:
249,108,123097,2,0,B|210:120|210:120|178:67,1,75.0000028610231,10|0,3:2|2:2,2:2:0:0:
240,32,123320,1,2,1:2:0:0:
133,166,123542,1,2,2:2:0:0:
133,166,123764,1,0,2:2:0:0:
22,4,123986,2,0,L|43:89,1,75.0000028610231,8|0,3:2|2:2,2:2:0:0:
74,355,124209,6,0,B|133:308|133:308|104:239,1,150.000005722046,2|0,2:2|1:2,2:2:0:0:
25,251,124653,2,0,B|-3:271|-3:271|11:309,1,75.0000028610231,2|0,2:2|2:2,2:2:0:0:
255,319,124875,5,8,3:2:0:0:
255,319,125097,2,0,P|255:276|311:260,1,75.0000028610231,2|0,1:2|2:2,2:2:0:0:
296,184,125320,2,0,P|339:184|355:240,1,75.0000028610231,2|0,2:2|2:2,2:2:0:0:
431,225,125542,2,0,P|431:268|375:284,1,75.0000028610231,2|0,2:2|2:2,2:2:0:0:
239,130,125764,5,10,3:2:0:0:
239,130,125986,1,0,2:2:0:0:
333,361,126209,5,0,1:2:0:0:
333,361,126431,2,0,P|279:348|245:343,1,75.0000028610231,2|0,2:2|2:2,2:2:0:0:
186,369,126653,1,8,3:2:0:0:
92,234,126875,2,0,P|226:258|401:294,1,300.000011444092,2|0,1:2|2:2,2:2:0:0:
493,201,127431,1,2,2:2:0:0:
493,201,127542,1,10,3:2:0:0:
216,22,127764,5,2,2:2:0:0:
216,22,127875,1,2,2:2:0:0:
216,22,127986,2,0,P|334:66|348:216,1,262.500002503395,6|0,1:2|2:2,2:2:0:0:
210,283,128431,2,0,B|233:249|233:249|271:263,1,75.0000028610231,10|0,3:2|2:2,2:2:0:0:
263,335,128653,1,0,1:2:0:0:
287,187,128875,1,2,2:2:0:0:
287,187,129097,1,2,2:2:0:0:
55,183,129320,2,0,L|140:158,1,75.0000028610231,10|0,3:2|2:2,2:2:0:0:
164,96,129542,1,2,2:2:0:0:
380,368,129764,6,0,P|394:296|434:142,1,225.000008583069,2|0,1:2|2:2,2:2:0:0:
332,9,130209,2,0,B|363:29|363:29|355:67,1,75.0000028610231,10|0,3:2|2:2,2:2:0:0:
280,65,130431,1,2,1:2:0:0:
378,221,130653,1,2,2:2:0:0:
378,221,130875,1,2,2:2:0:0:
327,210,130986,1,2,2:2:0:0:
288,234,131097,1,10,3:2:0:0:
282,273,131209,1,2,2:2:0:0:
297,301,131320,1,2,2:2:0:0:
512,133,131542,5,0,1:2:0:0:
512,133,131764,2,0,P|471:138|421:150,1,75.0000028610231,2|0,2:2|2:2,2:2:0:0:
241,115,131986,1,8,3:2:0:0:
241,115,132209,2,0,P|312:98|402:81,1,150.000005722046,2|2,1:2|2:2,2:2:0:0:
343,16,132653,2,0,P|306:23|258:34,1,75.0000028610231,2|0,2:2|2:2,2:2:0:0:
283,190,132875,1,10,3:2:0:0:
283,190,133097,1,0,2:2:0:0:
73,44,133320,6,0,P|11:79|59:229,1,225.000008583069,2|0,1:2|2:2,2:2:0:0:
147,87,133764,1,10,3:2:0:0:
147,87,133986,2,0,P|149:178|101:209,1,150.000005722046,2|2,1:2|2:2,2:2:0:0:
246,379,134431,5,2,2:2:0:0:
212,235,134653,1,10,3:2:0:0:
229,307,134875,1,2,2:2:0:0:
510,19,135097,6,0,P|467:146|439:259,1,225.000008583069,6|0,1:2|2:2,2:2:0:0:
277,175,135542,2,0,B|285:137|285:137|327:125,1,75.0000028610231,10|0,3:2|2:2,2:2:0:0:
349,198,135764,1,0,1:2:0:0:
278,58,135986,1,2,2:2:0:0:
278,58,136209,1,2,2:2:0:0:
94,191,136431,2,0,L|120:107,1,75.0000028610231,10|0,3:2|2:2,2:2:0:0:
64,67,136653,1,2,2:2:0:0:
0,346,136875,6,0,P|99:325|232:304,1,225.000008583069,2|0,1:2|2:2,2:2:0:0:
361,368,137320,2,0,B|324:376|324:376|297:343,1,75.0000028610231,10|0,3:2|2:2,2:2:0:0:
351,289,137542,1,2,1:2:0:0:
205,384,137764,1,2,2:2:0:0:
205,384,137986,1,2,2:2:0:0:
305,127,138209,2,0,L|258:300,1,150.000005722046,8|2,3:2|2:2,2:2:0:0:
0,178,138653,6,0,P|40:183|165:210,1,150.000005722046,0|0,1:2|2:2,2:2:0:0:
90,114,139097,1,8,3:2:0:0:
90,114,139320,1,0,1:2:0:0:
254,8,139542,5,0,2:2:0:0:
222,159,139764,1,0,3:2:0:0:
222,159,139875,1,0,3:2:0:0:
222,159,139986,1,8,3:2:0:0:
233,79,140209,1,0,2:2:0:0:
476,188,140431,5,2,1:2:0:0:
425,193,140542,1,2,2:2:0:0:
384,205,140653,1,2,2:2:0:0:
354,219,140764,1,2,2:2:0:0:
335,234,140875,2,0,P|346:276|365:319,1,75.0000028610231,0|0,3:2|2:2,2:2:0:0:
284,335,141097,2,0,P|273:293|254:250,1,75.0000028610231,0|0,3:2|2:2,2:2:0:0:
461,294,141320,5,2,2:2:0:0:
461,294,141542,1,0,3:2:0:0:
442,365,141764,1,2,2:2:0:0:
442,365,141986,1,0,3:2:0:0:
123,317,142209,6,0,P|128:284|155:142,1,125,6|0,1:2|2:2,2:2:0:0:
62,59,142653,2,0,B|29:52|29:52|6:95,1,62.5,8|0,3:2|2:2,2:2:0:0:
65,136,142875,1,0,1:2:0:0:
126,12,143097,1,0,2:2:0:0:
126,12,143320,1,0,2:2:0:0:
311,87,143542,2,0,L|170:122,1,125,8|0,3:2|2:2,2:2:0:0:
30,308,143986,6,0,P|109:319|192:339,1,125,0|0,1:2|2:2,2:2:0:0:
103,239,144431,1,8,3:2:0:0:
103,239,144653,1,0,1:2:0:0:
457,357,144875,6,0,P|338:339|329:244,1,225.000008583069,2|0,2:2|2:2,2:2:0:0:
255,224,145209,1,0,2:2:0:0:
255,224,145320,2,0,P|252:125|327:105,1,175.00000166893,10|0,3:2|2:2,2:2:0:0:
349,33,145653,1,0,2:2:0:0:
349,33,145764,2,0,P|420:50|421:108,1,100,6|0,1:2|2:2,2:2:0:0:
301,308,146209,6,0,B|321:280|321:280|360:294,1,62.5,8|0,3:2|2:2,2:2:0:0:
349,368,146431,1,0,1:2:0:0:
413,239,146653,1,0,2:2:0:0:
413,239,146875,1,0,2:2:0:0:
276,73,147097,2,0,L|304:215,1,125,8|0,3:2|2:2,2:2:0:0:
89,361,147542,6,0,P|100:301|119:226,1,125,0|0,1:2|2:2,2:2:0:0:
178,314,147986,1,8,3:2:0:0:
178,314,148209,1,0,1:2:0:0:
21,132,148431,6,0,P|80:112|170:90,1,125,2|0,2:2|2:2,2:2:0:0:
107,28,148764,1,0,2:2:0:0:
107,28,148875,2,0,P|51:43|0:61,1,89.9999972534181,10|0,3:2|2:2,2:2:0:0:
243,250,149320,6,0,P|302:262|393:290,1,125,6|0,1:2|2:2,2:2:0:0:
491,164,149764,2,0,B|468:139|468:139|417:156,1,62.5,8|0,3:2|2:2,2:2:0:0:
446,223,149986,1,0,1:2:0:0:
396,87,150209,1,0,2:2:0:0:
396,87,150431,1,0,2:2:0:0:
300,287,150653,2,0,L|333:142,1,125,8|0,3:2|2:2,2:2:0:0:
94,19,151097,6,0,P|113:92|127:156,1,125,0|0,1:2|2:2,2:2:0:0:
186,62,151542,1,8,3:2:0:0:
186,62,151764,1,0,1:2:0:0:
24,375,151986,6,0,P|127:350|244:328,1,225.000008583069,2|0,2:2|2:2,2:2:0:0:
289,269,152320,1,0,2:2:0:0:
289,269,152431,2,0,P|269:186|251:93,1,175.00000166893,10|0,3:2|2:2,2:2:0:0:
186,62,152764,1,0,2:2:0:0:
186,62,152875,2,0,P|132:75|71:86,1,100,6|0,1:2|2:2,2:2:0:0:
30,259,153320,6,0,B|63:251|63:251|78:277,1,62.5,8|0,3:2|2:2,2:2:0:0:
32,338,153542,1,0,1:2:0:0:
122,199,153764,1,0,2:2:0:0:
122,199,153986,1,0,2:2:0:0:
257,384,154209,2,0,L|231:245,1,125,8|0,3:2|2:2,2:2:0:0:
450,99,154653,5,0,1:2:0:0:
450,99,155097,1,0,3:2:0:0:
60,43,155542,5,2,2:2:0:0:
109,47,155764,1,2,2:2:0:0:
178,72,155986,1,2,2:2:0:0:
247,114,156209,1,2,2:2:0:0:
420,384,156431,6,0,B|414:330|454:287|493:325|525:272|508:222,1,187.5,6|0,1:2|2:2,2:2:0:0:
324,107,156875,2,0,P|336:146|345:183,1,62.5,8|0,3:2|2:2,2:2:0:0:
427,205,157097,2,0,P|408:124|373:3,1,187.5,2|0,1:2|2:2,2:2:0:0:
450,1,157542,1,0,2:2:0:0:
359,241,157764,1,8,3:2:0:0:
359,241,157986,1,2,2:2:0:0:
75,360,158209,6,0,P|166:338|310:316,1,187.5,2|0,1:2|2:2,2:2:0:0:
273,130,158653,2,0,B|304:146|304:146|292:202,1,62.5,8|0,3:2|2:2,2:2:0:0:
262,243,158875,2,0,B|179:199|179:199|207:71,1,187.5,2|0,1:2|2:2,2:2:0:0:
149,47,159320,1,0,2:2:0:0:
82,251,159542,1,8,3:2:0:0:
82,251,159764,1,2,2:2:0:0:
383,369,159986,6,0,P|392:302|418:161,1,187.5,2|0,1:2|2:2,2:2:0:0:
330,63,160431,2,0,P|310:91|265:92,1,62.5,8|0,3:2|2:2,2:2:0:0:
238,31,160653,2,0,P|290:185|316:288,1,250,2|0,1:2|2:2,2:2:0:0:
493,121,161320,1,10,3:2:0:0:
493,121,161542,1,0,2:2:0:0:
325,353,161764,5,0,1:2:0:0:
325,353,161986,1,0,2:2:0:0:
343,279,162209,1,8,3:2:0:0:
343,279,162431,1,0,1:2:0:0:
32,164,162653,5,2,2:2:0:0:
76,186,162875,1,2,2:2:0:0:
150,174,163097,1,10,3:2:0:0:
181,101,163320,1,2,2:2:0:0:
274,355,163542,6,0,P|187:342|172:256,1,187.5,6|0,1:2|2:2,2:2:0:0:
342,110,163986,2,0,P|352:148|359:187,1,62.5,8|0,3:2|2:2,2:2:0:0:
294,246,164209,2,0,P|278:164|246:51,1,187.5,2|0,1:2|2:2,2:2:0:0:
310,15,164653,1,0,2:2:0:0:
90,95,164875,1,10,3:2:0:0:
90,95,164986,1,2,2:2:0:0:
90,95,165097,1,2,2:2:0:0:
188,366,165320,5,0,1:2:0:0:
188,366,165542,1,0,2:2:0:0:
161,297,165764,1,8,3:2:0:0:
161,297,165986,2,0,P|167:265|180:216,1,62.5,2|0,1:2|2:2,2:2:0:0:
117,152,166209,2,0,P|85:267|62:377,1,187.5,2|0,2:2|2:2,2:2:0:0:
276,377,166653,1,10,3:2:0:0:
276,377,166875,1,0,2:2:0:0:
417,115,167097,5,0,1:2:0:0:
417,115,167542,2,0,P|442:138|433:198,1,62.5,10|0,3:2|2:2,2:2:0:0:
511,214,167764,2,0,P|474:205|228:164,1,250,2|0,1:2|2:2,2:2:0:0:
84,44,168431,1,8,3:2:0:0:
84,44,168653,1,0,2:2:0:0:
32,103,168875,1,0,1:2:0:0:
32,103,170653,6,0,P|80:93|116:209,1,200,2|0,0:0|0:0,0:0:0:0:
401,348,173320,5,2,2:2:0:0:
426,273,173764,1,2,2:2:0:0:
478,332,174209,2,0,P|354:305|280:292,1,200,2|2,0:0|0:0,0:0:0:0:
75,215,176875,5,2,2:2:0:0:
94,289,177320,1,2,2:2:0:0:
113,363,177764,2,0,B|111:308|149:271|178:308|226:263|220:210,1,200,2|0,0:0|0:0,0:0:0:0:
385,10,180431,5,2,2:2:0:0:
370,86,180875,1,2,2:2:0:0:
448,101,181320,2,0,P|387:118|376:210,1,160,2|0,0:0|0:0,0:0:0:0:
