osu file format v14

[General]
AudioFilename: Tristam - My Friend.mp3
AudioLeadIn: 0
PreviewTime: 90084
Countdown: 0
SampleSet: Soft
StackLeniency: 0.6
Mode: 1
LetterboxInBreaks: 0
WidescreenStoryboard: 1

[Editor]
Bookmarks: 22675,45263,67851,90439,113027,135616,158204,180792,203380,225969,245733,248557
DistanceSpacing: 1.2
BeatDivisor: 2
GridSize: 4
TimelineZoom: 0.8999999

[Metadata]
Title:My Friend
TitleUnicode:My Friend
Artist:Tristam
ArtistUnicode:Tristam
Creator:grumd
Version:Taiko Kantan
Source:
Tags:drumstep monstercat ReFaller Shmiklak Fanteer Secretpipe vanucik5656
BeatmapID:908048
BeatmapSetID:417938

[Difficulty]
HPDrainRate:6
CircleSize:4
OverallDifficulty:8
ApproachRate:9
SliderMultiplier:1.4
SliderTickRate:1

[Events]
//Background and Video events
0,0,"822092656.jpg",0,0
//Break Periods
2,113225,118072
2,118872,123720
2,124520,129367
2,130167,135014
//Storyboard Layer 0 (Background)
//Storyboard Layer 1 (Fail)
//Storyboard Layer 2 (Pass)
//Storyboard Layer 3 (Foreground)
//Storyboard Sound Samples

[TimingPoints]
22673,352.941176470588,4,2,0,50,1,0
22673,-166.666666666667,4,2,0,50,0,0
45261,-166.666666666667,4,2,0,30,0,0
67143,-200,4,2,0,60,0,0
67849,-90.9090909090909,4,2,0,80,0,0
89202,-90.9090909090909,4,2,0,50,0,0
90437,-90.9090909090909,4,2,0,80,0,1
107378,-90.9090909090909,4,2,0,60,0,1
109496,-111.111111111111,4,2,0,40,0,1
111614,-133.333333333333,4,2,0,20,0,1
113025,-133.333333333333,4,2,0,30,0,0
135614,-166.666666666667,4,2,0,50,0,0
158202,-166.666666666667,4,2,0,30,0,0
180084,-200,4,2,0,60,0,0
180790,-90.9090909090909,4,2,0,80,0,0
201967,-90.9090909090909,4,2,0,60,0,0
202320,-90.9090909090909,4,2,0,30,0,0
202672,-90.9090909090909,4,2,0,40,0,0
203025,-90.9090909090909,4,2,0,50,0,0
203378,-90.9090909090909,4,2,0,80,0,1
224555,-90.9090909090909,4,2,0,60,0,0
224908,-90.9090909090909,4,2,0,40,0,0
225261,-90.9090909090909,4,2,0,50,0,0
225614,-90.9090909090909,4,2,0,60,0,0
225967,-90.9090909090909,4,2,0,60,0,1
225967,-90.9090909090909,4,2,0,90,0,1
245731,-90.9090909090909,4,2,0,60,0,0

[Colours]
Combo1 : 241,65,65
Combo2 : 164,207,240
Combo3 : 130,138,247
Combo4 : 182,148,245
Combo5 : 248,165,124

[HitObjects]
196,200,22673,5,4,0:3:0:0:
304,176,24084,1,8,0:0:0:0:
196,200,25496,1,4,0:3:0:0:
196,200,25673,1,4,0:3:0:0:
304,176,26907,1,8,0:0:0:0:
196,200,28320,1,4,0:3:0:0:
304,176,29731,1,8,0:0:0:0:
196,200,31143,1,4,0:3:0:0:
196,200,31320,1,4,0:3:0:0:
304,176,32554,1,8,0:0:0:0:
304,176,33614,1,8,0:0:0:0:
196,200,33967,1,4,0:3:0:0:
304,176,35378,1,8,0:0:0:0:
196,200,36790,1,4,0:3:0:0:
196,200,36967,1,4,0:3:0:0:
304,176,38201,1,8,0:0:0:0:
196,200,39614,1,4,0:3:0:0:
304,176,41025,1,8,0:0:0:0:
196,200,42437,1,4,0:3:0:0:
196,200,42614,1,4,0:3:0:0:
304,176,43848,1,8,0:0:0:0:
256,192,45261,1,2,0:0:0:0:
256,192,47378,1,2,0:0:0:0:
256,192,47731,1,2,0:0:0:0:
256,192,48084,1,2,0:0:0:0:
256,192,50202,1,2,0:0:0:0:
256,192,50555,1,2,0:0:0:0:
256,192,50908,1,2,0:0:0:0:
256,192,53025,1,2,0:0:0:0:
256,192,53378,1,2,0:0:0:0:
256,192,53731,1,2,0:0:0:0:
256,192,55849,1,2,0:0:0:0:
256,192,56202,1,2,0:0:0:0:
256,192,56555,1,2,0:0:0:0:
256,192,58673,1,2,0:0:0:0:
256,192,59025,1,2,0:0:0:0:
256,192,59378,1,2,0:0:0:0:
256,192,61496,1,2,0:0:0:0:
256,192,61848,1,2,0:0:0:0:
256,192,62201,1,2,0:0:0:0:
256,192,64320,1,2,0:0:0:0:
256,192,64672,1,2,0:0:0:0:
256,192,65025,1,2,0:0:0:0:
256,192,67143,1,12,0:0:0:0:
256,192,67849,1,6,1:2:0:0:
256,192,68555,1,8,0:0:0:0:
256,192,69261,1,0,1:0:0:0:
256,192,69967,1,8,0:0:0:0:
256,192,70673,1,0,1:0:0:0:
256,192,71378,1,8,0:0:0:0:
256,192,72084,1,0,1:0:0:0:
256,192,72790,1,8,0:0:0:0:
256,192,73496,1,0,1:0:0:0:
256,192,74202,1,8,0:0:0:0:
256,192,74908,1,0,1:0:0:0:
256,192,75614,1,8,0:0:0:0:
256,192,76320,1,0,1:0:0:0:
256,192,77025,1,8,0:0:0:0:
256,192,77731,1,0,1:0:0:0:
256,192,78437,1,8,0:0:0:0:
256,192,79143,1,0,1:0:0:0:
256,192,79849,1,8,0:0:0:0:
256,192,80555,1,0,1:0:0:0:
256,192,81261,1,8,0:0:0:0:
256,192,81967,1,0,1:0:0:0:
256,192,82672,1,8,0:0:0:0:
256,192,83378,1,0,1:0:0:0:
256,192,84084,1,8,0:0:0:0:
256,192,84790,1,0,1:0:0:0:
256,192,85496,1,8,0:0:0:0:
256,192,86202,1,0,1:0:0:0:
256,192,86908,1,8,0:0:0:0:
256,192,87614,1,0,1:0:0:0:
256,192,88320,1,8,0:0:0:0:
256,192,89026,1,0,1:0:0:0:
256,192,89731,1,2,0:0:0:0:
256,192,90084,1,2,0:0:0:0:
256,192,90437,1,6,1:2:0:0:
256,192,91143,1,8,0:0:0:0:
256,192,91849,1,0,1:0:0:0:
256,192,92555,1,8,0:0:0:0:
256,192,93261,1,0,1:0:0:0:
256,192,93967,1,8,0:0:0:0:
256,192,94673,1,0,1:0:0:0:
256,192,95379,1,8,0:0:0:0:
256,192,96084,1,0,1:0:0:0:
256,192,96790,1,8,0:0:0:0:
256,192,97496,1,0,1:0:0:0:
256,192,98202,1,8,0:0:0:0:
256,192,98908,1,0,1:0:0:0:
256,192,99614,1,8,0:0:0:0:
256,192,100320,1,0,1:0:0:0:
256,192,101026,1,8,0:0:0:0:
256,192,101731,1,0,1:0:0:0:
256,192,102437,1,8,0:0:0:0:
256,192,103143,1,0,1:0:0:0:
256,192,103849,1,8,0:0:0:0:
256,192,104555,1,0,1:0:0:0:
256,192,105261,1,8,0:0:0:0:
256,192,105967,1,0,1:0:0:0:
256,192,106673,1,8,0:0:0:0:
256,192,107378,1,0,1:0:0:0:
256,192,108084,1,8,0:0:0:0:
256,192,108790,1,0,1:0:0:0:
256,192,109496,1,8,0:0:0:0:
256,192,110202,1,0,1:0:0:0:
256,192,111614,1,0,1:0:0:0:
256,192,113025,1,0,1:0:0:0:
256,192,118672,5,0,1:0:0:0:
244,160,124320,5,0,1:0:0:0:
320,236,129967,5,0,1:0:0:0:
196,200,135614,5,4,0:3:0:0:
304,176,137025,1,8,0:0:0:0:
196,200,138437,1,4,0:3:0:0:
196,200,138614,1,4,0:3:0:0:
304,176,139848,1,8,0:0:0:0:
196,200,141261,1,4,0:3:0:0:
304,176,142672,1,8,0:0:0:0:
196,200,144084,1,4,0:3:0:0:
196,200,144261,1,4,0:3:0:0:
304,176,145495,1,8,0:0:0:0:
196,200,146908,1,4,0:3:0:0:
304,176,148319,1,8,0:0:0:0:
196,200,149731,1,4,0:3:0:0:
196,200,149908,1,4,0:3:0:0:
304,176,151142,1,8,0:0:0:0:
196,200,152555,1,4,0:3:0:0:
304,176,153966,1,8,0:0:0:0:
196,200,155378,1,4,0:3:0:0:
196,200,155555,1,4,0:3:0:0:
304,176,156789,1,8,0:0:0:0:
256,192,158202,1,2,0:0:0:0:
256,192,160319,1,2,0:0:0:0:
256,192,160672,1,2,0:0:0:0:
256,192,161025,1,2,0:0:0:0:
256,192,163143,1,2,0:0:0:0:
256,192,163496,1,2,0:0:0:0:
256,192,163849,1,2,0:0:0:0:
256,192,165967,1,2,0:0:0:0:
256,192,166320,1,2,0:0:0:0:
256,192,166673,1,2,0:0:0:0:
256,192,168790,1,2,0:0:0:0:
256,192,169143,1,2,0:0:0:0:
256,192,169496,1,2,0:0:0:0:
256,192,171614,1,2,0:0:0:0:
256,192,171967,1,2,0:0:0:0:
256,192,172320,1,2,0:0:0:0:
256,192,174437,1,2,0:0:0:0:
256,192,174790,1,2,0:0:0:0:
256,192,175143,1,2,0:0:0:0:
256,192,177261,1,2,0:0:0:0:
256,192,177614,1,2,0:0:0:0:
256,192,177967,1,2,0:0:0:0:
256,192,180084,1,12,0:0:0:0:
256,192,180790,1,6,1:2:0:0:
256,192,181496,1,8,0:0:0:0:
256,192,182202,1,0,1:0:0:0:
256,192,182908,1,8,0:0:0:0:
256,192,183614,1,0,1:0:0:0:
256,192,184319,1,8,0:0:0:0:
256,192,185025,1,0,1:0:0:0:
256,192,185731,1,8,0:0:0:0:
256,192,186437,1,0,1:0:0:0:
256,192,187142,1,8,0:0:0:0:
256,192,187849,1,0,1:0:0:0:
256,192,188555,1,8,0:0:0:0:
256,192,189261,1,0,1:0:0:0:
256,192,189966,1,8,0:0:0:0:
256,192,190672,1,0,1:0:0:0:
256,192,191378,1,8,0:0:0:0:
256,192,192084,1,0,1:0:0:0:
256,192,192789,1,8,0:0:0:0:
256,192,193496,1,0,1:0:0:0:
256,192,194202,1,8,0:0:0:0:
256,192,194908,1,0,1:0:0:0:
256,192,195613,1,8,0:0:0:0:
256,192,196320,1,0,1:0:0:0:
256,192,197026,1,8,0:0:0:0:
256,192,197732,1,0,1:0:0:0:
256,192,198437,1,8,0:0:0:0:
256,192,199143,1,0,1:0:0:0:
256,192,199849,1,8,0:0:0:0:
256,192,200555,1,0,1:0:0:0:
256,192,201260,1,8,0:0:0:0:
256,192,201967,1,0,1:0:0:0:
256,192,202320,1,2,0:0:0:0:
256,192,202672,1,2,0:0:0:0:
256,192,203025,1,2,0:0:0:0:
256,192,203378,1,6,1:2:0:0:
256,192,204084,1,8,0:0:0:0:
256,192,204790,1,0,1:0:0:0:
256,192,205496,1,8,0:0:0:0:
256,192,206202,1,0,1:0:0:0:
256,192,206908,1,8,0:0:0:0:
256,192,207614,1,0,1:0:0:0:
256,192,208320,1,8,0:0:0:0:
256,192,209026,1,0,1:0:0:0:
256,192,209731,1,8,0:0:0:0:
256,192,210437,1,0,1:0:0:0:
256,192,211143,1,8,0:0:0:0:
256,192,211849,1,0,1:0:0:0:
256,192,212555,1,8,0:0:0:0:
256,192,213261,1,0,1:0:0:0:
256,192,213967,1,8,0:0:0:0:
256,192,214673,1,0,1:0:0:0:
256,192,215378,1,8,0:0:0:0:
256,192,216084,1,0,1:0:0:0:
256,192,216790,1,8,0:0:0:0:
256,192,217496,1,0,1:0:0:0:
256,192,218202,1,8,0:0:0:0:
256,192,218908,1,0,1:0:0:0:
256,192,219614,1,8,0:0:0:0:
256,192,220320,1,0,1:0:0:0:
256,192,221025,1,8,0:0:0:0:
256,192,221731,1,0,1:0:0:0:
256,192,222437,1,8,0:0:0:0:
256,192,223143,1,0,1:0:0:0:
256,192,223849,1,8,0:0:0:0:
256,192,224555,1,0,1:0:0:0:
256,192,224908,1,2,0:0:0:0:
256,192,225261,1,2,0:0:0:0:
256,192,225614,1,2,0:0:0:0:
256,192,225967,1,6,1:2:0:0:
256,192,226673,1,8,0:0:0:0:
256,192,227379,1,0,1:0:0:0:
256,192,228085,1,8,0:0:0:0:
256,192,228791,1,0,1:0:0:0:
256,192,229496,1,8,0:0:0:0:
256,192,230202,1,0,1:0:0:0:
256,192,230908,1,8,0:0:0:0:
256,192,231614,1,4,1:2:0:0:
256,192,232320,1,8,0:0:0:0:
256,192,233026,1,0,1:0:0:0:
256,192,233732,1,8,0:0:0:0:
256,192,234438,1,0,1:0:0:0:
256,192,235143,1,8,0:0:0:0:
256,192,235849,1,0,1:0:0:0:
256,192,236555,1,8,0:0:0:0:
256,192,237261,1,4,1:2:0:0:
256,192,237967,1,8,0:0:0:0:
256,192,238673,1,0,1:0:0:0:
256,192,239379,1,8,0:0:0:0:
256,192,240085,1,0,1:0:0:0:
256,192,240790,1,8,0:0:0:0:
256,192,241496,1,0,1:0:0:0:
256,192,242202,1,8,0:0:0:0:
256,192,242908,1,4,1:2:0:0:
256,192,243614,1,8,0:0:0:0:
256,192,244320,1,0,1:0:0:0:
256,192,245026,1,8,0:0:0:0:
256,192,245732,1,0,1:0:0:0:
