osu file format v14

[General]
AudioFilename: Tristam - My Friend.mp3
AudioLeadIn: 0
PreviewTime: 90084
Countdown: 0
SampleSet: Soft
StackLeniency: 0.6
Mode: 0
LetterboxInBreaks: 1
WidescreenStoryboard: 1

[Editor]
Bookmarks: 22675,45263,67851,90439,113027,135616,158204,180792,203380,225969,245733,248557
DistanceSpacing: 1.2
BeatDivisor: 2
GridSize: 4
TimelineZoom: 1.4

[Metadata]
Title:My Friend
TitleUnicode:My Friend
Artist:Tristam
ArtistUnicode:Tristam
Creator:grumd
Version:Normal
Source:
Tags:drumstep monstercat ReFaller Shmiklak Fanteer Secretpipe vanucik5656
BeatmapID:917667
BeatmapSetID:417938

[Difficulty]
HPDrainRate:3
CircleSize:3.2
OverallDifficulty:4
ApproachRate:5.7
SliderMultiplier:0.8
SliderTickRate:1

[Events]
//Background and Video events
0,0,"822092656.jpg",0,0
//Break Periods
2,113225,134294
//Storyboard Layer 0 (Background)
//Storyboard Layer 1 (Fail)
//Storyboard Layer 2 (Pass)
//Storyboard Layer 3 (Foreground)
//Storyboard Sound Samples

[TimingPoints]
22673,352.941176470588,4,2,0,50,1,0
22673,-166.666666666667,4,2,0,50,0,0
45261,-166.666666666667,4,2,0,30,0,0
67143,-200,4,2,0,60,0,0
67849,-90.9090909090909,4,2,0,80,0,0
89202,-90.9090909090909,4,2,0,50,0,0
90437,-90.9090909090909,4,2,0,80,0,1
107378,-90.9090909090909,4,2,0,60,0,1
109496,-111.111111111111,4,2,0,40,0,1
111614,-133.333333333333,4,2,0,20,0,1
113025,-133.333333333333,4,2,0,30,0,0
135614,-166.666666666667,4,2,0,50,0,0
158202,-166.666666666667,4,2,0,30,0,0
180084,-166.666666666667,4,2,0,60,0,0
180790,-90.9090909090909,4,2,0,80,0,0
201967,-90.9090909090909,4,2,0,60,0,0
202320,-90.9090909090909,4,2,0,30,0,0
202672,-90.9090909090909,4,2,0,40,0,0
203025,-90.9090909090909,4,2,0,50,0,0
203378,-90.9090909090909,4,2,0,80,0,1
224555,-90.9090909090909,4,2,0,60,0,0
224908,-90.9090909090909,4,2,0,40,0,0
225261,-90.9090909090909,4,2,0,50,0,0
225614,-90.9090909090909,4,2,0,60,0,0
225967,-90.9090909090909,4,2,0,90,0,1
245731,-90.9090909090909,4,2,0,60,0,0
246437,-90.9090909090909,4,2,0,50,0,0
247143,-90.9090909090909,4,2,0,40,0,0
247849,-90.9090909090909,4,2,0,30,0,0
248202,-90.9090909090909,4,2,0,20,0,0
248378,-90.9090909090909,4,2,0,10,0,0

[Colours]
Combo1 : 241,65,65
Combo2 : 164,207,240
Combo3 : 130,138,247
Combo4 : 182,148,245
Combo5 : 248,165,124

[HitObjects]
128,320,22673,6,0,P|112:264|204:176,1,191.999994140625,4|8,0:3|0:0,0:0:0:0:
404,280,25496,2,0,B|396:328|396:328|324:356|256:316,1,191.999994140625,4|8,0:3|0:0,0:0:0:0:
184,100,28320,6,0,L|384:68,1,191.999994140625,4|8,0:3|0:0,0:0:0:0:
480,276,31143,2,0,P|436:340|316:352,1,191.999994140625,4|8,0:3|0:0,0:0:0:0:
172,188,33967,6,0,P|94:231|90:325,1,191.999994140625,4|8,0:3|0:0,0:0:0:0:
320,314,36790,2,0,B|338:267|338:267|313:116,1,191.999994140625,4|8,0:3|0:0,0:0:0:0:
101,40,39614,38,0,P|12:101|25:192,1,191.999994140625,4|8,0:3|0:0,0:0:0:0:
222,280,42437,2,0,L|411:244,1,191.999994140625,4|8,0:3|0:0,0:0:0:0:
298,42,45261,6,0,P|258:111|150:136,1,191.999994140625,2|0,0:0|0:0,0:0:0:0:
74,220,47378,2,0,L|79:277,1,47.9999985351563,2|2,0:0|0:0,0:0:0:0:
119,307,48084,6,0,L|325:336,1,191.999994140625,2|0,0:0|0:0,0:0:0:0:
407,274,50202,2,0,L|398:227,1,47.9999985351563,2|2,0:0|0:0,0:0:0:0:
354,189,50908,38,0,P|254:217|182:157,1,191.999994140625,2|0,0:0|0:0,0:0:0:0:
104,89,53025,2,0,L|55:98,1,47.9999985351563,2|2,0:0|0:0,0:0:0:0:
20,142,53731,6,0,P|19:224|111:281,1,191.999994140625,2|0,0:0|0:0,0:0:0:0:
198,215,55849,2,0,L|251:225,1,47.9999985351563,2|2,0:0|0:0,0:0:0:0:
271,275,56555,6,0,P|331:220|441:229,1,191.999994140625,2|0,0:0|0:0,0:0:0:0:
455,339,58673,2,0,L|403:349,1,47.9999985351563,2|2,0:0|0:0,0:0:0:0:
358,319,59378,38,0,L|401:125,1,191.999994140625,2|0,0:0|0:0,0:0:0:0:
313,54,61496,2,0,L|298:118,1,47.9999985351563,0|2,0:0|0:0,0:0:0:0:
262,143,62202,6,0,P|183:168|97:91,1,191.999994140625,2|0,0:0|0:0,0:0:0:0:
17,185,64320,2,0,P|32:209|54:231,1,47.9999985351563,2|2,0:0|0:0,0:0:0:0:
102,227,65025,6,0,P|136:199|195:189,2,95.9999970703126,2|0|0,0:0|0:0|0:0,0:0:0:0:
183,289,67143,1,12,0:0:0:0:
183,289,67849,6,0,P|250:338|351:324,1,176.000005371094,6|8,1:2|0:0,0:0:0:0:
503,198,69261,2,0,L|493:109,1,88.000002685547,0|0,1:0|0:0,0:0:0:0:
392,78,69967,2,0,L|382:165,1,88.000002685547,8|0,0:0|0:0,0:0:0:0:
292,221,70673,6,0,P|252:168|135:165,1,176.000005371094,0|8,1:0|0:0,0:0:0:0:
74,355,72084,1,0,1:0:0:0:
283,331,72790,2,0,L|298:229,1,88.000002685547,8|0,0:0|0:0,0:0:0:0:
400,229,73496,54,0,P|367:169|256:146,1,176.000005371094,0|8,1:0|0:0,0:0:0:0:
80,240,74908,2,0,L|69:139,1,88.000002685547,0|0,1:0|0:0,0:0:0:0:
135,68,75614,1,8,0:0:0:0:
328,151,76320,6,0,P|329:259|276:292,1,176.000005371094,0|8,1:0|0:0,0:0:0:0:
97,186,77731,2,0,L|116:87,2,88.000002685547,0|0|8,1:0|0:0|0:0,0:0:0:0:
200,370,79143,54,0,L|382:345,1,176.000005371094,0|8,1:0|0:0,0:0:0:0:
450,148,80555,2,0,P|364:136|294:202,1,176.000005371094,0|8,1:0|0:0,0:0:0:0:
146,335,81967,6,0,L|54:316,1,88.000002685547,0|0,1:0|0:0,0:0:0:0:
49,212,82672,2,0,L|221:246,1,176.000005371094,8|0,0:0|1:0,0:0:0:0:
438,176,84084,2,0,P|450:227|449:268,1,88.000002685547,8|0,0:0|0:0,0:0:0:0:
386,347,84790,54,0,P|298:348|229:271,1,176.000005371094,0|8,1:0|0:0,0:0:0:0:
284,84,86202,1,0,1:0:0:0:
91,170,86908,2,0,L|2:151,1,88.000002685547,8|0,0:0|0:0,0:0:0:0:
13,257,87614,6,0,L|99:275,1,88.000002685547,0|0,1:0|0:0,0:0:0:0:
166,357,88320,2,0,L|265:334,1,88.000002685547,8|0,0:0|0:0,0:0:0:0:
354,310,89025,1,0,1:0:0:0:
402,55,90437,54,0,L|384:153,1,88.000002685547,6|0,1:2|0:0,0:0:0:0:
294,193,91143,1,8,0:0:0:0:
196,152,91496,1,0,0:0:0:0:
94,182,91849,6,0,P|78:220|72:271,1,88.000002685547,0|0,1:0|0:0,0:0:0:0:
140,346,92555,1,8,0:0:0:0:
240,314,92908,1,0,0:0:0:0:
240,314,93261,54,0,L|229:219,1,88.000002685547,0|0,1:0|0:0,0:0:0:0:
294,142,93967,1,8,0:0:0:0:
396,167,94320,1,0,0:0:0:0:
446,259,94672,6,0,P|441:307|423:354,1,88.000002685547,0|0,1:0|0:0,0:0:0:0:
322,352,95378,1,8,0:0:0:0:
239,286,95731,1,0,0:0:0:0:
239,286,96084,54,0,L|150:297,1,88.000002685547,0|0,1:0|0:0,0:0:0:0:
64,236,96790,1,8,0:0:0:0:
127,151,97143,1,0,0:0:0:0:
186,64,97496,6,0,P|141:46|91:52,2,88.000002685547,0|0|8,1:0|0:0|0:0,0:0:0:0:
259,150,98555,1,0,0:0:0:0:
259,150,98908,54,0,P|245:189|243:240,1,88.000002685547,0|0,1:0|0:0,0:0:0:0:
327,298,99614,1,8,0:0:0:0:
427,266,99967,1,0,0:0:0:0:
463,166,100320,6,0,L|450:78,1,88.000002685547,0|0,1:0|0:0,0:0:0:0:
351,40,101025,1,8,0:0:0:0:
254,83,101378,1,0,0:0:0:0:
254,83,101731,54,0,L|239:172,1,88.000002685547,0|0,1:0|0:0,0:0:0:0:
294,260,102437,1,8,0:0:0:0:
398,242,102790,1,0,0:0:0:0:
454,152,103143,6,0,P|447:105|427:57,1,88.000002685547,0|0,1:0|0:0,0:0:0:0:
329,42,103849,1,8,0:0:0:0:
279,135,104202,1,0,0:0:0:0:
279,135,104555,54,0,L|292:226,1,88.000002685547,0|0,1:0|0:0,0:0:0:0:
366,297,105261,1,8,0:0:0:0:
279,358,105614,1,0,0:0:0:0:
195,293,105967,6,0,P|154:282|103:277,1,88.000002685547,0|0,1:0|0:0,0:0:0:0:
6,302,106672,1,8,0:0:0:0:
38,201,107025,1,0,0:0:0:0:
38,201,107378,54,0,L|19:100,1,88.000002685547,0|0,1:0|0:0,0:0:0:0:
94,37,108084,1,8,0:0:0:0:
191,76,108437,1,0,0:0:0:0:
256,158,108790,6,0,L|237:258,1,88.000002685547,0|0,1:0|0:0,0:0:0:0:
294,311,109496,2,0,P|381:307|432:260,1,143.999995605469,8|0,0:0|1:0,0:0:0:0:
445,189,110555,53,0,0:0:0:0:
376,135,110908,2,0,L|371:55,1,71.9999978027344,0|0,0:0|0:0,0:0:0:0:
289,40,111614,6,0,P|254:115|103:115,1,240.000009155274,0|0,1:0|1:0,0:0:0:0:
75,296,135614,6,0,L|110:101,1,191.999994140625,4|8,0:3|0:0,0:0:0:0:
337,76,138437,2,0,B|385:84|385:84|432:145|410:225,1,191.999994140625,4|8,0:3|0:0,0:0:0:0:
205,322,141261,6,0,P|107:309|56:226,1,191.999994140625,4|8,0:3|0:0,0:0:0:0:
247,106,144084,2,0,B|295:127|295:127|144:159,1,191.999994140625,4|8,0:3|0:0,0:0:0:0:
289,345,146908,6,0,L|488:302,1,191.999994140625,4|8,0:3|0:0,0:0:0:0:
430,78,149731,2,0,B|385:63|385:63|240:78,1,191.999994140625,4|8,0:3|0:0,0:0:0:0:
119,273,152555,38,0,P|172:342|279:334,1,191.999994140625,4|8,0:3|0:0,0:0:0:0:
310,112,155378,2,0,L|117:72,1,191.999994140625,4|8,0:3|0:0,0:0:0:0:
56,294,158202,6,0,B|94:327|145:315|145:315|197:302|238:330,1,191.999994140625,2|0,0:0|0:0,0:0:0:0:
321,250,160320,2,0,L|315:189,1,47.9999985351563,2|2,0:0|0:0,0:0:0:0:
268,170,161025,6,0,P|178:167|112:75,1,191.999994140625,2|0,0:0|0:0,0:0:0:0:
226,59,163143,2,0,L|281:48,1,47.9999985351563,2|2,0:0|0:0,0:0:0:0:
330,49,163849,38,0,P|392:77|385:193,1,191.999994140625,2|0,0:0|0:0,0:0:0:0:
280,223,165967,2,0,L|268:284,1,47.9999985351563,2|2,0:0|0:0,0:0:0:0:
221,299,166672,6,0,L|68:316,1,143.999995605469,2|0,0:0|0:0,0:0:0:0:
34,276,168084,2,0,P|39:199|93:144,1,143.999995605469,0|2,0:0|0:0,0:0:0:0:
135,172,169496,6,0,P|209:183|286:93,1,191.999994140625,2|0,0:0|0:0,0:0:0:0:
398,83,171614,2,0,L|467:94,1,47.9999985351563,2|2,0:0|0:0,0:0:0:0:
488,129,172320,38,0,P|484:206|385:269,1,191.999994140625,2|0,0:0|0:0,0:0:0:0:
292,217,174437,2,0,L|234:227,1,47.9999985351563,0|2,0:0|0:0,0:0:0:0:
200,262,175143,6,0,L|181:357,2,95.9999970703126,2|0|0,0:0|0:0|0:0,0:0:0:0:
98,207,177261,2,0,L|31:220,1,47.9999985351563,2|2,0:0|0:0,0:0:0:0:
15,170,177967,6,0,L|37:66,1,95.9999970703126,2|0,0:0|0:0,0:0:0:0:
148,55,179378,1,0,0:0:0:0:
246,114,180084,1,12,0:0:0:0:
246,114,180790,6,0,L|217:294,1,176.000005371094,6|8,1:2|0:0,0:0:0:0:
428,265,182202,2,0,L|412:165,1,88.000002685547,0|0,1:0|0:0,0:0:0:0:
344,98,182908,2,0,P|299:159|193:171,1,176.000005371094,8|0,0:0|1:0,0:0:0:0:
34,48,184320,5,8,0:0:0:0:
110,244,185025,2,0,L|92:346,1,88.000002685547,0|0,1:0|0:0,0:0:0:0:
191,374,185731,2,0,P|232:355|279:345,1,88.000002685547,8|0,0:0|0:0,0:0:0:0:
342,265,186437,54,0,P|399:312|503:302,1,176.000005371094,0|8,1:0|0:0,0:0:0:0:
408,113,187849,2,0,L|305:135,1,88.000002685547,0|0,1:0|0:0,0:0:0:0:
219,104,188555,2,0,P|175:84|135:79,1,88.000002685547,8|0,0:0|0:0,0:0:0:0:
64,157,189261,6,0,P|101:215|203:219,1,176.000005371094,0|8,1:0|0:0,0:0:0:0:
325,49,190672,2,0,P|409:45|461:112,1,176.000005371094,0|8,1:0|0:0,0:0:0:0:
412,317,192084,53,0,1:0:0:0:
206,268,192790,2,0,L|193:173,1,88.000002685547,8|0,0:0|0:0,0:0:0:0:
93,148,193496,2,0,P|25:209|21:299,1,176.000005371094,0|8,1:0|0:0,0:0:0:0:
217,360,194908,5,0,1:0:0:0:
413,281,195614,1,8,0:0:0:0:
352,78,196320,2,0,L|261:60,1,88.000002685547,0|0,1:0|0:0,0:0:0:0:
193,138,197025,2,0,P|257:187|251:284,1,176.000005371094,8|0,0:0|1:0,0:0:0:0:
52,334,198437,54,0,P|53:288|68:237,1,88.000002685547,8|0,0:0|0:0,0:0:0:0:
155,193,199143,2,0,L|347:158,1,176.000005371094,0|8,1:0|0:0,0:0:0:0:
450,333,200555,6,0,L|357:315,1,88.000002685547,0|0,1:0|0:0,0:0:0:0:
339,213,201261,2,0,L|425:229,1,88.000002685547,8|0,0:0|0:0,0:0:0:0:
501,156,201967,1,0,1:0:0:0:
90,58,203378,54,0,P|155:118|150:210,1,176.000005371094,6|8,1:2|0:0,0:0:0:0:
18,362,204790,2,0,L|117:339,1,88.000002685547,0|0,1:0|0:0,0:0:0:0:
206,315,205496,2,0,L|227:134,1,176.000005371094,8|0,0:0|1:0,0:0:0:0:
434,102,206908,2,0,L|448:205,1,88.000002685547,8|0,0:0|0:0,0:0:0:0:
395,282,207614,6,0,P|328:289|225:219,1,176.000005371094,0|8,1:0|0:0,0:0:0:0:
213,133,208672,1,0,0:0:0:0:
122,78,209025,54,0,L|24:90,1,88.000002685547,0|0,1:0|0:0,0:0:0:0:
2,189,209731,2,0,P|16:276|99:328,1,176.000005371094,8|0,0:0|1:0,0:0:0:0:
223,166,211143,2,0,L|333:150,1,88.000002685547,8|0,0:0|0:0,0:0:0:0:
415,141,211849,2,0,L|380:322,1,176.000005371094,0|8,1:0|0:0,0:0:0:0:
284,355,212908,1,0,0:0:0:0:
195,298,213261,6,0,P|195:250|208:208,1,88.000002685547,0|0,1:0|0:0,0:0:0:0:
274,131,213967,2,0,P|263:86|243:49,1,88.000002685547,8|0,0:0|0:0,0:0:0:0:
140,25,214672,54,0,P|86:51|56:171,1,176.000005371094,0|8,1:0|0:0,0:0:0:0:
247,235,216084,2,0,L|354:218,1,88.000002685547,0|0,1:0|0:0,0:0:0:0:
396,135,216790,1,8,0:0:0:0:
496,320,217496,6,0,P|437:369|333:356,1,176.000005371094,0|8,1:0|0:0,0:0:0:0:
292,156,218908,2,0,P|240:112|128:122,1,176.000005371094,0|8,1:0|0:0,0:0:0:0:
52,310,220320,54,0,P|87:329|134:337,1,88.000002685547,0|0,1:0|0:0,0:0:0:0:
218,273,221025,2,0,L|235:175,1,88.000002685547,8|0,0:0|0:0,0:0:0:0:
320,126,221731,1,0,1:0:0:0:
113,82,222437,1,8,0:0:0:0:
320,126,223143,6,0,L|417:108,1,88.000002685547,0|0,1:0|0:0,0:0:0:0:
469,195,223849,2,0,L|382:211,1,88.000002685547,8|0,0:0|0:0,0:0:0:0:
334,305,224555,1,0,1:0:0:0:
96,66,225967,54,0,L|108:155,1,88.000002685547,6|0,1:2|0:0,0:0:0:0:
198,98,226672,2,0,L|210:187,1,88.000002685547,8|0,0:0|0:0,0:0:0:0:
301,132,227378,2,0,L|313:221,1,88.000002685547,0|0,1:0|0:0,0:0:0:0:
409,261,228084,1,8,0:0:0:0:
351,57,228790,6,0,L|339:146,1,88.000002685547,4|0,1:2|0:0,0:0:0:0:
249,89,229495,2,0,L|237:178,1,88.000002685547,8|0,0:0|0:0,0:0:0:0:
146,123,230201,2,0,L|134:212,1,88.000002685547,0|0,1:0|0:0,0:0:0:0:
39,252,230907,1,8,0:0:0:0:
72,352,231261,1,0,0:0:0:0:
165,303,231614,54,0,L|344:332,1,176.000005371094,4|8,1:2|0:0,0:0:0:0:
425,138,233025,2,0,L|246:167,1,176.000005371094,0|8,1:0|0:0,0:0:0:0:
194,255,234084,1,0,0:0:0:0:
91,230,234437,6,0,P|72:190|63:141,1,88.000002685547,4|0,1:2|0:0,0:0:0:0:
135,69,235143,1,8,0:0:0:0:
344,40,235849,2,0,P|419:92|421:195,1,176.000005371094,0|8,1:0|0:0,0:0:0:0:
371,258,236908,1,0,0:0:0:0:
270,226,237261,54,0,L|85:247,1,176.000005371094,4|8,1:2|0:0,0:0:0:0:
13,178,238320,1,0,0:0:0:0:
69,88,238672,2,0,L|174:106,1,88.000002685547,0|0,1:0|0:0,0:0:0:0:
255,68,239378,2,0,L|360:50,1,88.000002685547,8|0,0:0|0:0,0:0:0:0:
440,91,240084,5,4,1:2:0:0:
398,298,240790,1,8,0:0:0:0:
226,174,241496,2,0,L|128:185,1,88.000002685547,0|0,1:0|0:0,0:0:0:0:
117,287,242202,2,0,L|215:298,1,88.000002685547,8|0,0:0|0:0,0:0:0:0:
299,343,242908,54,0,P|350:278|455:271,1,176.000005371094,4|8,1:2|0:0,0:0:0:0:
355,70,244320,2,0,L|250:55,1,88.000002685547,0|0,1:0|0:0,0:0:0:0:
221,152,245025,2,0,L|133:164,1,88.000002685547,8|0,0:0|0:0,0:0:0:0:
100,265,245731,1,4,1:2:0:0:
256,192,246084,12,0,248378,0:0:0:0:
