osu file format v14

[General]
AudioFilename: Tristam - My Friend.mp3
AudioLeadIn: 0
PreviewTime: 90084
Countdown: 0
SampleSet: None
StackLeniency: 0.7
Mode: 0
LetterboxInBreaks: 0
WidescreenStoryboard: 1

[Editor]
Bookmarks: 82325
DistanceSpacing: 0.3
BeatDivisor: 4
GridSize: 4
TimelineZoom: 1

[Metadata]
Title:My Friend
TitleUnicode:My Friend
Artist:Tristam
ArtistUnicode:Tristam
Creator:grumd
Version:Insane (by vanucik5656)
Source:
Tags:drumstep monstercat ReFaller Shmiklak Fanteer Secretpipe vanucik5656
BeatmapID:1284398
BeatmapSetID:417938

[Difficulty]
HPDrainRate:6
CircleSize:4
OverallDifficulty:8
ApproachRate:9
SliderMultiplier:1.4
SliderTickRate:1

[Events]
//Background and Video events
0,0,"822092656.jpg",0,0
//Break Periods
2,45466,64431
2,113231,132195
2,158407,177372
//Storyboard Layer 0 (Background)
//Storyboard Layer 1 (Fail)
//Storyboard Layer 2 (Pass)
//Storyboard Layer 3 (Foreground)
//Storyboard Sound Samples

[TimingPoints]
22673,352.941176470588,4,2,0,10,1,0
22673,-125,4,2,0,40,0,0
67143,-330,4,2,0,40,0,0
67761,-330,4,2,0,10,0,0
67849,-76.7441860465118,4,2,0,60,0,0
68555,-68.9655172413793,4,2,0,60,0,0
69261,-62.5,4,2,0,60,0,0
69967,-57.1428571428571,4,2,0,60,0,0
70673,-76.7441860465118,4,2,0,60,0,0
71379,-68.9655172413793,4,2,0,60,0,0
72084,-62.381852551985,4,2,0,60,0,0
72790,-64.5161290322581,4,2,0,60,0,0
73496,-71.2742980561557,4,2,0,60,0,0
74202,-64.5161290322581,4,2,0,60,0,0
74908,-58.8235294117647,4,2,0,60,0,0
75614,-76.7441860465118,4,2,0,60,0,0
76320,-71.2742980561557,4,2,0,60,0,0
77026,-62.381852551985,4,2,0,60,0,0
77732,-55.4621848739497,4,2,0,60,0,0
78437,-50,4,2,0,60,0,0
79143,-71.2742980561557,4,2,0,60,0,0
79849,-64.5161290322581,4,2,0,60,0,0
80555,-58.8235294117647,4,2,0,60,0,0
81261,-54.054054054054,4,2,0,60,0,0
81967,-71.2742980561557,4,2,0,60,0,0
82673,-66.5322580645163,4,2,0,60,0,0
83379,-62.381852551985,4,2,0,60,0,0
84084,-66.5322580645163,4,2,0,60,0,0
84790,-71.2742980561557,4,2,0,60,0,0
85496,-64.5161290322581,4,2,0,60,0,0
86202,-58.8235294117647,4,2,0,60,0,0
86908,-55.4621848739497,4,2,0,60,0,0
87614,-62.381852551985,4,2,0,60,0,0
88320,-55.4621848739497,4,2,0,60,0,0
89026,-500.718861209964,4,2,0,20,0,0
90437,-71.4285714285714,4,2,0,60,0,1
107379,-83.3333333333333,4,2,0,50,0,1
108790,-100,4,2,0,40,0,1
113026,-100,4,2,0,50,0,0
134908,-100,4,2,0,20,0,0
135614,-111.111111111111,4,2,0,40,0,0
157320,-330.111111111111,4,2,0,40,0,0
180702,-330.111111111111,4,2,0,10,0,0
180790,-71.2794798589286,4,2,0,60,0,0
181496,-66.5367732688346,4,2,0,60,0,0
182202,-62.385821976776,4,2,0,60,0,0
182908,-58.7223781476065,4,2,0,60,0,0
183614,-71.2794798589286,4,2,0,60,0,0
184320,-66.5367732688346,4,2,0,60,0,0
185026,-62.385821976776,4,2,0,60,0,0
185732,-66.5367732688346,4,2,0,60,0,0
186437,-71.2794798589286,4,2,0,60,0,0
187143,-66.5367732688346,4,2,0,60,0,0
187849,-62.385821976776,4,2,0,60,0,0
188555,-76.7501937483855,4,2,0,60,0,0
189261,-71.2794798589286,4,2,0,60,0,0
189967,-62.385821976776,4,2,0,60,0,0
190673,-55.4653225053673,4,2,0,60,0,0
191379,-50,4,2,0,60,0,0
192084,-71.4285714285714,4,2,0,60,0,0
192790,-66.6666666666667,4,2,0,60,0,0
193496,-62.5,4,2,0,60,0,0
194908,-71.4285714285714,4,2,0,60,0,0
195614,-66.6666666666667,4,2,0,60,0,0
196320,-71.4285714285714,4,2,0,60,0,0
197026,-66.6666666666667,4,2,0,60,0,0
197732,-71.4285714285714,4,2,0,60,0,0
198437,-66.6666666666667,4,2,0,60,0,0
199143,-62.5,4,2,0,60,0,0
199849,-76.9230769230769,4,2,0,60,0,0
200555,-62.5,4,2,0,60,0,0
201261,-55.5555555555556,4,2,0,60,0,0
203379,-71.4285714285714,4,2,0,60,0,1
224908,-330.428571428571,4,2,0,60,0,0
225967,-71.2942699503745,4,2,0,60,0,1
248555,-124.589280904929,4,2,0,60,0,0

[HitObjects]
402,299,22678,6,0,P|403:274|397:237,1,56,2|0,0:0|0:0,0:0:0:0:
355,171,23031,2,0,P|319:155|238:170,1,112
181,215,23560,2,0,P|139:224|113:222,1,56
45,198,23913,1,0,0:0:0:0:
119,86,24089,2,0,B|236:81|236:81|205:88|188:109,2,168,8|0|0,0:0|0:0|0:0,0:0:0:0:
105,169,25325,1,0,0:0:0:0:
176,258,25501,6,0,P|215:266|234:265,1,56,2|0,0:0|0:0,0:0:0:0:
310,237,25854,2,0,P|345:232|423:250,1,112
420,332,26384,1,0,0:0:0:0:
342,364,26560,2,0,P|307:371|282:369,1,56
215,325,26913,2,0,P|163:313|96:336,1,112,8|0,0:0|0:0,0:0:0:0:
26,351,27442,1,0,0:0:0:0:
41,268,27619,2,0,L|47:205,1,56
102,149,27972,2,0,L|94:89,1,56
254,68,28325,5,2,0:0:0:0:
195,128,28501,1,0,0:0:0:0:
171,46,28678,2,0,L|292:39,1,112
366,48,29207,1,0,0:0:0:0:
430,101,29384,2,0,P|441:140|441:165,1,56
400,228,29737,2,0,P|404:266|413:288,1,56,8|0,0:0|0:0,0:0:0:0:
254,345,30266,1,0,0:0:0:0:
203,184,30619,1,0,0:0:0:0:
285,197,30795,1,0,0:0:0:0:
233,263,30972,1,0,0:0:0:0:
130,169,31148,6,0,L|204:161,1,56,2|0,0:0|0:0,0:0:0:0:
253,112,31501,2,0,P|283:98|373:101,1,112
435,137,32031,1,0,0:0:0:0:
457,217,32207,2,0,P|459:246|455:279,1,56
392,328,32560,1,8,0:0:0:0:
370,246,32737,1,0,0:0:0:0:
487,365,33089,1,0,0:0:0:0:
319,374,33442,1,0,0:0:0:0:
318,289,33619,1,8,0:0:0:0:
392,328,33795,1,0,0:0:0:0:
242,324,33972,6,0,P|205:324|177:330,1,56,2|0,0:0|0:0,0:0:0:0:
105,349,34325,2,0,L|103:228,1,112
167,182,34854,1,0,0:0:0:0:
304,278,35207,1,0,0:0:0:0:
304,278,35384,2,0,P|334:286|374:278,1,56,8|0,0:0|0:0,0:0:0:0:
325,118,35913,2,0,P|296:86|219:73,1,112
147,81,36442,1,0,0:0:0:0:
197,148,36619,1,0,0:0:0:0:
313,57,36795,5,2,0:0:0:0:
230,70,36972,1,0,0:0:0:0:
282,135,37148,2,0,P|292:170|272:247,1,112
198,278,37678,1,0,0:0:0:0:
39,222,38031,1,0,0:0:0:0:
105,170,38207,2,0,P|136:165|166:171,1,56,8|0,0:0|0:0,0:0:0:0:
255,307,38737,1,0,0:0:0:0:
327,349,38913,2,0,P|358:354|390:351,1,56
451,304,39266,2,0,P|483:298|512:301,1,56
376,270,39619,5,2,0:0:0:0:
387,187,39795,1,0,0:0:0:0:
458,224,39972,1,0,0:0:0:0:
290,241,40325,2,0,P|257:244|230:241,1,56
94,149,40854,1,0,0:0:0:0:
94,149,41031,2,0,P|111:191|110:264,1,112,8|0,0:0|0:0,0:0:0:0:
91,338,41560,1,0,0:0:0:0:
19,186,41913,1,0,0:0:0:0:
24,102,42089,1,0,0:0:0:0:
94,149,42266,1,0,0:0:0:0:
263,131,42442,5,2,0:0:0:0:
258,47,42618,1,0,0:0:0:0:
187,92,42795,2,0,P|177:133|203:195,1,112
281,227,43325,1,0,0:0:0:0:
447,201,43678,1,0,0:0:0:0:
393,136,43854,1,8,0:0:0:0:
363,215,44031,1,0,0:0:0:0:
256,192,44119,12,2,45266,0:0:0:0:
256,192,65031,12,0,66796,0:0:0:0:
304,268,67148,6,2,P|306:229|308:187,1,74.2424242424242
302,169,67854,6,0,P|274:143|70:209,1,273.636362371103,6|0,0:0|0:0,0:0:0:0:
165,307,68560,6,0,B|309:386|309:222|455:314,1,304.500009292603,8|0,0:0|0:0,0:0:0:0:
309,138,69266,6,0,P|309:82|517:88,1,336,2|0,0:0|0:0,0:0:0:0:
398,208,69972,6,0,P|312:249|233:52,1,367.500003504753,8|0,0:0|0:0,0:0:0:0:
85,29,70678,6,0,P|96:175|102:314,1,273.636362371103,6|0,0:0|0:0,0:0:0:0:
201,283,71384,6,0,P|160:220|3:319,1,304.500009292603,8|0,0:0|0:0,0:0:0:0:
175,384,72089,6,0,P|234:381|212:176,1,336.636370952218,2|0,0:0|0:0,0:0:0:0:
42,27,72795,6,0,B|133:101|249:42|249:42|197:69|175:115,1,325.500002483368,8|0,0:0|0:0,0:0:0:0:
91,245,73501,6,0,P|118:297|328:305,1,294.636357165145,6|0,0:0|0:0,0:0:0:0:
377,166,74207,6,0,B|148:144|148:144|202:153|229:198,1,325.500002483368,8|0,0:0|0:0,0:0:0:0:
456,370,74913,6,0,P|471:100|474:13,1,357.000006809235,2|0,0:0|0:0,0:0:0:0:
263,143,75619,6,0,P|201:153|275:69,1,273.636362371103,8|0,0:0|0:0,0:0:0:0:
334,226,76325,6,0,P|276:263|79:180,1,294.636357165145,6|0,0:0|0:0,0:0:0:0:
221,119,77031,6,0,B|255:103|284:112|284:112|294:137|318:159|318:159|346:153|369:129|369:129|443:183|506:119,1,336.636370952218,8|0,0:0|0:0,0:0:0:0:
407,296,77737,6,0,B|339:325|291:269|291:269|235:283|235:283|201:247|201:247|118:274|65:212,1,378.636363417518,2|0,0:0|0:0,0:0:0:0:
84,57,78442,6,0,B|140:51|140:51|153:71|176:83|176:83|206:70|241:77|241:77|297:131|361:96|361:96|416:137|473:105,1,420,8|0,0:0|0:0,0:0:0:0:
441,317,79148,6,0,P|384:345|245:201,1,294.636357165145,6|0,0:0|0:0,0:0:0:0:
355,232,79854,6,0,P|322:291|135:206,1,325.500002483368,8|0,0:0|0:0,0:0:0:0:
201,58,80560,6,0,B|269:43|269:43|327:92|327:92|443:48|514:150,1,357.000006809235,2|0,0:0|0:0,0:0:0:0:
429,308,81266,6,0,B|246:402|245:198|56:309,1,388.49999851799,8|0,0:0|0:0,0:0:0:0:
83,89,81972,6,0,P|132:88|182:100,1,98.2121190550483,6|0,0:0|0:0,0:0:0:0:
273,198,82325,2,0,P|323:212|369:202,1,98.2121190550483
490,52,82678,6,0,B|490:76|504:105|504:105|491:125|482:149|482:149|494:174|501:207|501:207|444:264|477:352,1,315.636368306646,8|0,0:0|0:0,0:0:0:0:
267,328,83384,6,0,P|244:268|245:218,1,112.212123650739,2|0,0:0|0:0,0:0:0:0:
386,89,83737,2,0,P|409:149|408:199,1,112.212123650739
175,310,84089,6,0,P|134:214|304:129,1,315.636368306646,8|0,0:0|0:0,0:0:0:0:
408,196,84795,6,0,P|468:197|414:49,1,294.636357165145,6|0,0:0|0:0,0:0:0:0:
222,68,85501,6,0,B|177:137|222:227|222:227|161:193|161:193|169:245|138:284,1,325.500002483368,8|0,0:0|0:0,0:0:0:0:
345,299,86207,6,0,B|398:202|319:129|319:129|394:192|480:147,1,357.000006809235,2|0,0:0|0:0,0:0:0:0:
228,22,86913,6,0,B|224:47|202:69|202:69|218:91|224:128|224:128|195:166|192:219|192:219|245:292|197:373,1,378.636363417518,8|0,0:0|0:0,0:0:0:0:
93,298,87619,6,0,B|125:280|158:272|158:272|188:291|230:290|230:290|303:209|407:249,1,336.636370952218,6|0,0:0|0:0,0:0:0:0:
413,354,88325,6,0,P|352:341|444:149,1,378.636363417518,8|0,0:0|0:0,0:0:0:0:
197,63,89031,6,0,L|168:61,3,27.9598009599967,2|0|0|0,0:0|0:0|0:0|0:0,0:0:0:0:
76,283,90442,6,0,P|122:306|186:298,1,97.9999970092774,6|0,0:0|0:0,0:0:0:0:
379,220,90795,2,0,L|261:207,1,97.9999970092774
72,133,91148,2,0,P|131:126|168:96,1,97.9999970092774,8|0,0:0|0:0,0:0:0:0:
386,98,91501,2,0,P|329:113|281:103,1,97.9999970092774
152,273,91854,5,2,0:0:0:0:
152,273,92031,1,0,0:0:0:0:
315,314,92207,1,0,0:0:0:0:
262,177,92384,1,0,0:0:0:0:
212,357,92560,1,8,0:0:0:0:
353,227,92737,1,0,0:0:0:0:
161,154,92913,2,0,P|192:98|271:77,1,146.999995513916
306,86,93266,5,6,0:0:0:0:
454,182,93442,1,0,0:0:0:0:
434,31,93619,1,0,0:0:0:0:
353,227,93795,1,0,0:0:0:0:
494,103,93972,1,8,0:0:0:0:
256,139,94148,1,0,0:0:0:0:
454,182,94325,1,0,0:0:0:0:
355,46,94501,1,0,0:0:0:0:
299,290,94678,6,0,P|249:316|205:313,1,97.9999970092774,2|0,0:0|0:0,0:0:0:0:
99,194,95031,2,0,P|41:185|-1:199,1,97.9999970092774
117,336,95384,1,8,0:0:0:0:
200,220,95560,1,0,0:0:0:0:
24,282,95737,1,0,0:0:0:0:
96,114,95913,1,0,0:0:0:0:
208,315,96089,6,0,P|262:307|306:271,1,97.9999970092774,6|0,0:0|0:0,0:0:0:0:
274,72,96442,2,0,P|263:135|274:178,1,97.9999970092774
509,222,96795,2,0,P|459:200|410:204,1,97.9999970092774,8|0,0:0|0:0,0:0:0:0:
208,315,97148,2,0,P|160:332|111:323,1,97.9999970092774
99,130,97501,5,2,0:0:0:0:
244,205,97678,1,0,0:0:0:0:
94,219,97854,1,0,0:0:0:0:
193,96,98031,1,0,0:0:0:0:
208,315,98207,1,8,0:0:0:0:
332,141,98384,1,0,0:0:0:0:
159,180,98560,1,0,0:0:0:0:
359,289,98737,1,0,0:0:0:0:
389,64,98913,6,0,P|339:45|289:56,1,97.9999970092774,6|0,0:0|0:0,0:0:0:0:
159,180,99266,2,0,P|108:200|60:189,1,97.9999970092774
194,57,99619,1,8,0:0:0:0:
269,171,99795,1,0,0:0:0:0:
98,280,99972,1,0,0:0:0:0:
159,180,100148,1,0,0:0:0:0:
351,288,100325,5,2,0:0:0:0:
220,330,100501,1,0,0:0:0:0:
269,171,100678,1,0,0:0:0:0:
408,352,100854,1,0,0:0:0:0:
469,182,101031,1,8,0:0:0:0:
262,254,101207,1,0,0:0:0:0:
485,286,101384,1,0,0:0:0:0:
398,127,101560,1,0,0:0:0:0:
322,325,101737,6,0,P|282:348|230:342,1,97.9999970092774,6|0,0:0|0:0,0:0:0:0:
40,218,102089,2,0,L|143:220,1,97.9999970092774
323,114,102442,2,0,P|265:102|215:116,1,97.9999970092774,8|0,0:0|0:0,0:0:0:0:
126,307,102795,2,0,P|183:296|214:259,1,97.9999970092774
380,199,103148,5,2,0:0:0:0:
448,348,103325,1,0,0:0:0:0:
495,164,103501,1,0,0:0:0:0:
336,296,103678,1,0,0:0:0:0:
512,272,103854,1,8,0:0:0:0:
404,97,104031,1,0,0:0:0:0:
232,217,104207,2,0,P|171:233|83:186,1,146.999995513916
72,164,104560,5,6,0:0:0:0:
254,125,104737,1,0,0:0:0:0:
182,309,104913,1,0,0:0:0:0:
158,97,105089,1,0,0:0:0:0:
335,275,105266,1,8,0:0:0:0:
390,122,105442,1,0,0:0:0:0:
232,191,105619,1,0,0:0:0:0:
433,225,105795,1,0,0:0:0:0:
261,99,105972,6,0,P|206:96|163:125,1,97.9999970092774,2|0,0:0|0:0,0:0:0:0:
103,279,106325,2,0,P|51:303|6:297,1,97.9999970092774
75,135,106678,1,8,0:0:0:0:
75,135,106854,1,0,0:0:0:0:
266,216,107031,1,0,0:0:0:0:
222,35,107207,1,0,0:0:0:0:
140,255,107384,5,6,0:0:0:0:
305,314,107560,1,0,0:0:0:0:
197,154,107737,1,0,0:0:0:0:
205,346,107913,1,0,0:0:0:0:
353,227,108089,2,0,P|360:171|349:132,1,83.9999974365235,8|0,0:0|0:0,0:0:0:0:
199,72,108442,2,0,P|192:128|203:167,1,83.9999974365235
251,257,108795,5,2,0:0:0:0:
399,239,108972,1,0,0:0:0:0:
354,144,109148,1,0,0:0:0:0:
321,320,109325,1,0,0:0:0:0:
490,284,109501,1,8,0:0:0:0:
399,239,109678,1,0,0:0:0:0:
321,320,109854,2,0,P|277:331|240:323,1,70
167,210,110207,5,2,0:0:0:0:
256,192,110295,12,2,111619,0:0:0:0:
256,192,111707,12,2,113031,0:0:0:0:
256,192,132795,12,0,134913,0:0:0:0:
331,318,135619,6,0,P|337:276|333:247,1,62.9999980773926,2|0,0:0|0:0,0:0:0:0:
303,166,135972,2,0,P|295:97|330:43,1,125.999996154785
394,111,136501,1,0,0:0:0:0:
213,167,136854,1,0,0:0:0:0:
213,167,137031,2,0,P|155:167|131:158,1,62.9999980773926,8|0,0:0|0:0,0:0:0:0:
65,124,137384,1,0,0:0:0:0:
34,34,137560,2,0,L|104:27,1,62.9999980773926
177,77,137913,2,0,L|240:83,1,62.9999980773926
334,83,138266,1,0,0:0:0:0:
278,270,138442,5,2,0:0:0:0:
213,200,138619,1,0,0:0:0:0:
304,176,138795,2,0,P|346:198|374:273,1,125.999996154785
317,344,139325,2,0,P|285:354|253:350,1,62.9999980773926
168,315,139678,1,0,0:0:0:0:
124,231,139854,2,0,P|116:173|140:108,1,125.999996154785,8|0,0:0|0:0,0:0:0:0:
221,64,140384,1,0,0:0:0:0:
280,137,140560,2,0,P|309:161|404:155,1,125.999996154785
470,106,141089,1,0,0:0:0:0:
414,258,141266,6,0,P|375:269|350:265,1,62.9999980773926,2|0,0:0|0:0,0:0:0:0:
261,243,141619,2,0,P|206:229|134:254,1,125.999996154785
65,305,142148,1,0,0:0:0:0:
11,226,142325,1,0,0:0:0:0:
88,171,142501,1,0,0:0:0:0:
149,344,142678,2,0,P|183:364|276:339,1,125.999996154785,8|0,0:0|0:0,0:0:0:0:
347,302,143207,2,0,P|388:298|417:306,1,62.9999980773926
490,350,143560,2,0,L|486:203,1,125.999996154785
324,143,144089,5,2,0:0:0:0:
231,163,144266,1,0,0:0:0:0:
293,233,144442,2,0,P|328:239|362:237,1,62.9999980773926
407,158,144795,2,0,P|443:153|474:154,1,62.9999980773926
470,248,145148,1,0,0:0:0:0:
416,325,145325,1,0,0:0:0:0:
330,363,145501,2,0,P|288:367|212:309,1,125.999996154785,8|0,0:0|0:0,0:0:0:0:
171,241,146031,1,0,0:0:0:0:
77,248,146207,2,0,P|42:250|10:239,1,62.9999980773926
55,155,146560,2,0,P|90:153|122:164,1,62.9999980773926,8|0,0:0|0:0,0:0:0:0:
280,167,146913,5,2,0:0:0:0:
331,88,147089,1,0,0:0:0:0:
236,82,147266,2,0,L|242:216,1,125.999996154785
319,262,147795,1,0,0:0:0:0:
403,219,147972,1,0,0:0:0:0:
325,165,148148,1,0,0:0:0:0:
277,346,148325,2,0,P|318:355|341:351,1,62.9999980773926,8|0,0:0|0:0,0:0:0:0:
480,227,148854,1,0,0:0:0:0:
439,141,149031,2,0,P|395:107|315:107,1,125.999996154785
257,167,149560,1,0,0:0:0:0:
93,62,149737,5,2,0:0:0:0:
177,19,149913,1,0,0:0:0:0:
172,113,150089,2,0,P|167:149|146:179,1,62.9999980773926
77,228,150442,1,0,0:0:0:0:
77,228,150619,1,0,0:0:0:0:
214,361,150972,2,0,P|234:365|257:362,1,31.4999990386963
237,288,151148,1,8,0:0:0:0:
329,320,151325,2,0,P|364:310|416:231,1,125.999996154785
412,145,151854,2,0,P|379:135|339:136,1,62.9999980773926
285,202,152207,2,0,P|241:216|209:215,1,62.9999980773926
67,111,152560,5,2,0:0:0:0:
152,69,152737,1,0,0:0:0:0:
230,121,152913,2,0,P|271:137|357:119,1,125.999996154785
430,73,153442,2,0,L|425:209,1,125.999996154785
380,283,153972,2,0,P|341:310|256:295,1,125.999996154785,8|0,0:0|0:0,0:0:0:0:
187,249,154501,2,0,P|193:306|193:375,1,125.999996154785
119,336,155031,1,0,0:0:0:0:
265,301,155207,1,0,0:0:0:0:
98,238,155384,5,2,0:0:0:0:
44,160,155560,1,0,0:0:0:0:
138,150,155737,2,0,P|182:162|258:123,1,125.999996154785
307,53,156266,2,0,L|446:60,1,125.999996154785
487,136,156795,1,8,0:0:0:0:
452,224,156972,1,0,0:0:0:0:
271,280,157325,6,0,L|275:174,1,106.024906349504
256,192,177972,12,0,179737,0:0:0:0:
107,195,180089,6,0,L|185:201,1,74.2174344446529
191,222,180795,6,0,P|225:274|426:239,1,294.614943960789,6|0,0:0|0:0,0:0:0:0:
387,41,181501,6,0,B|333:20|291:53|291:53|244:24|205:27|205:27|153:70|80:52,1,315.614942505012,8|0,0:0|0:0,0:0:0:0:
152,264,182207,6,0,P|269:274|217:120,1,336.614942739938,2|0,0:0|0:0,0:0:0:0:
107,322,182913,6,0,B|174:382|264:359|264:359|304:382|304:382|356:319|443:336,1,357.614946719503,8|0,0:0|0:0,0:0:0:0:
448,170,183619,6,0,P|417:119|208:152,1,294.614943960789,6|0,0:0|0:0,0:0:0:0:
183,272,184325,6,0,P|91:193|147:27,1,315.614942505012,8|0,0:0|0:0,0:0:0:0:
309,35,185031,6,0,B|346:50|373:98|373:98|355:132|351:169|351:169|422:238|380:344,1,336.614942739938,2|0,0:0|0:0,0:0:0:0:
245,273,185737,6,0,B|26:283|26:283|80:285|118:323,1,315.614942505012,8|0,0:0|0:0,0:0:0:0:
269,378,186442,6,0,P|337:327|223:168,1,294.614943960789,6|0,0:0|0:0,0:0:0:0:
80,105,187148,6,0,B|105:80|110:41|110:41|148:82|198:61|198:61|276:21|345:77,1,315.614942505012,8|0,0:0|0:0,0:0:0:0:
397,228,187854,6,0,B|345:260|345:260|282:186|197:202|192:279|81:235,1,336.614942739938,2|0,0:0|0:0,0:0:0:0:
236,97,188560,6,0,B|271:155|235:215|235:215|250:252|250:252|234:292|234:292|251:320|248:357,1,273.61495520637,8|0,0:0|0:0,0:0:0:0:
47,342,189266,6,0,P|20:292|167:152,1,294.614943960789,6|0,0:0|0:0,0:0:0:0:
195,303,189972,6,0,B|246:332|246:332|301:309|301:309|354:357|421:320|421:320|457:360|504:354,1,336.614942739938,8|0,0:0|0:0,0:0:0:0:
460,158,190678,6,0,B|388:86|277:123|277:123|237:97|195:96|195:96|155:132|94:119,1,378.61493151742,2|0,0:0|0:0,0:0:0:0:
24,275,191384,6,0,B|57:301|96:306|96:306|123:301|146:282|146:282|169:302|210:312|210:312|286:271|354:328|354:328|428:312,1,420,8|0,0:0|0:0,0:0:0:0:
419,163,192089,6,0,P|388:111|177:134,1,293.999991027832,6|0,0:0|0:0,0:0:0:0:
38,258,192795,6,0,B|82:282|82:282|124:273|124:273|177:297|235:276|235:276|276:317|341:319,1,315.000012016297,8|0,0:0|0:0,0:0:0:0:
468,210,193501,6,0,P|489:163|481:100,1,112,2|0,0:0|0:0,0:0:0:0:
334,21,193854,2,0,P|313:68|319:133,1,112
450,298,194207,2,0,P|396:257|346:252,1,112,8|0,0:0|0:0,0:0:0:0:
145,327,194560,2,0,P|196:336|254:309,1,112
241,79,194913,6,0,P|182:43|81:201,1,293.999991027832,6|0,0:0|0:0,0:0:0:0:
192,263,195619,6,0,B|248:283|248:283|295:252|295:252|374:299|408:206|493:254,1,315.000012016297,8|0,0:0|0:0,0:0:0:0:
406,356,196325,6,0,L|305:350,1,97.9999970092774,2|0,0:0|0:0,0:0:0:0:
127,181,196678,2,0,L|228:187,1,97.9999970092774
408,101,197031,6,0,B|357:60|357:60|291:72|291:72|249:40|196:48|196:48|157:81|105:64,1,315.000012016297,8|0,0:0|0:0,0:0:0:0:
23,273,197737,6,0,P|77:315|254:212,1,293.999991027832,6|0,0:0|0:0,0:0:0:0:
342,51,198442,6,0,B|360:79|360:79|346:116|346:116|376:137|376:137|357:178|357:178|420:248|361:337,1,315.000012016297,8|0,0:0|0:0,0:0:0:0:
165,176,199148,6,0,L|279:158,1,112,2|0,0:0|0:0,0:0:0:0:
147,300,199501,2,0,L|33:318,1,112
29,89,199854,6,0,B|44:82|64:73|64:73|74:80|84:92|84:92|92:79|111:64|111:64|122:76|127:92|127:92|188:49|261:87,1,272.999987503052,8|0,0:0|0:0,0:0:0:0:
387,196,200560,6,0,P|315:257|106:151,1,336,6|0,0:0|0:0,0:0:0:0:
256,85,201266,6,0,B|286:73|318:72|318:72|333:100|361:117|361:117|413:100|486:132|486:132|454:197|364:197,1,377.999988464356,8|0,0:0|0:0,0:0:0:0:
212,162,201972,1,0,0:0:0:0:
141,190,202325,1,0,0:0:0:0:
71,160,202678,1,0,0:0:0:0:
46,88,203031,1,0,0:0:0:0:
212,162,203384,6,0,P|245:176|310:169,1,97.9999970092774,6|0,0:0|0:0,0:0:0:0:
417,91,203737,2,0,P|466:79|517:88,1,97.9999970092774
373,241,204089,1,8,0:0:0:0:
339,67,204266,1,0,0:0:0:0:
470,176,204442,1,0,0:0:0:0:
305,170,204619,1,0,0:0:0:0:
246,329,204795,6,0,P|187:347|146:341,1,97.9999970092774,2|0,0:0|0:0,0:0:0:0:
0,246,205148,2,0,P|59:228|100:234,1,97.9999970092774
240,123,205501,1,8,0:0:0:0:
63,141,205678,1,0,0:0:0:0:
240,123,205854,1,0,0:0:0:0:
86,30,206031,1,0,0:0:0:0:
203,239,206207,6,0,P|259:244|301:226,1,97.9999970092774,2|0,0:0|0:0,0:0:0:0:
449,117,206560,2,0,P|393:112|351:130,1,97.9999970092774
167,146,206913,1,8,0:0:0:0:
259,42,207089,1,0,0:0:0:0:
296,228,207266,2,0,P|351:245|394:234,1,97.9999970092774
167,146,207619,6,0,B|172:287|172:287|177:256|199:236,1,195.999994018555,2|0,0:0|0:0,0:0:0:0:
282,149,208148,1,0,0:0:0:0:
363,299,208325,2,0,L|264:301,1,97.9999970092774,8|0,0:0|0:0,0:0:0:0:
78,248,208678,1,0,0:0:0:0:
89,128,208854,1,0,0:0:0:0:
262,183,209031,6,0,P|311:192|363:178,1,97.9999970092774,6|0,0:0|0:0,0:0:0:0:
478,68,209384,2,0,P|429:59|377:73,1,97.9999970092774
204,242,209737,1,8,0:0:0:0:
130,77,209913,1,0,0:0:0:0:
204,242,210089,1,0,0:0:0:0:
262,53,210266,1,0,0:0:0:0:
101,195,210442,5,2,0:0:0:0:
301,141,210619,1,0,0:0:0:0:
130,77,210795,1,0,0:0:0:0:
301,141,210972,1,0,0:0:0:0:
131,288,211148,2,0,L|24:291,1,97.9999970092774,8|0,0:0|0:0,0:0:0:0:
324,231,211501,2,0,L|431:228,1,97.9999970092774
283,59,211854,5,2,0:0:0:0:
219,254,212031,1,0,0:0:0:0:
371,123,212207,1,0,0:0:0:0:
183,145,212384,1,0,0:0:0:0:
301,321,212560,1,8,0:0:0:0:
316,189,212737,1,0,0:0:0:0:
144,302,212913,2,0,P|89:312|43:297,1,97.9999970092774
147,198,213266,6,0,P|209:214|239:338,1,195.999994018555,2|0,0:0|0:0,0:0:0:0:
134,381,213795,1,0,0:0:0:0:
46,236,213972,2,0,P|38:187|55:138,1,97.9999970092774,8|0,0:0|0:0,0:0:0:0:
230,85,214325,1,0,0:0:0:0:
147,198,214501,1,0,0:0:0:0:
21,42,214678,6,0,L|122:31,1,97.9999970092774,6|0,0:0|0:0,0:0:0:0:
327,74,215031,2,0,L|226:85,1,97.9999970092774
24,144,215384,2,0,L|125:133,1,97.9999970092774,8|0,0:0|0:0,0:0:0:0:
340,168,215737,2,0,L|239:179,1,97.9999970092774
169,338,216089,5,2,0:0:0:0:
169,338,216266,1,0,0:0:0:0:
294,270,216442,1,0,0:0:0:0:
130,219,216619,1,0,0:0:0:0:
253,364,216795,1,8,0:0:0:0:
231,149,216972,1,0,0:0:0:0:
253,364,217148,1,0,0:0:0:0:
231,149,217325,1,0,0:0:0:0:
373,268,217501,6,0,P|428:276|472:258,1,97.9999970092774,2|0,0:0|0:0,0:0:0:0:
273,62,217854,2,0,P|218:54|174:72,1,97.9999970092774
40,251,218207,2,0,P|85:269|133:263,2,97.9999970092774,8|0|0,0:0|0:0|0:0,0:0:0:0:
98,160,218737,1,0,0:0:0:0:
214,353,218913,2,0,P|264:356|312:337,1,97.9999970092774,2|0,0:0|0:0,0:0:0:0:
505,210,219266,2,0,L|396:198,1,97.9999970092774
226,241,219619,1,8,0:0:0:0:
347,100,219795,1,0,0:0:0:0:
336,294,219972,1,0,0:0:0:0:
336,294,220148,1,0,0:0:0:0:
215,125,220325,6,0,L|105:118,1,97.9999970092774,6|0,0:0|0:0,0:0:0:0:
314,35,220678,2,0,P|364:27|409:47,1,97.9999970092774
407,258,221031,1,8,0:0:0:0:
354,116,221207,1,0,0:0:0:0:
289,301,221384,1,0,0:0:0:0:
354,116,221560,1,0,0:0:0:0:
179,283,221737,6,0,P|125:297|82:290,1,97.9999970092774,2|0,0:0|0:0,0:0:0:0:
233,124,222089,2,0,P|287:110|330:117,1,97.9999970092774
124,206,222442,2,0,P|74:203|30:175,1,97.9999970092774,8|0,0:0|0:0,0:0:0:0:
288,199,222795,2,0,P|338:202|382:230,1,97.9999970092774
176,294,223148,5,2,0:0:0:0:
233,124,223325,1,0,0:0:0:0:
307,307,223501,1,0,0:0:0:0:
124,206,223678,1,0,0:0:0:0:
237,363,223854,1,8,0:0:0:0:
378,226,224031,1,0,0:0:0:0:
205,200,224207,1,0,0:0:0:0:
307,307,224384,1,0,0:0:0:0:
291,67,224560,5,2,0:0:0:0:
291,67,224913,2,0,L|289:21,2,42.3692191435443
234,326,225972,5,6,0:0:0:0:
310,163,226148,1,0,0:0:0:0:
162,243,226325,2,0,P|115:255|58:250,1,98.1846040149248
173,65,226678,1,8,0:0:0:0:
173,65,226854,1,0,0:0:0:0:
262,254,227031,2,0,P|303:275|360:276,1,98.1846040149248
389,20,227384,5,2,0:0:0:0:
452,176,227560,1,0,0:0:0:0:
313,87,227737,1,0,0:0:0:0:
472,74,227913,1,0,0:0:0:0:
316,229,228089,1,8,0:0:0:0:
211,69,228266,1,0,0:0:0:0:
215,269,228442,1,0,0:0:0:0:
231,35,228619,1,0,0:0:0:0:
102,217,228795,6,0,P|39:229|-3:218,1,98.1846040149248,6|0,0:0|0:0,0:0:0:0:
136,31,229148,2,0,P|184:23|231:35,1,98.1846040149248
403,148,229501,1,8,0:0:0:0:
266,196,229678,1,0,0:0:0:0:
331,25,229854,1,0,0:0:0:0:
462,50,230031,1,0,0:0:0:0:
266,196,230207,6,0,P|212:201|157:181,1,98.1846040149248,2|0,0:0|0:0,0:0:0:0:
272,81,230560,1,0,0:0:0:0:
373,222,230737,1,0,0:0:0:0:
170,188,230913,1,8,0:0:0:0:
363,121,231089,1,0,0:0:0:0:
290,285,231266,1,0,0:0:0:0:
178,96,231442,1,0,0:0:0:0:
373,222,231619,6,0,P|425:225|469:204,1,98.1846040149248,6|0,0:0|0:0,0:0:0:0:
272,81,231972,2,0,P|220:78|176:99,1,98.1846040149248
120,268,232325,1,8,0:0:0:0:
236,305,232501,1,0,0:0:0:0:
178,96,232678,1,0,0:0:0:0:
120,268,232854,1,0,0:0:0:0:
319,180,233031,5,2,0:0:0:0:
272,81,233207,1,0,0:0:0:0:
236,305,233384,1,0,0:0:0:0:
380,266,233560,1,0,0:0:0:0:
161,198,233737,2,0,L|54:199,1,98.1846040149248,8|0,0:0|0:0,0:0:0:0:
302,216,234089,1,0,0:0:0:0:
217,73,234266,1,0,0:0:0:0:
102,310,234442,6,0,P|147:323|209:316,1,98.1846040149248,6|0,0:0|0:0,0:0:0:0:
397,225,234795,2,0,P|348:212|290:219,1,98.1846040149248
91,162,235148,2,0,P|146:170|197:153,1,98.1846040149248,8|0,0:0|0:0,0:0:0:0:
271,39,235501,1,0,0:0:0:0:
139,50,235678,1,0,0:0:0:0:
296,244,235854,6,0,P|301:191|282:139,1,98.1846040149248,2|0,0:0|0:0,0:0:0:0:
90,255,236207,2,0,P|89:303|109:352,1,98.1846040149248
389,253,236560,2,0,P|338:236|285:248,1,98.1846040149248,8|0,0:0|0:0,0:0:0:0:
188,286,236913,1,0,0:0:0:0:
224,130,237089,1,0,0:0:0:0:
331,334,237266,6,0,P|281:359|226:354,1,98.1846040149248,6|0,0:0|0:0,0:0:0:0:
46,246,237619,2,0,P|97:224|151:226,1,98.1846040149248
382,173,237972,1,8,0:0:0:0:
293,101,238148,1,0,0:0:0:0:
287,303,238325,1,0,0:0:0:0:
396,262,238501,1,0,0:0:0:0:
194,176,238678,5,2,0:0:0:0:
171,293,238854,1,0,0:0:0:0:
382,173,239031,1,0,0:0:0:0:
348,58,239207,1,0,0:0:0:0:
194,176,239384,1,8,0:0:0:0:
306,237,239560,1,0,0:0:0:0:
228,38,239737,1,0,0:0:0:0:
116,89,239913,1,0,0:0:0:0:
331,155,240089,6,0,P|380:152|423:121,1,98.1846040149248,6|0,0:0|0:0,0:0:0:0:
228,38,240442,2,0,P|208:101|218:142,1,98.1846040149248
357,292,240795,2,0,P|312:254|258:247,1,98.1846040149248,8|0,0:0|0:0,0:0:0:0:
64,244,241148,2,0,P|113:254|160:237,1,98.1846040149248
318,137,241501,6,0,P|364:121|411:131,1,98.1846040149248,2|0,0:0|0:0,0:0:0:0:
274,245,241854,1,0,0:0:0:0:
253,54,242031,1,0,0:0:0:0:
371,216,242207,2,0,P|422:226|473:205,2,98.1846040149248,8|0|0,0:0|0:0|0:0,0:0:0:0:
239,154,242737,1,0,0:0:0:0:
70,256,242913,5,6,0:0:0:0:
189,301,243089,1,0,0:0:0:0:
127,135,243266,1,0,0:0:0:0:
70,256,243442,1,0,0:0:0:0:
235,190,243619,1,8,0:0:0:0:
310,312,243795,1,0,0:0:0:0:
482,267,243972,1,0,0:0:0:0:
316,204,244148,1,0,0:0:0:0:
414,357,244325,5,2,0:0:0:0:
426,178,244501,1,0,0:0:0:0:
310,314,244678,1,0,0:0:0:0:
482,267,244854,1,0,0:0:0:0:
339,95,245031,1,8,0:0:0:0:
185,249,245207,1,0,0:0:0:0:
405,202,245384,1,0,0:0:0:0:
116,178,245560,1,0,0:0:0:0:
399,291,245737,5,6,0:0:0:0:
256,192,245825,12,0,248560,0:0:0:0:
