osu file format v14

[General]
AudioFilename: Tristam - My Friend.mp3
AudioLeadIn: 0
PreviewTime: 90084
Countdown: 0
SampleSet: Soft
StackLeniency: 0.6
Mode: 0
LetterboxInBreaks: 1
WidescreenStoryboard: 1

[Editor]
Bookmarks: 22675,45263,67851,90439,113027,135616,158204,180792,203380,225969,245733,248557
DistanceSpacing: 1.4
BeatDivisor: 4
GridSize: 4
TimelineZoom: 1.4

[Metadata]
Title:My Friend
TitleUnicode:My Friend
Artist:Tristam
ArtistUnicode:Tristam
Creator:grumd
Version:Hard (by Fanteer + grumd)
Source:
Tags:drumstep monstercat ReFaller Shmiklak Fanteer Secretpipe vanucik5656
BeatmapID:1048019
BeatmapSetID:417938

[Difficulty]
HPDrainRate:5.5
CircleSize:3.7
OverallDifficulty:6
ApproachRate:7.6
SliderMultiplier:1.2
SliderTickRate:1

[Events]
//Background and Video events
0,0,"822092656.jpg",0,0
//Break Periods
2,113225,134805
//Storyboard Layer 0 (Background)
//Storyboard Layer 1 (Fail)
//Storyboard Layer 2 (Pass)
//Storyboard Layer 3 (Foreground)
//Storyboard Sound Samples

[TimingPoints]
0,352.941176470588,4,2,0,50,1,0
22673,352.941176470588,4,2,0,50,1,0
22673,-166.666666666667,4,2,0,50,0,0
45261,-166.666666666667,4,2,0,30,0,0
67143,-200,4,2,0,60,0,0
67849,-90.9090909090909,4,2,0,80,0,0
89202,-90.9090909090909,4,2,0,50,0,0
90437,-90.9090909090909,4,2,0,80,0,1
107378,-90.9090909090909,4,2,0,60,0,1
109496,-111.111111111111,4,2,0,40,0,1
111614,-133.333333333333,4,2,0,20,0,1
113025,-133.333333333333,4,2,0,30,0,0
135614,-166.666666666667,4,2,0,50,0,0
158202,-166.666666666667,4,2,0,30,0,0
180084,-200,4,2,0,60,0,0
180790,-90.9090909090909,4,2,0,80,0,0
201967,-90.9090909090909,4,2,0,60,0,0
202320,-90.9090909090909,4,2,0,30,0,0
202672,-90.9090909090909,4,2,0,40,0,0
203025,-90.9090909090909,4,2,0,50,0,0
203378,-90.9090909090909,4,2,0,80,0,1
224555,-90.9090909090909,4,2,0,60,0,0
224908,-125,4,2,0,40,0,0
225261,-125,4,2,0,50,0,0
225614,-90.9090909090909,4,2,0,60,0,0
225967,-90.9090909090909,4,2,0,90,0,1
245731,-90.9090909090909,4,2,0,60,0,0
246437,-90.9090909090909,4,2,0,50,0,0
247143,-90.9090909090909,4,2,0,40,0,0
247849,-90.9090909090909,4,2,0,30,0,0
248202,-90.9090909090909,4,2,0,20,0,0
248378,-90.9090909090909,4,2,0,10,0,0

[Colours]
Combo1 : 241,65,65
Combo2 : 164,207,240
Combo3 : 130,138,247
Combo4 : 182,148,245
Combo5 : 248,165,124

[HitObjects]
109,117,22674,6,0,L|154:110,1,35.9999989013672
200,181,23026,2,0,L|188:263,1,71.9999978027344
143,330,23556,1,0,0:0:0:0:
226,363,23732,2,0,L|268:351,1,35.9999989013672
397,307,24085,6,0,L|303:287,1,71.9999978027344
310,207,24615,2,0,P|326:170|331:111,1,71.9999978027344
289,63,25144,2,0,L|244:70,1,35.9999989013672
213,148,25497,5,0,0:0:0:0:
125,125,25674,1,0,0:0:0:0:
73,199,25850,2,0,L|62:280,1,71.9999978027344
125,335,26379,1,0,0:0:0:0:
125,335,26556,2,0,L|130:372,1,35.9999989013672
163,177,26909,38,0,L|153:248,1,71.9999978027344
234,289,27438,2,0,P|270:271|311:264,1,71.9999978027344
386,293,27968,2,0,P|407:298|431:299,1,35.9999989013672
490,195,28321,5,0,0:0:0:0:
420,138,28497,2,0,P|368:162|314:166,1,107.999996704102
222,70,29203,2,0,L|236:154,1,71.9999978027344
131,193,29732,6,0,L|142:121,1,71.9999978027344
90,50,30262,2,0,P|146:106|196:108,1,107.999996704102
254,82,30968,1,0,0:0:0:0:
371,118,31144,37,0,0:0:0:0:
262,94,31321,1,0,0:0:0:0:
228,177,31497,2,0,P|185:195|140:199,1,71.9999978027344
75,179,32026,1,0,0:0:0:0:
52,267,32203,2,0,L|59:316,1,35.9999989013672
183,337,32556,6,0,L|198:259,1,71.9999978027344
285,239,33085,2,0,P|327:268|358:275,1,71.9999978027344
432,252,33615,1,0,0:0:0:0:
512,284,33791,1,0,0:0:0:0:
502,166,33968,6,0,L|458:173,1,35.9999989013672
379,140,34321,2,0,L|394:60,1,71.9999978027344
313,27,34850,2,0,P|276:32|228:50,1,71.9999978027344
207,154,35379,38,0,P|215:199|157:268,1,107.999996704102
101,288,36085,2,0,L|54:280,1,35.9999989013672
48,196,36438,2,0,L|94:189,1,35.9999989013672
131,114,36791,5,0,0:0:0:0:
182,211,36968,1,0,0:0:0:0:
245,147,37144,2,0,P|281:138|319:136,1,71.9999978027344
397,168,37672,1,0,0:0:0:0:
346,240,37850,2,0,L|352:286,1,35.9999989013672
478,211,38203,6,0,L|488:138,1,71.9999978027344
412,86,38732,2,0,P|378:101|343:108,1,71.9999978027344
252,89,39262,2,0,L|246:48,1,35.9999989013672
160,164,39615,38,0,L|146:274,1,107.999996704102
190,350,40321,2,0,L|228:341,1,35.9999989013672
267,262,40672,2,0,L|306:271,1,35.9999989013672
359,343,41026,6,0,P|396:337|427:323,1,71.9999978027344
452,234,41556,2,0,P|419:219|383:213,1,71.9999978027344
295,231,42085,2,0,L|282:281,1,35.9999989013672
235,124,42438,5,0,0:0:0:0:
119,142,42615,1,0,0:0:0:0:
136,228,42790,2,0,L|219:241,1,71.9999978027344
286,279,43321,1,0,0:0:0:0:
359,227,43497,2,0,L|400:222,1,35.9999989013672
314,357,43850,38,0,P|261:357|203:278,1,143.999995605469
240,78,45262,6,0,L|385:46,1,143.999995605469
441,98,46144,2,0,L|435:155,1,35.9999989013672
387,195,46497,2,0,P|349:192|309:175,2,71.9999978027344
448,245,47379,2,0,L|454:286,1,35.9999989013672
373,280,47732,2,0,L|379:321,1,35.9999989013672
299,306,48085,2,0,P|264:276|167:264,1,143.999995605469
40,160,49497,2,0,L|60:60,1,71.9999978027344
158,54,50203,1,0,0:0:0:0:
258,104,50556,1,0,0:0:0:0:
365,72,50909,2,0,P|419:107|421:192,1,143.999995605469
257,247,52321,2,0,P|246:285|244:329,1,71.9999978027344
340,206,53026,2,0,L|335:171,1,35.9999989013672
259,144,53379,2,0,L|264:109,1,35.9999989013672
203,58,53732,2,0,P|153:93|85:94,2,107.999996704102
317,34,55144,2,0,P|369:42|412:74,2,107.999996704102
265,130,56556,2,0,P|274:187|310:229,1,107.999996704102
349,238,57262,2,0,L|471:215,2,107.999996704102
291,332,58672,2,0,L|240:342,1,35.9999989013672
217,273,59026,2,0,L|252:266,1,35.9999989013672
312,220,59379,2,0,P|323:177|264:100,1,143.999995605469
165,134,60438,1,0,0:0:0:0:
68,86,60791,2,0,L|45:233,1,143.999995605469
121,305,61850,2,0,L|168:298,1,35.9999989013672
212,250,62203,2,0,P|253:288|352:294,1,143.999995605469
425,235,63262,1,0,0:0:0:0:
362,146,63615,2,0,P|353:88|419:30,1,143.999995605469
510,69,64672,1,0,0:0:0:0:
439,150,65026,2,0,L|464:266,1,107.999996704102
400,304,65732,2,0,L|390:352,1,35.9999989013672
334,260,66085,2,0,L|324:308,1,35.9999989013672
260,331,66438,2,0,L|241:219,1,107.999996704102
174,191,67144,2,0,P|143:213|86:224,1,90
34,167,67850,38,0,P|82:84|182:89,1,198.000006042481
264,130,68556,2,0,L|342:117,1,66.0000020141602
461,190,68909,2,0,L|383:177,1,66.0000020141602
333,256,69262,2,0,P|294:319|173:320,1,198.000006042481
131,236,69968,2,0,P|137:203|154:172,1,66.0000020141602
229,112,70321,2,0,P|262:100|304:95,1,66.0000020141602
334,185,70672,2,0,P|269:221|263:344,1,198.000006042481
351,365,71379,2,0,L|428:352,1,66.0000020141602
467,268,71732,2,0,L|390:255,1,66.0000020141602
334,185,72085,2,0,P|329:98|416:37,1,198.000006042481
423,135,72791,2,0,B|390:152|390:152|351:147|351:147|294:186|221:162,1,198.000006042481
159,98,73497,2,0,P|242:153|234:249,1,198.000006042481
150,288,74203,2,0,L|74:274,1,66.0000020141602
38,188,74556,2,0,L|114:174,1,66.0000020141602
170,103,74909,2,0,P|210:168|338:164,1,198.000006042481
390,101,75615,2,0,B|386:66|386:66|371:32,1,66.0000020141602
456,174,75968,2,0,B|443:204|443:204|440:237,1,66.0000020141602
493,321,76321,2,0,P|425:377|312:353,1,198.000006042481
277,272,77026,2,0,L|292:199,1,66.0000020141602
191,202,77379,2,0,L|206:129,1,66.0000020141602
290,87,77732,2,0,P|206:158|116:133,1,198.000006042481
88,49,78438,2,0,B|104:76|101:107|101:107|114:88|114:88|155:138|137:200,1,198.000006042481
59,256,79144,2,0,P|38:184|144:100,1,198.000006042481
138,196,79850,2,0,L|211:184,1,66.0000020141602
235,279,80203,2,0,L|300:289,1,66.0000020141602
389,246,80556,2,0,L|352:28,1,198.000006042481
453,36,81262,2,0,P|453:72|442:107,1,66.0000020141602
362,146,81615,2,0,P|324:142|291:122,1,66.0000020141602
355,50,81968,2,0,P|442:88|445:198,1,198.000006042481
388,256,82672,2,0,P|350:264|317:264,1,66.0000020141602
249,198,83025,2,0,P|213:185|176:182,1,66.0000020141602
97,227,83379,2,0,P|170:184|177:75,1,198.000006042481
86,42,84085,2,0,L|159:57,1,66.0000020141602
211,134,84438,2,0,L|290:122,1,66.0000020141602
340,48,84791,2,0,P|285:98|311:221,1,198.000006042481
391,252,85497,2,0,L|379:333,1,66.0000020141602
292,362,85850,2,0,L|304:286,1,66.0000020141602
214,249,86203,2,0,P|163:308|47:306,1,198.000006042481
25,211,86909,2,0,B|47:200|55:174|55:174|63:197|63:197|91:136|159:125,1,198.000006042481
232,191,87615,2,0,P|170:151|181:36,1,198.000006042481
277,25,88321,2,0,P|314:41|349:46,1,66.0000020141602
389,130,88673,2,0,P|421:120|456:117,1,66.0000020141602
441,215,89026,1,0,0:0:0:0:
441,215,89732,6,0,P|473:267|481:347,1,132.00000402832
284,356,90438,6,0,P|250:350|212:348,1,66.0000020141602
147,282,90791,2,0,P|114:284|81:289,1,66.0000020141602
216,216,91144,2,0,P|218:183|224:140,1,66.0000020141602
292,80,91497,2,0,P|289:47|285:14,1,66.0000020141602
364,148,91850,6,0,P|396:140|448:136,2,66.0000020141602
292,80,92379,1,0,0:0:0:0:
200,44,92556,2,0,P|168:40|134:40,1,66.0000020141602
72,201,92909,6,0,P|92:240|101:302,1,99.0000030212403
104,328,93262,6,0,P|136:324|188:320,1,66.0000020141602
260,360,93615,2,0,P|292:357|325:353,1,66.0000020141602
406,296,93968,1,0,0:0:0:0:
381,200,94144,1,0,0:0:0:0:
431,114,94321,2,0,P|425:81|416:49,1,66.0000020141602
327,85,94673,6,0,P|288:84|235:77,1,66.0000020141602
205,150,95026,2,0,P|172:150|139:153,1,66.0000020141602
255,280,95379,2,0,P|263:317|270:357,1,66.0000020141602
166,249,95732,5,0,0:0:0:0:
166,249,95909,1,0,0:0:0:0:
275,186,96085,6,0,P|311:181|351:178,1,66.0000020141602
412,229,96438,2,0,P|444:233|477:236,1,66.0000020141602
332,351,96791,2,0,P|335:317|344:275,1,66.0000020141602
412,229,97144,2,0,P|408:196|402:163,1,66.0000020141602
348,86,97497,5,0,0:0:0:0:
278,152,97672,1,0,0:0:0:0:
181,162,97850,2,0,P|146:152|113:150,1,66.0000020141602
228,245,98203,2,0,P|260:242|292:232,1,66.0000020141602
383,258,98556,5,0,0:0:0:0:
360,374,98732,1,0,0:0:0:0:
389,253,98909,6,0,P|386:218|381:177,1,66.0000020141602
437,112,99262,2,0,P|439:79|443:46,1,66.0000020141602
336,98,99615,1,0,0:0:0:0:
377,183,99791,1,0,0:0:0:0:
295,240,99968,2,0,P|259:232|215:232,1,66.0000020141602
142,186,100321,6,0,P|136:154|136:116,1,66.0000020141602
212,59,100673,1,0,0:0:0:0:
304,86,100850,1,0,0:0:0:0:
346,169,101026,2,0,P|378:167|411:162,1,66.0000020141602
493,250,101379,5,0,0:0:0:0:
394,342,101556,1,0,0:0:0:0:
315,277,101732,6,0,P|282:271|249:268,1,66.0000020141602
165,328,102085,2,0,P|132:332|99:334,1,66.0000020141602
54,237,102438,2,0,P|55:204|60:171,1,66.0000020141602
127,102,102791,2,0,P|124:69|120:36,1,66.0000020141602
230,145,103144,6,0,P|266:141|301:134,2,66.0000020141602
168,76,103673,1,0,0:0:0:0:
80,109,103850,2,0,P|72:142|69:177,1,66.0000020141602
155,266,104203,6,0,P|202:263|266:288,1,99.0000030212403
282,296,104556,6,0,P|278:265|271:231,1,66.0000020141602
215,157,104909,2,0,P|218:124|225:92,1,66.0000020141602
320,65,105262,1,0,0:0:0:0:
412,101,105438,1,0,0:0:0:0:
369,184,105615,2,0,P|374:217|383:248,1,66.0000020141602
301,348,105967,6,0,P|262:347|209:340,1,66.0000020141602
156,283,106320,2,0,P|123:283|90:286,1,66.0000020141602
232,192,106673,2,0,P|240:229|247:269,1,66.0000020141602
210,358,107026,5,0,0:0:0:0:
210,358,107203,1,0,0:0:0:0:
325,313,107379,6,0,P|361:308|401:305,1,66.0000020141602
432,225,107732,2,0,P|464:229|497:232,1,66.0000020141602
345,190,108085,2,0,P|342:156|333:114,1,66.0000020141602
249,91,108438,2,0,P|253:58|259:25,1,66.0000020141602
201,173,108791,5,0,0:0:0:0:
119,120,108968,1,0,0:0:0:0:
42,180,109144,2,0,P|32:215|30:245,1,66.0000020141602
111,306,109497,2,0,L|175:296,1,53.9999983520508
249,343,109850,5,0,0:0:0:0:
249,343,110026,1,0,0:0:0:0:
329,296,110203,6,0,P|326:261|319:226,1,53.9999983520508
265,173,110556,2,0,P|267:140|271:108,1,53.9999983520508
256,42,110909,1,0,0:0:0:0:
178,63,111085,1,0,0:0:0:0:
99,38,111262,2,0,P|65:33|32:35,1,53.9999983520508
17,128,111614,6,0,P|14:149|13:180,2,45.0000017166138
78,116,112143,1,0,0:0:0:0:
121,160,112320,2,0,P|127:182|130:204,1,45.0000017166138
95,252,112672,2,0,P|89:273|86:295,1,45.0000017166138
108,346,113025,1,0,0:0:0:0:
344,48,135615,6,0,L|349:83,1,35.9999989013672
296,156,135967,2,0,L|284:238,1,71.9999978027344
292,316,136497,1,0,0:0:0:0:
216,360,136673,2,0,L|172:352,1,35.9999989013672
87,273,137026,6,0,P|87:241|96:203,1,71.9999978027344
142,140,137556,2,0,L|214:133,1,71.9999978027344
284,175,138085,2,0,L|329:179,1,35.9999989013672
426,126,138438,5,0,0:0:0:0:
468,231,138615,1,0,0:0:0:0:
410,292,138791,2,0,L|329:281,1,71.9999978027344
263,232,139320,1,0,0:0:0:0:
188,282,139497,2,0,L|182:317,1,35.9999989013672
89,201,139850,38,0,L|85:128,1,71.9999978027344
156,82,140379,2,0,P|191:83|227:90,1,71.9999978027344
304,130,140909,2,0,P|321:128|339:123,1,35.9999989013672
450,180,141262,5,0,0:0:0:0:
386,236,141438,2,0,P|370:289|371:346,1,107.999996704102
288,367,142144,2,0,P|252:358|216:355,1,71.9999978027344
164,210,142673,6,0,L|175:282,1,71.9999978027344
131,354,143203,2,0,P|97:332|70:269,1,107.999996704102
98,189,143909,1,0,0:0:0:0:
190,120,144085,37,0,0:0:0:0:
261,209,144262,1,0,0:0:0:0:
342,171,144438,2,0,P|378:160|427:156,1,71.9999978027344
490,200,144967,1,0,0:0:0:0:
451,284,145144,2,0,L|458:333,1,35.9999989013672
340,342,145497,6,0,L|262:327,1,71.9999978027344
207,275,146026,2,0,P|209:238|220:200,1,71.9999978027344
278,142,146556,1,0,0:0:0:0:
359,171,146732,1,0,0:0:0:0:
453,98,146909,6,0,L|443:54,1,35.9999989013672
360,61,147262,2,0,P|324:52|282:48,1,71.9999978027344
208,82,147790,2,0,P|173:90|137:94,1,71.9999978027344
67,154,148320,38,0,L|80:272,1,107.999996704102
144,323,149026,2,0,P|165:317|191:315,1,35.9999989013672
254,364,149378,2,0,P|271:368|289:371,1,35.9999989013672
358,269,149732,5,0,0:0:0:0:
263,192,149909,1,0,0:0:0:0:
190,245,150085,2,0,P|181:279|178:315,1,71.9999978027344
254,364,150615,1,0,0:0:0:0:
345,342,150791,2,0,L|351:304,1,35.9999989013672
459,240,151144,6,0,L|449:167,1,71.9999978027344
380,112,151673,2,0,P|340:106|302:109,1,71.9999978027344
227,151,152203,2,0,L|221:186,1,35.9999989013672
95,157,152556,38,0,L|81:49,1,107.999996704102
171,46,153262,2,0,L|178:84,1,35.9999989013672
187,170,153614,2,0,L|180:205,1,35.9999989013672
249,310,153967,6,0,P|285:301|336:298,1,71.9999978027344
381,236,154496,2,0,P|415:244|451:248,1,71.9999978027344
512,182,155026,2,0,L|507:147,1,35.9999989013672
413,57,155379,5,0,0:0:0:0:
329,145,155556,1,0,0:0:0:0:
256,92,155731,2,0,L|173:79,1,71.9999978027344
101,43,156262,1,0,0:0:0:0:
29,97,156438,2,0,L|24:138,1,35.9999989013672
98,231,156791,38,0,L|246:216,1,143.999995605469
404,29,158202,6,0,L|399:79,1,35.9999989013672
445,129,158555,2,0,L|448:164,1,35.9999989013672
393,222,158908,2,0,P|400:259|407:300,1,71.9999978027344
353,352,159437,2,0,P|318:344|281:340,1,71.9999978027344
127,303,160143,1,0,0:0:0:0:
163,232,160320,2,0,P|166:212|168:187,1,35.9999989013672
133,125,160672,2,0,P|130:107|128:89,1,35.9999989013672
183,31,161025,6,0,L|254:25,1,71.9999978027344
324,64,161555,2,0,P|353:130|358:211,1,143.999995605469
314,266,162437,2,0,P|310:290|307:317,2,35.9999989013672
369,209,162967,2,0,P|403:202|445:201,1,71.9999978027344
499,147,163496,1,0,0:0:0:0:
374,49,163849,6,0,L|302:53,1,71.9999978027344
229,21,164378,1,0,0:0:0:0:
158,58,164555,2,0,P|134:106|130:173,1,107.999996704102
174,224,165261,1,0,0:0:0:0:
225,284,165437,2,0,P|229:306|230:329,1,35.9999989013672
169,371,165790,2,0,P|132:371|90:363,1,71.9999978027344
44,305,166320,2,0,L|42:260,1,35.9999989013672
89,205,166672,6,0,L|98:92,2,107.999996704102
231,134,168084,2,0,L|222:26,2,107.999996704102
344,244,169496,6,0,L|308:240,1,35.9999989013672
240,284,169849,2,0,L|205:287,1,35.9999989013672
144,236,170202,2,0,P|148:196|160:160,1,71.9999978027344
200,96,170731,2,0,P|196:56|184:20,1,71.9999978027344
56,116,171437,1,0,0:0:0:0:
121,161,171614,2,0,P|141:164|166:166,1,35.9999989013672
220,212,171966,2,0,P|238:209|256:207,1,35.9999989013672
328,240,172319,6,0,L|334:311,1,71.9999978027344
264,352,172849,2,0,P|216:300|144:296,1,143.999995605469
72,320,173731,2,0,P|68:344|65:371,2,35.9999989013672
52,244,174261,2,0,P|57:209|69:169,1,71.9999978027344
140,140,174790,1,0,0:0:0:0:
280,212,175143,6,0,L|352:208,1,71.9999978027344
424,244,175672,1,0,0:0:0:0:
472,180,175849,2,0,P|466:126|442:78,1,107.999996704102
368,48,176555,1,0,0:0:0:0:
292,72,176731,2,0,P|274:70|256:67,1,35.9999989013672
180,92,177084,2,0,P|168:128|164:168,1,71.9999978027344
196,236,177614,2,0,L|200:272,1,35.9999989013672
256,192,177967,12,0,180084,0:0:0:0:
292,224,180790,38,0,P|340:307|440:302,1,198.000006042481
485,221,181496,2,0,L|472:143,1,66.0000020141602
387,107,181849,2,0,L|374:185,1,66.0000020141602
292,224,182202,2,0,P|229:185|228:64,1,198.000006042481
132,31,182908,2,0,P|116:60|110:92,1,66.0000020141602
169,172,183261,2,0,P|202:160|244:155,1,66.0000020141602
291,233,183612,2,0,P|327:298|450:304,1,198.000006042481
479,216,184319,2,0,L|466:139,1,66.0000020141602
369,136,184672,2,0,L|382:59,1,66.0000020141602
287,35,185025,2,0,P|234:114|139:112,1,198.000006042481
78,34,185731,2,0,B|95:67|95:67|90:106|90:106|129:163|105:236,1,198.000006042481
63,310,186437,2,0,P|158:309|209:224,1,198.000006042481
172,136,187143,2,0,L|96:122,1,66.0000020141602
147,33,187496,2,0,L|223:19,1,66.0000020141602
263,105,187849,2,0,P|303:170|431:166,1,198.000006042481
493,238,188555,2,0,B|489:273|489:273|474:307,1,66.0000020141602
387,344,188908,2,0,B|374:314|374:314|371:281,1,66.0000020141602
410,189,189261,2,0,P|342:252|246:211,1,198.000006042481
202,134,189966,2,0,L|217:61,1,66.0000020141602
125,26,190319,2,0,L|111:90,1,66.0000020141602
202,134,190672,2,0,P|124:191|36:157,1,198.000006042481
111,90,191378,2,0,B|127:117|124:148|124:148|137:129|137:129|178:179|160:241,1,198.000006042481
207,324,192084,2,0,P|186:252|292:168,1,198.000006042481
345,224,192790,2,0,L|418:212,1,66.0000020141602
388,116,193143,2,0,L|453:126,1,66.0000020141602
506,209,193496,2,0,L|469:-9,1,198.000006042481
381,52,194202,2,0,P|346:51|310:41,1,66.0000020141602
239,106,194555,2,0,P|202:112|168:130,1,66.0000020141602
217,214,194908,2,0,P|304:252|307:362,1,198.000006042481
412,329,195612,2,0,P|420:291|420:258,1,66.0000020141602
364,182,195965,2,0,P|351:146|348:109,1,66.0000020141602
252,147,196319,2,0,P|325:104|311:-1,1,198.000006042481
224,44,197025,2,0,L|159:30,1,66.0000020141602
95,107,197378,2,0,L|161:121,1,66.0000020141602
223,196,197731,2,0,P|161:245|184:354,1,198.000006042481
280,344,198437,2,0,L|289:278,1,66.0000020141602
378,322,198790,2,0,L|390:246,1,66.0000020141602
319,185,199143,2,0,P|268:244|152:242,1,198.000006042481
87,170,199849,2,0,B|109:159|117:133|117:133|125:156|125:156|153:95|221:84,1,198.000006042481
276,165,200555,2,0,P|214:125|225:10,1,198.000006042481
317,42,201261,2,0,P|354:58|389:63,1,66.0000020141602
407,156,201613,2,0,P|439:146|474:143,1,66.0000020141602
466,242,201966,1,0,0:0:0:0:
59,183,203378,6,0,P|154:198|217:127,1,198.000006042481
212,28,204084,2,0,P|296:70|309:165,1,198.000006042481
244,240,204790,6,0,B|216:288|212:352|212:352|176:332|128:328,1,198.000006042481
52,272,205496,2,0,P|40:184|76:80,1,198.000006042481
172,68,206202,6,0,B|208:68|236:76|236:76|300:56|300:56|336:68|376:60,1,198.000006042481
460,96,206908,2,0,P|476:124|492:168,1,66.0000020141602
416,224,207261,2,0,P|396:268|388:320,1,99.0000030212403
400,344,207614,6,0,P|316:320|216:364,1,198.000006042481
148,292,208320,2,0,P|148:256|152:224,1,66.0000020141602
200,140,208672,1,0,0:0:0:0:
140,60,208849,1,0,0:0:0:0:
236,40,209025,6,0,P|292:88|280:208,1,198.000006042481
192,240,209731,2,0,B|144:240|96:252|96:252|92:192|76:144,1,198.000006042481
124,64,210437,6,0,B|192:48|192:48|256:68|324:64,1,198.000006042481
404,16,211143,2,0,P|460:68|452:196,1,198.000006042481
380,244,211849,6,0,B|312:244|252:256|252:256|241:218|228:184,1,198.000006042481
152,128,212555,2,0,P|140:160|132:196,1,66.0000020141602
64,264,212908,2,0,P|76:296|84:332,1,66.0000020141602
176,360,213261,6,0,L|376:348,1,198.000006042481
436,272,213967,2,0,P|428:239|417:208,1,66.0000020141602
332,156,214319,1,0,0:0:0:0:
356,60,214496,1,0,0:0:0:0:
260,32,214672,6,0,B|216:28|184:40|184:40|148:12|56:24,1,198.000006042481
24,112,215378,2,0,B|-3:152|16:208|16:208|36:257|10:303,1,198.000006042481
84,372,216084,6,0,P|136:308|268:324,1,198.000006042481
332,264,216790,2,0,L|300:64,1,198.000006042481
204,84,217496,6,0,P|152:24|40:40,1,198.000006042481
68,132,218202,2,0,P|80:164|88:200,1,66.0000020141602
36,280,218555,2,0,P|24:312|16:348,1,66.0000020141602
108,380,218908,6,0,L|308:368,1,198.000006042481
384,308,219614,2,0,P|420:320|460:188,1,198.000006042481
408,144,220320,6,0,P|376:136|332:132,1,66.0000020141602
264,192,220672,2,0,P|232:199|199:203,1,66.0000020141602
320,70,221025,2,0,P|335:104|344:138,1,66.0000020141602
264,192,221378,2,0,P|249:226|240:260,1,66.0000020141602
300,332,221731,6,0,P|364:320|448:312,2,132.00000402832
208,368,222614,1,0,0:0:0:0:
120,324,222790,2,0,P|84:312|48:308,1,66.0000020141602
108,224,223143,6,0,P|108:148|0:120,1,198.000006042481
60,32,223849,2,0,L|276:20,1,198.000006042481
352,52,224555,5,0,0:0:0:0:
359,213,224908,2,0,P|308:211|265:190,2,96
156,326,225967,6,0,L|144:253,1,66.0000020141602
60,222,226320,2,0,B|70:151,1,66.0000020141602
148,109,226672,2,0,P|201:168|313:162,1,198.000006042481
361,83,227378,2,0,P|356:48|342:15,1,66.0000020141602
253,5,227731,1,0,0:0:0:0:
185,68,227908,1,0,0:0:0:0:
209,156,228084,2,0,P|168:199|91:202,1,132.00000402832
29,141,228614,1,0,0:0:0:0:
98,204,228790,2,0,L|89:284,1,66.0000020141602
191,348,229143,2,0,L|183:275,1,66.0000020141602
259,228,229496,2,0,B|325:237|325:237|350:229|350:229|456:245,1,198.000006042481
504,167,230202,2,0,P|498:132|486:104,2,66.0000020141602
454,245,230731,1,0,0:0:0:0:
381,187,230908,2,0,L|309:197,1,66.0000020141602
247,134,231261,2,0,L|174:124,1,66.0000020141602
125,199,231614,2,0,P|194:232|195:363,1,198.000006042481
116,355,232320,2,0,P|172:280|125:199,1,198.000006042481
42,160,233025,2,0,P|79:173|114:176,1,66.0000020141602
176,116,233378,2,0,P|208:106|247:101,1,66.0000020141602
312,159,233731,1,0,0:0:0:0:
245,223,233908,2,0,L|234:288,2,66.0000020141602
312,159,234437,2,0,P|367:197|452:194,1,132.00000402832
473,118,234967,1,0,0:0:0:0:
427,38,235143,2,0,L|359:48,1,66.0000020141602
312,126,235496,2,0,P|278:124|246:117,1,66.0000020141602
182,184,235849,2,0,P|224:237|219:311,1,132.00000402832
143,345,236378,1,0,0:0:0:0:
63,296,236555,2,0,L|76:231,1,66.0000020141602
26,153,236908,1,0,0:0:0:0:
110,116,237084,1,0,0:0:0:0:
182,174,237261,2,0,P|272:200|369:120,1,198.000006042481
278,96,237967,2,0,P|232:158|172:174,1,132.00000402832
96,138,238496,1,0,0:0:0:0:
52,219,238672,2,0,B|66:319|66:319|93:353,1,132.00000402832
176,361,239202,1,0,0:0:0:0:
238,293,239378,2,0,L|246:222,1,66.0000020141602
329,189,239731,2,0,P|361:200|399:204,1,66.0000020141602
469,151,240084,2,0,L|442:8,1,132.00000402832
359,58,240614,2,0,L|346:205,1,132.00000402832
256,170,241143,2,0,L|240:86,1,66.0000020141602
152,90,241496,2,0,P|118:104|86:108,2,66.0000020141602
214,21,242025,2,0,P|293:32|329:139,1,198.000006042481
246,172,242731,1,0,0:0:0:0:
271,261,242908,2,0,L|338:253,1,66.0000020141602
415,302,243261,1,0,0:0:0:0:
165,332,243614,1,0,0:0:0:0:
73,133,243967,2,0,L|85:203,1,66.0000020141602
172,224,244320,2,0,L|184:154,2,66.0000020141602
383,309,245025,1,0,0:0:0:0:
419,86,245378,2,0,L|427:155,1,66.0000020141602
359,215,245731,1,0,0:0:0:0:
